Loading...

Jorge Pardo & Chano Dominguez - 10 de Paco (1995)

Posted By : tiburon | Date : 05 Mar 2012 16:06:28 | Comments : 4 |
|



Jorge Pardo & Chano Dominguez - 10 de Paco (1995)
EAC 1.0b2 | FLAC tracks level 8 | Cue+Log+M3U | Full Scans 300dpi | 356MB + 5% Recovery
Genre: Flamenco, Jazz, Fusion

Ten songs of Paco de Lucia played by Jorge Pardo (sax and flute) and Chano Dominguez (piano) and accompanied by Javier Colina (bass), Tino di Geraldo (drums) and Luis Dulzaides (congas, bongos and chekere).

Track List
01. Solo quiero caminar 9:07
01. Chiquito 8:16
03. Río ancho 4:03
04. Zyriab 5:57
05. la tumbona 6:18
06. Se me partió la barrena 3:50
07. Almoraima 2:33
08. Playa del Carmen 8:50
09. Monasterio de sal 4:46
10. Canción de amor 7:29

musicians
Jorge Pardo - sax and flute
Chano DomÍnguez - piano
Javier Colina - double bass.
Tino Di Geraldo - percussion.
Luis Dulzaides - congas, bongos and chekere.
Conchi Heredia "Chonchi" - vocal and claps
"El Conde" - claps

Produced by Jorge Pardo, Chano Domínguez and Jesús Pardo

EAC Logfile

Exact Audio Copy V1.0 beta 2 from 29. April 2011

EAC extraction logfile from 3. March 2012, 19:35

Jorge Pardo y Chano Dominguez / 10 de Paco

Used drive : PLEXTOR DVDR PX-L890SA Adapter: 2 ID: 1

Read mode : Secure
Utilize accurate stream : Yes
Defeat audio cache : Yes
Make use of C2 pointers : No

Read offset correction : 6
Overread into Lead-In and Lead-Out : No
Fill up missing offset samples with silence : Yes
Delete leading and trailing silent blocks : No
Null samples used in CRC calculations : Yes
Used interface : Native Win32 interface for Win NT & 2000
Gap handling : Appended to previous track

Used output format : User Defined Encoder
Selected bitrate : 256 kBit/s
Quality : High
Add ID3 tag : No
Command line compressor : C:\Program Files (x86)\Exact Audio Copy\FLAC\FLAC.EXE
Additional command line options : -8 -V -T "ARTIST=%artist%" -T "TITLE=%title%" -T "ALBUM=%albumtitle%" -T "DATE=%year%" -T "TRACKNUMBER=%tracknr%" -T "TOTALTRACKS=%numtracks%" -T "GENRE=%genre%" -T "ALBUMARTIST=%albumartist%" -T "ALBUM ARTIST=%albumartist%


TOC of the extracted CD

Track | Start | Length | Start sector | End sector
---------------------------------------------------------
1 | 0:00.00 | 9:09.10 | 0 | 41184
2 | 9:09.10 | 8:16.27 | 41185 | 78411
3 | 17:25.37 | 4:03.15 | 78412 | 96651
4 | 21:28.52 | 5:58.48 | 96652 | 123549
5 | 27:27.25 | 6:22.45 | 123550 | 152244
6 | 33:49.70 | 3:56.42 | 152245 | 169986
7 | 37:46.37 | 2:34.15 | 169987 | 181551
8 | 40:20.52 | 8:30.53 | 181552 | 219854
9 | 48:51.30 | 4:47.60 | 219855 | 241439
10 | 53:39.15 | 7:32.15 | 241440 | 275354


Track 1

Filename F:\Flac Rips\01 - Solo quiero caminar.wav

Pre-gap length 0:00:02.00

Peak level 100.0 %
Extraction speed 3.6 X
Track quality 99.9 %
Test CRC D3A75ADC
Copy CRC D3A75ADC
Track not present in AccurateRip database
Copy OK

Track 2

Filename F:\Flac Rips\02 - Chiquito.wav

Peak level 100.0 %
Extraction speed 4.3 X
Track quality 99.9 %
Test CRC A31A68F2
Copy CRC A31A68F2
Track not present in AccurateRip database
Copy OK

Track 3

Filename F:\Flac Rips\03 - Rio ancho.wav

Peak level 100.0 %
Extraction speed 4.9 X
Track quality 100.0 %
Test CRC C2FDE5E7
Copy CRC C2FDE5E7
Track not present in AccurateRip database
Copy OK

Track 4

Filename F:\Flac Rips\04 - Zyriab.wav

Peak level 100.0 %
Extraction speed 5.5 X
Track quality 100.0 %
Test CRC D4712EBF
Copy CRC D4712EBF
Track not present in AccurateRip database
Copy OK

Track 5

Filename F:\Flac Rips\05 - La tumbona.wav

Pre-gap length 0:00:00.68

Peak level 100.0 %
Extraction speed 5.9 X
Track quality 100.0 %
Test CRC 52DE07D3
Copy CRC 52DE07D3
Track not present in AccurateRip database
Copy OK

Track 6

Filename F:\Flac Rips\06 - Se me partio la barrena.wav

Pre-gap length 0:00:02.35

Peak level 93.4 %
Extraction speed 5.9 X
Track quality 100.0 %
Test CRC D9BA8A08
Copy CRC D9BA8A08
Track not present in AccurateRip database
Copy OK

Track 7

Filename F:\Flac Rips\07 - Almoraima.wav

Pre-gap length 0:00:02.47

Peak level 91.6 %
Extraction speed 5.6 X
Track quality 100.0 %
Test CRC 1088FAC1
Copy CRC 1088FAC1
Track not present in AccurateRip database
Copy OK

Track 8

Filename F:\Flac Rips\08 - Playa del Carmen.wav

Peak level 100.0 %
Extraction speed 6.9 X
Track quality 100.0 %
Test CRC CCE6E60B
Copy CRC CCE6E60B
Track not present in AccurateRip database
Copy OK

Track 9

Filename F:\Flac Rips\09 - Monasterio de sal.wav

Peak level 94.9 %
Extraction speed 5.6 X
Track quality 99.9 %
Test CRC 08111E71
Copy CRC 08111E71
Track not present in AccurateRip database
Copy OK

Track 10

Filename F:\Flac Rips\10 - Cancion de amor.wav

Pre-gap length 0:00:00.03

Peak level 95.6 %
Extraction speed 6.5 X
Track quality 99.9 %
Test CRC 4760889C
Copy CRC 4760889C
Track not present in AccurateRip database
Copy OK


None of the tracks are present in the AccurateRip database

No errors occurred

End of status report

==== Log checksum 9EB856B633739D56BBF945D86FF128E02E68E5161EE9CBE17735B427E4F121B4 ====

Dynamic Range Analysis

--------------------------------------------------------------------------------
Analyzed: Jorge Pardo y Chano Dominguez / 10 de Paco
--------------------------------------------------------------------------------

DR Peak RMS Duration Track
--------------------------------------------------------------------------------
DR11 0.00 dB -12.71 dB 9:09 01-Solo quiero caminar
DR13 0.00 dB -15.22 dB 8:16 02-Chiquito
DR11 0.00 dB -12.80 dB 4:03 03-Rio ancho
DR12 0.00 dB -13.35 dB 5:59 04-Zyriab
DR9 0.00 dB -11.12 dB 6:23 05-La tumbona
DR10 -0.59 dB -16.99 dB 3:57 06-Se me partio la barrena
DR11 -0.76 dB -15.79 dB 2:34 07-Almoraima
DR11 0.00 dB -12.71 dB 8:31 08-Playa del Carmen
DR11 -0.45 dB -13.93 dB 4:48 09-Monasterio de sal
DR13 -0.39 dB -16.50 dB 7:32 10-Cancion de amor
--------------------------------------------------------------------------------

Number of tracks: 10
Official DR value: DR11

Samplerate: 44100 Hz
Channels: 2
Bits per sample: 16
Bitrate: 733 kbps
Codec: FLAC
================================================================================



Rip by jlgt



The Files Are Interchangeable
ADVERTISING » Very Fast Download!



« ADVERTISING




Posted By: Nick Cave Date: 05 Mar 2012 21:35:33
Interesante Trabajo, Muchas Gracias Amigo tiburon !!!!
Posted By: ruskaval Date: 08 Mar 2012 09:35:12
THANKS, BRO!
Posted By: fastantico Date: 08 Mar 2012 12:34:24
Muchas gracias!
Posted By: Txisko Date: 11 Mar 2012 18:51:44
Muchas gracias por el FLAC.