Loading...

Miles Davis - Chronicle. The Complete Prestige Recordings 1951-1956 {1987 Fantasy/ZYX, 8PCD 012-2} [Repost]

Posted By : Hungry Mind | Date : 28 Nov 2012 13:26:53 | Comments : 12 |
|



Miles Davis - Chronicle. The Complete Prestige Recordings 1951-1956 {1987 Fantasy/ZYX, 8PCD 012-2}
EAC Rip | FLAC (tracks+.cue+log) - 3,04 GB | Scans JPG - 44 MB | MP3 CBR 320 kbps (LAME 3.98) - 1,28 GB
Genre: jazz | RAR 5% Rec. | Label: Prestige / Fantasy / ZYX | CAT #8PCD 012-2 | 1987

This CD compilation presents, on 8 discs, 17 recording sessions made between 1951 and late 1956 by the extraordinary trumpeter, leader, composer, and perpetual catalyst–Miles Davis. Featured in this collection are such major artists as Charlie Parker, Thelonious Monk, Charles Mingus, Sonny Rollins, Lee Konitz, and the original Davis Quintet: John Coltrane, Red Garland, Paul Chambers, and Philly Joe Jones. The expanse of Miles Davis's recordings for Prestige Records, the California analogue to New York's Blue Note, is huge. In terms of artistic development, the eight CDs in this box span Davis's development from tentative searching through the full bloom of his first great quintet, whose frontline boasted Davis and a young John Coltrane.


The sessions captured on Chronicle begin in 1951, with Davis's grainy debut for the label in a sextet with Sonny Rollins, and continue with the fascinating Lee Konitz-led quintet that Davis was eminently adaptable to, even with the kind of angular sounds Konitz's band drummed up. Listing the remaining sessions would be an exercise in boasting, given the presence of so many virtuoso bop and postbop giants. Given that Davis may well have piqued Prestige founder Bob Weinstock's interest through his playing with Charlie Parker, Bird shows up on a 1953 date, doubling tenor saxes with Rollins. Some have remarked that the pre-1954 Davis dates don't show nearly the smarts of the 1954 and after works, but for all that huff, there's some deep stuff in the early sessions, from the twined tenor saxes of Al Cohn and Zoot Sims to Davis's own uneasily fragile tone that hadn't taken on the full heft of its later precision. Then there are the quintet recordings, which carve out a secure spot for Davis in the annals of ultracreative jazz.


Recorded in three marathon 1956 sessions, the quintet works came out on several LPs, all of which remain in print today in their exact form. The group sculpts a liquid groove that's got sharp teeth, what with Philly Joe Jones's crackling drums, and immeasurable tonic depth. Davis stays active in the midregister, blasting off lines that do indeed sound slow and methodical but also emit unmistakable impressionistic qualities that would wow fans for decades. Coltrane, himself still in a developing phase, drops lots of hints that knew bebop's architectonics so thoroughly as to be on the brink of deconstructing them definitively (which he later did on Giant Steps). Given the full trajectory of the music and the artists on these sessions, this is a majestic collection.


CHRONICLE: THE COMPLETE PRESTIGE RECORDINGS isn't a luxury, it's a necessity for fans of Miles Davis. Which isn't to say that listeners can't be perfectly happy with the individual OJC (Original Jazz Classics) reissues of his original recordings. It's just that when Miles first began recording, vinyl discs were moving from the 10" format to the modern 12" long playing, full length format which soon became an industry standard.

As a result, music from one session might very well be divided among several vinyl issues. So it came to pass that the famous Christmas Eve, 1954 session with Monk, Milt Jackson, Percy Heath and Kenny Clarke was split up and released on two separate discs, BAGS' GROOVE and MILES DAVIS AND THE MODERN JAZZ GIANTS. For the true devotee wishing to experience the evolution of Miles' glorious tone, CHRONICLE presents his 1951-1956 sessions in chronological order.

There are two notable exceptions: his 1955 date with Mingus and Elvin Jones, BLUE MOODS (originally recorded for the bassist's Debut label) and another 1955 date (session 15, with Art Taylor, Tommy Flanagan and Sonny Rollins) are presented out of order so that you can hear the uninterrupted development of Davis' classic Coltrane-Red Garland-Paul Chambers-Philly Joe Jones Quintet.


ARTISTS
Miles Davis (trumpet, piano); Lee Konitz, Jackie McLean, David Schildkraut (alto saxophone); Sonny Rollins, Charlie Parker, Al Cohn, Zoot Sims, Lucky Thompson, John Coltrane (tenor saxophone); Bennie Green, Sonny Truitt, J.J. Johnson (trombone); Milt Jackson (vibraphone); John Lewis, Sal Mosca, Walter Bishop Jr., Charles Mingus, Horace Silver, Thelonious Monk, Red Garland, Ray Bryant, Tommy Flanagan (piano); Billy Bauer (guitar); Percy Heath, Arnold Fishkin, Tommy Potter, Leonard Gaskin, Oscar Pettiford, Paul Chambers (bass); Roy Haynes, Max Roach, Art Blakey, Philly Joe Jones, Kenny Clarke, Art Taylor (drums) and more others...


TRACKLIST
DISC ONE
01. Morpheus 2:21
02. Down 2:51
03. Blue Room (Take 1) 2:49
04. Blue Room (Take 2) 3:01
05. Whispering 3:03
06. I Know 2:33
07. Odjenar 2:51
08. Ezz-thetic 2:55
09. Hibeck 3:05
10. Yesterdays 4:59
11. Conception 4:03
12. Out Of The Blue 6:10
13. Denial 5:35
14. Bluing 9:40
15. Dig 7:35
16. My Old Flame 6:33
17. It's Only A Paper Moon 6:25

DISC TWO
01. Compulsion 5:45
02. The Serpent's Tooth (Take 1) 7:00
03. The Serpent's Tooth (Take 2) 6:18
04. 'Round About Midnight 7:08
05. Tasty Pudding 3:20
06. Willie The Wailer 4:26
07. Floppy 6:00
08. For Adults Only 5:33
09. When Lights Are Low 3:26
10. Tune-Up 3:54
11. Miles Ahead 4:25
12. Smooch 3:05
13. Four 4:04
14. Old Devil Moon 3:23
15. Blue Haze 6:05

DISC THREE
01. Solar 4:46
02. You Don't Know What Love Is 4:22
03. Love Me Or Leave Me 3:00
04. I'll Remember April 7:53
05. Blue 'n' Boogie 8:15
06. Walkin' 5:24
07. Airegin 5:00
08. Oleo 5:13
09. But Not For Me (Take 1) 4:37
10. But Not For Me (Take 2) 5:44
11. Doxy 4:56

DISC FOUR
01. Bags' Groove (Take 1) 11:15
02. Bags' Groove (Take 2) 9:22
03. Bemsha Swing 9:30
04. Swing Spring 10:43
05. The Man I Love (Take 1) 8:30
06. The Man I Love (Take 2) 7:58
07. I Didn't 6:02
08. Will You Still Be Mine? 6:23




DISC FIVE
01. Green Haze 5:50
02. I See Your Face Before Me 4:45
03. A Night In Tunisia 7:22
04. A Gal In Calico 5:16
05. Dr. Jackle 8:47
06. Bitty Ditty 5:12
07. Minor March 8:12
08. Changes 7:08
09. In Your Own Sweet Way 4:34
10. No Line 5:39
11. Vierd Blues 6:55

DISC SIX
01. Stablemates 5:25
02. How Am I To Know? 4:38
03. Just Squeeze Me 7:27
04. There Is No Greater Love 3:39
05. The Theme 5:45
06. S'Posin 6:09
07. In Your Own Sweet Way 5:42
08. Diane 7:49
09. Trane's Blues 8:33
10. Something I Dreamed Last Night 10:48

DISC SEVEN
01. It Could Happen To You 6:40
02. Woody'n You 5:01
03. Ahmad's Blues 7:24
04. Surrey With The Fringe On Top 9:04
05. It Never Entered My Mind 5:22
06. When I Fall In Love 4:21
07. Salt Peanuts 6:07
08. Four 7:14
09. The Theme (Take 1) 5:45
10. The Theme (Take 2) 5:45
11. If I Were A Bell 8:15
12. Well, You Needn't 6:18

DISC EIGHT
01. 'Round Midnight 5:25
02. Half Nelson 4:45
03. You're My Everything 5:18
04. I Could Write A Book 5:11
05. Oleo 6:22
06. Airegin 4:24
07. Tune Up 5:41
08. When Lights Are Low 7:30
09. Blues By Five 10:23
10. My Funny Valentine 6:04


EAC LOG D1
Exact Audio Copy V0.99 prebeta 5 from 4. May 2009

EAC extraction logfile from 15. November 2012, 19:21

Miles Davis / Chronicle. The Complete Prestige Recordings 1951-1956 (CD1)

Used drive : PLDS DVD+-RW DS-8A5SH Adapter: 6 ID: 1

Read mode : Secure
Utilize accurate stream : Yes
Defeat audio cache : Yes
Make use of C2 pointers : No

Read offset correction : 6
Overread into Lead-In and Lead-Out : No
Fill up missing offset samples with silence : Yes
Delete leading and trailing silent blocks : No
Null samples used in CRC calculations : Yes
Used interface : Native Win32 interface for Win NT & 2000
Gap handling : Appended to previous track

Used output format : User Defined Encoder
Selected bitrate : 1024 kBit/s
Quality : High
Add ID3 tag : No
Command line compressor : C:\Program Files (x86)\FLAC\flac.exe
Additional command line options : -8 -V -T "ARTIST=%a" -T "TITLE=%t" -T "ALBUM=%g" -T "DATE=%y" -T "TRACKNUMBER=%n" -T "GENRE=%m" -T "COMMENT=EAC FLAC -8" %s


TOC of the extracted CD

Track | Start | Length | Start sector | End sector
---------------------------------------------------------
1 | 0:00.00 | 2:24.10 | 0 | 10809
2 | 2:24.10 | 2:54.13 | 10810 | 23872
3 | 5:18.23 | 2:51.10 | 23873 | 36707
4 | 8:09.33 | 3:03.25 | 36708 | 50457
5 | 11:12.58 | 3:02.35 | 50458 | 64142
6 | 14:15.18 | 2:33.47 | 64143 | 75664
7 | 16:48.65 | 2:53.70 | 75665 | 88709
8 | 19:42.60 | 2:54.03 | 88710 | 101762
9 | 22:36.63 | 3:07.35 | 101763 | 115822
10 | 25:44.23 | 2:27.72 | 115823 | 126919
11 | 28:12.20 | 4:03.53 | 126920 | 145197
12 | 32:15.73 | 6:16.50 | 145198 | 173447
13 | 38:32.48 | 5:41.60 | 173448 | 199082
14 | 44:14.33 | 9:56.00 | 199083 | 243782
15 | 54:10.33 | 7:35.20 | 243783 | 277927
16 | 61:45.53 | 6:36.55 | 277928 | 307682
17 | 68:22.33 | 5:25.27 | 307683 | 332084


Track 1

Filename C:\FLAC\Miles Davis - Chronicle. The Complete Prestige Recordings 1951-1956 {ZYX, 8PCD 012-2}\CD1\01 - Morpheus.wav

Pre-gap length 0:00:02.00

Peak level 97.8 %
Track quality 99.9 %
Test CRC 196F8376
Copy CRC 196F8376
Accurately ripped (confidence 5) [1E0B4E8C]
Copy OK

Track 2

Filename C:\FLAC\Miles Davis - Chronicle. The Complete Prestige Recordings 1951-1956 {ZYX, 8PCD 012-2}\CD1\02 - Down.wav

Pre-gap length 0:00:02.15

Peak level 90.9 %
Track quality 100.0 %
Test CRC 22DC2CC5
Copy CRC 22DC2CC5
Accurately ripped (confidence 5) [9C6B8672]
Copy OK

Track 3

Filename C:\FLAC\Miles Davis - Chronicle. The Complete Prestige Recordings 1951-1956 {ZYX, 8PCD 012-2}\CD1\03 - Blue Room (take 1).wav

Pre-gap length 0:00:02.35

Peak level 89.0 %
Track quality 100.0 %
Test CRC 89134E9F
Copy CRC 89134E9F
Accurately ripped (confidence 5) [5C6E8088]
Copy OK

Track 4

Filename C:\FLAC\Miles Davis - Chronicle. The Complete Prestige Recordings 1951-1956 {ZYX, 8PCD 012-2}\CD1\04 - Blue Room (take 2).wav

Pre-gap length 0:00:01.58

Peak level 88.0 %
Track quality 100.0 %
Test CRC 6CFF9671
Copy CRC 6CFF9671
Accurately ripped (confidence 5) [AA043F90]
Copy OK

Track 5

Filename C:\FLAC\Miles Davis - Chronicle. The Complete Prestige Recordings 1951-1956 {ZYX, 8PCD 012-2}\CD1\05 - Whispering.wav

Pre-gap length 0:00:01.48

Peak level 84.7 %
Track quality 100.0 %
Test CRC 533DB1F0
Copy CRC 533DB1F0
Accurately ripped (confidence 5) [518BD2C2]
Copy OK

Track 6

Filename C:\FLAC\Miles Davis - Chronicle. The Complete Prestige Recordings 1951-1956 {ZYX, 8PCD 012-2}\CD1\06 - I Know.wav

Pre-gap length 0:00:01.30

Peak level 79.4 %
Track quality 100.0 %
Test CRC 26319C14
Copy CRC 26319C14
Accurately ripped (confidence 5) [5F37C602]
Copy OK

Track 7

Filename C:\FLAC\Miles Davis - Chronicle. The Complete Prestige Recordings 1951-1956 {ZYX, 8PCD 012-2}\CD1\07 - Odjenar.wav

Pre-gap length 0:00:02.10

Peak level 67.8 %
Track quality 100.0 %
Test CRC EE69871B
Copy CRC EE69871B
Accurately ripped (confidence 5) [884B9DC4]
Copy OK

Track 8

Filename C:\FLAC\Miles Davis - Chronicle. The Complete Prestige Recordings 1951-1956 {ZYX, 8PCD 012-2}\CD1\08 - Ezz-Thetic.wav

Pre-gap length 0:00:02.05

Peak level 74.4 %
Track quality 100.0 %
Test CRC E4B62BAA
Copy CRC E4B62BAA
Accurately ripped (confidence 5) [D5B718B1]
Copy OK

Track 9

Filename C:\FLAC\Miles Davis - Chronicle. The Complete Prestige Recordings 1951-1956 {ZYX, 8PCD 012-2}\CD1\09 - Hibeck.wav

Pre-gap length 0:00:01.38

Peak level 78.7 %
Track quality 100.0 %
Test CRC C34A2A32
Copy CRC C34A2A32
Accurately ripped (confidence 5) [95B6F25B]
Copy OK

Track 10

Filename C:\FLAC\Miles Davis - Chronicle. The Complete Prestige Recordings 1951-1956 {ZYX, 8PCD 012-2}\CD1\10 - Yesterdays.wav

Pre-gap length 0:00:01.13

Peak level 68.3 %
Track quality 100.0 %
Test CRC 11C6E60C
Copy CRC 11C6E60C
Accurately ripped (confidence 4) [79704E20]
Copy OK

Track 11

Filename C:\FLAC\Miles Davis - Chronicle. The Complete Prestige Recordings 1951-1956 {ZYX, 8PCD 012-2}\CD1\11 - Conception.wav

Pre-gap length 0:00:02.42

Peak level 74.9 %
Track quality 100.0 %
Test CRC 308E5859
Copy CRC 308E5859
Accurately ripped (confidence 4) [7FDD4CD2]
Copy OK

Track 12

Filename C:\FLAC\Miles Davis - Chronicle. The Complete Prestige Recordings 1951-1956 {ZYX, 8PCD 012-2}\CD1\12 - Out Of The Blue.wav

Pre-gap length 0:00:01.60

Peak level 83.0 %
Track quality 100.0 %
Test CRC 659953DF
Copy CRC 659953DF
Accurately ripped (confidence 4) [4EAEB297]
Copy OK

Track 13

Filename C:\FLAC\Miles Davis - Chronicle. The Complete Prestige Recordings 1951-1956 {ZYX, 8PCD 012-2}\CD1\13 - Denial.wav

Pre-gap length 0:00:01.48

Peak level 85.9 %
Track quality 100.0 %
Test CRC 63BD8CED
Copy CRC 63BD8CED
Accurately ripped (confidence 5) [58C30BEF]
Copy OK

Track 14

Filename C:\FLAC\Miles Davis - Chronicle. The Complete Prestige Recordings 1951-1956 {ZYX, 8PCD 012-2}\CD1\14 - Bluing.wav

Pre-gap length 0:00:02.00

Peak level 90.8 %
Track quality 100.0 %
Test CRC 716690BA
Copy CRC 716690BA
Accurately ripped (confidence 5) [E59795DE]
Copy OK

Track 15

Filename C:\FLAC\Miles Davis - Chronicle. The Complete Prestige Recordings 1951-1956 {ZYX, 8PCD 012-2}\CD1\15 - Dig.wav

Pre-gap length 0:00:01.30

Peak level 72.5 %
Track quality 99.9 %
Test CRC A1C11DA4
Copy CRC A1C11DA4
Accurately ripped (confidence 5) [1A118204]
Copy OK

Track 16

Filename C:\FLAC\Miles Davis - Chronicle. The Complete Prestige Recordings 1951-1956 {ZYX, 8PCD 012-2}\CD1\16 - My Old Flame.wav

Pre-gap length 0:00:01.73

Peak level 72.1 %
Track quality 100.0 %
Test CRC 64C3B088
Copy CRC 64C3B088
Accurately ripped (confidence 5) [199705FE]
Copy OK

Track 17

Filename C:\FLAC\Miles Davis - Chronicle. The Complete Prestige Recordings 1951-1956 {ZYX, 8PCD 012-2}\CD1\17 - It's Only A Paper Moon.wav

Pre-gap length 0:00:02.45

Peak level 88.3 %
Track quality 100.0 %
Test CRC E06C9D53
Copy CRC E06C9D53
Accurately ripped (confidence 3) [0F24C9B2]
Copy OK


All tracks accurately ripped

No errors occurred

End of status report

EAC LOG D2
Exact Audio Copy V0.99 prebeta 5 from 4. May 2009

EAC extraction logfile from 15. November 2012, 22:30

Miles Davis / Chronicle. The Complete Prestige Recordings 1951-1956 (CD2)

Used drive : PLDS DVD+-RW DS-8A5SH Adapter: 6 ID: 1

Read mode : Secure
Utilize accurate stream : Yes
Defeat audio cache : Yes
Make use of C2 pointers : No

Read offset correction : 6
Overread into Lead-In and Lead-Out : No
Fill up missing offset samples with silence : Yes
Delete leading and trailing silent blocks : No
Null samples used in CRC calculations : Yes
Used interface : Native Win32 interface for Win NT & 2000
Gap handling : Appended to previous track

Used output format : User Defined Encoder
Selected bitrate : 1024 kBit/s
Quality : High
Add ID3 tag : No
Command line compressor : C:\Program Files (x86)\FLAC\flac.exe
Additional command line options : -8 -V -T "ARTIST=%a" -T "TITLE=%t" -T "ALBUM=%g" -T "DATE=%y" -T "TRACKNUMBER=%n" -T "GENRE=%m" -T "COMMENT=EAC FLAC -8" %s


TOC of the extracted CD

Track | Start | Length | Start sector | End sector
---------------------------------------------------------
1 | 0:00.00 | 5:45.10 | 0 | 25884
2 | 5:45.10 | 7:01.17 | 25885 | 57476
3 | 12:46.27 | 6:17.55 | 57477 | 85806
4 | 19:04.07 | 7:05.10 | 85807 | 117691
5 | 26:09.17 | 3:21.33 | 117692 | 132799
6 | 29:30.50 | 4:26.70 | 132800 | 152819
7 | 33:57.45 | 6:01.57 | 152820 | 179951
8 | 39:59.27 | 5:34.73 | 179952 | 205074
9 | 45:34.25 | 3:26.00 | 205075 | 220524
10 | 49:00.25 | 3:53.20 | 220525 | 238019
11 | 52:53.45 | 4:28.27 | 238020 | 258146
12 | 57:21.72 | 3:05.38 | 258147 | 272059
13 | 60:27.35 | 4:01.30 | 272060 | 290164
14 | 64:28.65 | 3:22.70 | 290165 | 305384
15 | 67:51.60 | 6:06.47 | 305385 | 332881


Track 1

Filename C:\FLAC\Miles Davis - Chronicle. The Complete Prestige Recordings 1951-1956 {ZYX, 8PCD 012-2}\CD2\01 - Compulsion.wav

Pre-gap length 0:00:02.00

Peak level 93.3 %
Track quality 100.0 %
Test CRC 343704A4
Copy CRC 343704A4
Accurately ripped (confidence 4) [9D446D98]
Copy OK

Track 2

Filename C:\FLAC\Miles Davis - Chronicle. The Complete Prestige Recordings 1951-1956 {ZYX, 8PCD 012-2}\CD2\02 - The Serpent's Tooth (take 1).wav

Pre-gap length 0:00:00.38

Peak level 88.6 %
Track quality 100.0 %
Test CRC 8B084605
Copy CRC 8B084605
Accurately ripped (confidence 4) [DB626AA9]
Copy OK

Track 3

Filename C:\FLAC\Miles Davis - Chronicle. The Complete Prestige Recordings 1951-1956 {ZYX, 8PCD 012-2}\CD2\03 - The Serpent's Tooth (take 2).wav

Pre-gap length 0:00:00.72

Peak level 89.8 %
Track quality 100.0 %
Test CRC A453DBEF
Copy CRC A453DBEF
Accurately ripped (confidence 4) [98080BF7]
Copy OK

Track 4

Filename C:\FLAC\Miles Davis - Chronicle. The Complete Prestige Recordings 1951-1956 {ZYX, 8PCD 012-2}\CD2\04 - 'Round About Midnight.wav

Pre-gap length 0:00:00.70

Peak level 100.0 %
Track quality 100.0 %
Test CRC CE99D514
Copy CRC CE99D514
Accurately ripped (confidence 4) [CBB79A28]
Copy OK

Track 5

Filename C:\FLAC\Miles Davis - Chronicle. The Complete Prestige Recordings 1951-1956 {ZYX, 8PCD 012-2}\CD2\05 - Tasty Pudding.wav

Pre-gap length 0:00:00.67

Peak level 85.3 %
Track quality 100.0 %
Test CRC 4F874C70
Copy CRC 4F874C70
Accurately ripped (confidence 4) [A2A0BF86]
Copy OK

Track 6

Filename C:\FLAC\Miles Davis - Chronicle. The Complete Prestige Recordings 1951-1956 {ZYX, 8PCD 012-2}\CD2\06 - Willie The Wailer.wav

Pre-gap length 0:00:00.60

Peak level 74.1 %
Track quality 100.0 %
Test CRC 3F868D9C
Copy CRC 3F868D9C
Accurately ripped (confidence 4) [2CE18C4B]
Copy OK

Track 7

Filename C:\FLAC\Miles Davis - Chronicle. The Complete Prestige Recordings 1951-1956 {ZYX, 8PCD 012-2}\CD2\07 - Floppy.wav

Pre-gap length 0:00:00.70

Peak level 81.8 %
Track quality 100.0 %
Test CRC 2EA1F9C7
Copy CRC 2EA1F9C7
Accurately ripped (confidence 4) [DC5F4E1F]
Copy OK

Track 8

Filename C:\FLAC\Miles Davis - Chronicle. The Complete Prestige Recordings 1951-1956 {ZYX, 8PCD 012-2}\CD2\08 - For Adults Only.wav

Pre-gap length 0:00:01.02

Peak level 96.0 %
Track quality 100.0 %
Test CRC 442FBAD5
Copy CRC 442FBAD5
Accurately ripped (confidence 4) [8F264CE8]
Copy OK

Track 9

Filename C:\FLAC\Miles Davis - Chronicle. The Complete Prestige Recordings 1951-1956 {ZYX, 8PCD 012-2}\CD2\09 - When Lights Are Low.wav

Pre-gap length 0:00:00.53

Peak level 96.9 %
Track quality 100.0 %
Test CRC E7ABE807
Copy CRC E7ABE807
Accurately ripped (confidence 4) [2142862B]
Copy OK

Track 10

Filename C:\FLAC\Miles Davis - Chronicle. The Complete Prestige Recordings 1951-1956 {ZYX, 8PCD 012-2}\CD2\10 - Tune Up.wav

Pre-gap length 0:00:00.53

Peak level 100.0 %
Track quality 100.0 %
Test CRC 5B6B6151
Copy CRC 5B6B6151
Accurately ripped (confidence 4) [9BF08D93]
Copy OK

Track 11

Filename C:\FLAC\Miles Davis - Chronicle. The Complete Prestige Recordings 1951-1956 {ZYX, 8PCD 012-2}\CD2\11 - Miles Ahead.wav

Pre-gap length 0:00:01.18

Peak level 91.4 %
Track quality 100.0 %
Test CRC AF57EE20
Copy CRC AF57EE20
Accurately ripped (confidence 4) [C263B247]
Copy OK

Track 12

Filename C:\FLAC\Miles Davis - Chronicle. The Complete Prestige Recordings 1951-1956 {ZYX, 8PCD 012-2}\CD2\12 - Smooch.wav

Pre-gap length 0:00:00.49

Peak level 89.3 %
Track quality 100.0 %
Test CRC AE710602
Copy CRC AE710602
Accurately ripped (confidence 3) [A95BF7D1]
Copy OK

Track 13

Filename C:\FLAC\Miles Davis - Chronicle. The Complete Prestige Recordings 1951-1956 {ZYX, 8PCD 012-2}\CD2\13 - Four.wav

Pre-gap length 0:00:01.00

Peak level 87.7 %
Track quality 99.9 %
Test CRC CABE0A95
Copy CRC CABE0A95
Accurately ripped (confidence 4) [A96BA7CD]
Copy OK

Track 14

Filename C:\FLAC\Miles Davis - Chronicle. The Complete Prestige Recordings 1951-1956 {ZYX, 8PCD 012-2}\CD2\14 - Old Devil Moon.wav

Pre-gap length 0:00:01.03

Peak level 100.0 %
Track quality 100.0 %
Test CRC 9FB8243A
Copy CRC 9FB8243A
Accurately ripped (confidence 4) [3AF5089B]
Copy OK

Track 15

Filename C:\FLAC\Miles Davis - Chronicle. The Complete Prestige Recordings 1951-1956 {ZYX, 8PCD 012-2}\CD2\15 - Blue Haze.wav

Pre-gap length 0:00:00.73

Peak level 73.6 %
Track quality 99.9 %
Test CRC ED549F68
Copy CRC ED549F68
Accurately ripped (confidence 3) [8BA9C99F]
Copy OK


All tracks accurately ripped

No errors occurred

End of status report

EAC LOG D3
Exact Audio Copy V0.99 prebeta 5 from 4. May 2009

EAC extraction logfile from 15. November 2012, 23:38

Miles Davis / Chronicle. The Complete Prestige Recordings 1951-1956 (CD3)

Used drive : PLDS DVD+-RW DS-8A5SH Adapter: 6 ID: 1

Read mode : Secure
Utilize accurate stream : Yes
Defeat audio cache : Yes
Make use of C2 pointers : No

Read offset correction : 6
Overread into Lead-In and Lead-Out : No
Fill up missing offset samples with silence : Yes
Delete leading and trailing silent blocks : No
Null samples used in CRC calculations : Yes
Used interface : Native Win32 interface for Win NT & 2000
Gap handling : Appended to previous track

Used output format : User Defined Encoder
Selected bitrate : 1024 kBit/s
Quality : High
Add ID3 tag : No
Command line compressor : C:\Program Files (x86)\FLAC\flac.exe
Additional command line options : -8 -V -T "ARTIST=%a" -T "TITLE=%t" -T "ALBUM=%g" -T "DATE=%y" -T "TRACKNUMBER=%n" -T "GENRE=%m" -T "COMMENT=EAC FLAC -8" %s


TOC of the extracted CD

Track | Start | Length | Start sector | End sector
---------------------------------------------------------
1 | 0:00.00 | 4:44.22 | 0 | 21321
2 | 4:44.22 | 4:23.65 | 21322 | 41111
3 | 9:08.12 | 6:58.15 | 41112 | 72476
4 | 16:06.27 | 7:54.50 | 72477 | 108076
5 | 24:01.02 | 8:18.38 | 108077 | 145464
6 | 32:19.40 | 13:27.45 | 145465 | 206034
7 | 45:47.10 | 5:00.20 | 206035 | 228554
8 | 50:47.30 | 5:12.47 | 228555 | 252001
9 | 56:00.02 | 5:45.05 | 252002 | 277881
10 | 61:45.07 | 4:37.48 | 277882 | 298704
11 | 66:22.55 | 4:51.70 | 298705 | 320599


Track 1

Filename C:\FLAC\Miles Davis - Chronicle. The Complete Prestige Recordings 1951-1956 {ZYX, 8PCD 012-2}\CD3\01 - Solar.wav

Pre-gap length 0:00:02.00

Peak level 88.7 %
Track quality 100.0 %
Test CRC ADD616FE
Copy CRC ADD616FE
Accurately ripped (confidence 5) [5E0CED6D]
Copy OK

Track 2

Filename C:\FLAC\Miles Davis - Chronicle. The Complete Prestige Recordings 1951-1956 {ZYX, 8PCD 012-2}\CD3\02 - You Don't Know What Love Is.wav

Pre-gap length 0:00:02.30

Peak level 86.5 %
Track quality 100.0 %
Test CRC 0A21694C
Copy CRC 0A21694C
Accurately ripped (confidence 5) [D16D4286]
Copy OK

Track 3

Filename C:\FLAC\Miles Davis - Chronicle. The Complete Prestige Recordings 1951-1956 {ZYX, 8PCD 012-2}\CD3\03 - Love Me Or Leave Me.wav

Pre-gap length 0:00:02.32

Peak level 89.3 %
Track quality 100.0 %
Test CRC AA4F5C9B
Copy CRC AA4F5C9B
Accurately ripped (confidence 5) [70DE56B6]
Copy OK

Track 4

Filename C:\FLAC\Miles Davis - Chronicle. The Complete Prestige Recordings 1951-1956 {ZYX, 8PCD 012-2}\CD3\04 - I'll Remember April.wav

Pre-gap length 0:00:03.02

Peak level 84.9 %
Track quality 100.0 %
Test CRC 553BC759
Copy CRC 553BC759
Accurately ripped (confidence 5) [E964CD83]
Copy OK

Track 5

Filename C:\FLAC\Miles Davis - Chronicle. The Complete Prestige Recordings 1951-1956 {ZYX, 8PCD 012-2}\CD3\05 - Blue 'N' Boogie.wav

Pre-gap length 0:00:02.67

Peak level 100.0 %
Track quality 100.0 %
Test CRC CAD41FB1
Copy CRC CAD41FB1
Accurately ripped (confidence 5) [B67EED02]
Copy OK

Track 6

Filename C:\FLAC\Miles Davis - Chronicle. The Complete Prestige Recordings 1951-1956 {ZYX, 8PCD 012-2}\CD3\06 - Walkin'.wav

Pre-gap length 0:00:02.43

Peak level 100.0 %
Track quality 99.9 %
Test CRC 27FF7E66
Copy CRC 27FF7E66
Accurately ripped (confidence 5) [FDD24C49]
Copy OK

Track 7

Filename C:\FLAC\Miles Davis - Chronicle. The Complete Prestige Recordings 1951-1956 {ZYX, 8PCD 012-2}\CD3\07 - Airegin.wav

Pre-gap length 0:00:02.53

Peak level 97.4 %
Track quality 100.0 %
Test CRC 39A79ACA
Copy CRC 39A79ACA
Accurately ripped (confidence 5) [BE199ADF]
Copy OK

Track 8

Filename C:\FLAC\Miles Davis - Chronicle. The Complete Prestige Recordings 1951-1956 {ZYX, 8PCD 012-2}\CD3\08 - Oleo.wav

Pre-gap length 0:00:03.00

Peak level 94.5 %
Track quality 100.0 %
Test CRC 2E1AE272
Copy CRC 2E1AE272
Accurately ripped (confidence 5) [9DFCBC78]
Copy OK

Track 9

Filename C:\FLAC\Miles Davis - Chronicle. The Complete Prestige Recordings 1951-1956 {ZYX, 8PCD 012-2}\CD3\09 - But Not For Me (take 1).wav

Pre-gap length 0:00:02.65

Peak level 100.0 %
Track quality 100.0 %
Test CRC E7572577
Copy CRC E7572577
Accurately ripped (confidence 5) [DF64C4EC]
Copy OK

Track 10

Filename C:\FLAC\Miles Davis - Chronicle. The Complete Prestige Recordings 1951-1956 {ZYX, 8PCD 012-2}\CD3\10 - But Not For Me (take 2).wav

Pre-gap length 0:00:02.55

Peak level 100.0 %
Track quality 100.0 %
Test CRC 1FFF4BD7
Copy CRC 1FFF4BD7
Accurately ripped (confidence 5) [E6CB13D8]
Copy OK

Track 11

Filename C:\FLAC\Miles Davis - Chronicle. The Complete Prestige Recordings 1951-1956 {ZYX, 8PCD 012-2}\CD3\11 - Doxy.wav

Pre-gap length 0:00:02.45

Peak level 100.0 %
Track quality 100.0 %
Test CRC E356BA2A
Copy CRC E356BA2A
Accurately ripped (confidence 5) [590C91DC]
Copy OK


All tracks accurately ripped

No errors occurred

End of status report

EAC LOG D4
Exact Audio Copy V0.99 prebeta 5 from 4. May 2009

EAC extraction logfile from 16. November 2012, 11:46

Miles Davis / Chronicle. The Complete Prestige Recordings 1951-1956 (CD4)

Used drive : PLDS DVD+-RW DS-8A5SH Adapter: 6 ID: 1

Read mode : Secure
Utilize accurate stream : Yes
Defeat audio cache : Yes
Make use of C2 pointers : No

Read offset correction : 6
Overread into Lead-In and Lead-Out : No
Fill up missing offset samples with silence : Yes
Delete leading and trailing silent blocks : No
Null samples used in CRC calculations : Yes
Used interface : Native Win32 interface for Win NT & 2000
Gap handling : Appended to previous track

Used output format : User Defined Encoder
Selected bitrate : 1024 kBit/s
Quality : High
Add ID3 tag : No
Command line compressor : C:\Program Files (x86)\FLAC\flac.exe
Additional command line options : -8 -V -T "ARTIST=%a" -T "TITLE=%t" -T "ALBUM=%g" -T "DATE=%y" -T "TRACKNUMBER=%n" -T "GENRE=%m" -T "COMMENT=EAC FLAC -8" %s


TOC of the extracted CD

Track | Start | Length | Start sector | End sector
---------------------------------------------------------
1 | 0:00.00 | 11:15.05 | 0 | 50629
2 | 11:15.05 | 9:23.15 | 50630 | 92869
3 | 20:38.20 | 9:29.00 | 92870 | 135544
4 | 30:07.20 | 10:44.22 | 135545 | 183866
5 | 40:51.42 | 8:07.48 | 183867 | 220439
6 | 48:59.15 | 7:58.50 | 220440 | 256339
7 | 56:57.65 | 6:05.52 | 256340 | 283766
8 | 63:03.42 | 6:19.15 | 283767 | 312206


Track 1

Filename C:\FLAC\Miles Davis - Chronicle. The Complete Prestige Recordings 1951-1956 {ZYX, 8PCD 012-2}\CD4\01 - Bags' Groove (take 1).wav

Pre-gap length 0:00:02.00

Peak level 100.0 %
Track quality 99.9 %
Test CRC 9BD2F388
Copy CRC 9BD2F388
Accurately ripped (confidence 5) [11CFED2D]
Copy OK

Track 2

Filename C:\FLAC\Miles Davis - Chronicle. The Complete Prestige Recordings 1951-1956 {ZYX, 8PCD 012-2}\CD4\02 - Bags' Groove (take 2).wav

Pre-gap length 0:00:03.10

Peak level 97.6 %
Track quality 99.9 %
Test CRC E9F6D008
Copy CRC E9F6D008
Accurately ripped (confidence 5) [4BA695A6]
Copy OK

Track 3

Filename C:\FLAC\Miles Davis - Chronicle. The Complete Prestige Recordings 1951-1956 {ZYX, 8PCD 012-2}\CD4\03 - Bemsha Swing.wav

Pre-gap length 0:00:02.18

Peak level 90.0 %
Track quality 100.0 %
Test CRC 93CD7B63
Copy CRC 93CD7B63
Accurately ripped (confidence 5) [A4F404E7]
Copy OK

Track 4

Filename C:\FLAC\Miles Davis - Chronicle. The Complete Prestige Recordings 1951-1956 {ZYX, 8PCD 012-2}\CD4\04 - Swing Spring.wav

Pre-gap length 0:00:01.58

Peak level 84.1 %
Track quality 100.0 %
Test CRC 5EA1AFDF
Copy CRC 5EA1AFDF
Accurately ripped (confidence 5) [3A3AA884]
Copy OK

Track 5

Filename C:\FLAC\Miles Davis - Chronicle. The Complete Prestige Recordings 1951-1956 {ZYX, 8PCD 012-2}\CD4\05 - The Man I Love (take 1).wav

Pre-gap length 0:00:02.17

Peak level 84.1 %
Track quality 100.0 %
Test CRC EB180916
Copy CRC EB180916
Accurately ripped (confidence 5) [6AB402EA]
Copy OK

Track 6

Filename C:\FLAC\Miles Davis - Chronicle. The Complete Prestige Recordings 1951-1956 {ZYX, 8PCD 012-2}\CD4\06 - The Man I Love (take 2).wav

Pre-gap length 0:00:02.30

Peak level 100.0 %
Track quality 100.0 %
Test CRC B665352A
Copy CRC B665352A
Accurately ripped (confidence 5) [0EEAA3C2]
Copy OK

Track 7

Filename C:\FLAC\Miles Davis - Chronicle. The Complete Prestige Recordings 1951-1956 {ZYX, 8PCD 012-2}\CD4\07 - I Didn't.wav

Pre-gap length 0:00:02.38

Peak level 86.8 %
Track quality 100.0 %
Test CRC 0AB846BC
Copy CRC 0AB846BC
Accurately ripped (confidence 4) [602871B1]
Copy OK

Track 8

Filename C:\FLAC\Miles Davis - Chronicle. The Complete Prestige Recordings 1951-1956 {ZYX, 8PCD 012-2}\CD4\08 - Will You Still Be Mine .wav

Pre-gap length 0:00:03.30

Peak level 93.2 %
Track quality 99.9 %
Test CRC 4B069C82
Copy CRC 4B069C82
Accurately ripped (confidence 3) [A9BE8581]
Copy OK


All tracks accurately ripped

No errors occurred

End of status report

EAC LOG D5
Exact Audio Copy V0.99 prebeta 5 from 4. May 2009

EAC extraction logfile from 16. November 2012, 13:57

Miles Davis / Chronicle. The Complete Prestige Recordings 1951-1956 (CD5)

Used drive : PLDS DVD+-RW DS-8A5SH Adapter: 6 ID: 1

Read mode : Secure
Utilize accurate stream : Yes
Defeat audio cache : Yes
Make use of C2 pointers : No

Read offset correction : 6
Overread into Lead-In and Lead-Out : No
Fill up missing offset samples with silence : Yes
Delete leading and trailing silent blocks : No
Null samples used in CRC calculations : Yes
Used interface : Native Win32 interface for Win NT & 2000
Gap handling : Appended to previous track

Used output format : User Defined Encoder
Selected bitrate : 1024 kBit/s
Quality : High
Add ID3 tag : No
Command line compressor : C:\Program Files (x86)\FLAC\flac.exe
Additional command line options : -8 -V -T "ARTIST=%a" -T "TITLE=%t" -T "ALBUM=%g" -T "DATE=%y" -T "TRACKNUMBER=%n" -T "GENRE=%m" -T "COMMENT=EAC FLAC -8" %s


TOC of the extracted CD

Track | Start | Length | Start sector | End sector
---------------------------------------------------------
1 | 0:00.00 | 5:50.37 | 0 | 26286
2 | 5:50.37 | 4:45.73 | 26287 | 47734
3 | 10:36.35 | 7:23.40 | 47735 | 80999
4 | 18:00.00 | 5:16.55 | 81000 | 104754
5 | 23:16.55 | 8:53.55 | 104755 | 144784
6 | 32:10.35 | 6:37.52 | 144785 | 174611
7 | 38:48.12 | 8:17.35 | 174612 | 211921
8 | 47:05.47 | 7:13.33 | 211922 | 244429
9 | 54:19.05 | 4:38.05 | 244430 | 265284
10 | 58:57.10 | 5:42.52 | 265285 | 290986
11 | 64:39.62 | 6:51.48 | 290987 | 321859


Track 1

Filename C:\FLAC\Miles Davis - Chronicle. The Complete Prestige Recordings 1951-1956 {ZYX, 8PCD 012-2}\CD5\01 - Green Haze.wav

Pre-gap length 0:00:02.00

Peak level 79.2 %
Track quality 100.0 %
Test CRC AFCE3AF5
Copy CRC AFCE3AF5
Accurately ripped (confidence 3) [BEA552FF]
Copy OK

Track 2

Filename C:\FLAC\Miles Davis - Chronicle. The Complete Prestige Recordings 1951-1956 {ZYX, 8PCD 012-2}\CD5\02 - I See Your Face Before Me.wav

Pre-gap length 0:00:02.35

Peak level 88.5 %
Track quality 100.0 %
Test CRC 5DDCDA96
Copy CRC 5DDCDA96
Accurately ripped (confidence 3) [45F5965D]
Copy OK

Track 3

Filename C:\FLAC\Miles Davis - Chronicle. The Complete Prestige Recordings 1951-1956 {ZYX, 8PCD 012-2}\CD5\03 - A Night In Tunisia.wav

Pre-gap length 0:00:03.08

Peak level 95.0 %
Track quality 100.0 %
Test CRC F51E1A02
Copy CRC F51E1A02
Accurately ripped (confidence 3) [AE88CAC0]
Copy OK

Track 4

Filename C:\FLAC\Miles Davis - Chronicle. The Complete Prestige Recordings 1951-1956 {ZYX, 8PCD 012-2}\CD5\04 - A Gal In Calico.wav

Pre-gap length 0:00:04.28

Peak level 88.4 %
Track quality 100.0 %
Test CRC 45FED820
Copy CRC 45FED820
Accurately ripped (confidence 3) [1323CA4B]
Copy OK

Track 5

Filename C:\FLAC\Miles Davis - Chronicle. The Complete Prestige Recordings 1951-1956 {ZYX, 8PCD 012-2}\CD5\05 - Dr. Jackle.wav

Pre-gap length 0:00:02.25

Peak level 92.4 %
Track quality 100.0 %
Test CRC C0ECA029
Copy CRC C0ECA029
Accurately ripped (confidence 3) [42C60937]
Copy OK

Track 6

Filename C:\FLAC\Miles Davis - Chronicle. The Complete Prestige Recordings 1951-1956 {ZYX, 8PCD 012-2}\CD5\06 - Bitty Ditty.wav

Pre-gap length 0:00:02.03

Peak level 100.0 %
Track quality 100.0 %
Test CRC 3CBAC12C
Copy CRC 3CBAC12C
Accurately ripped (confidence 3) [544305C6]
Copy OK

Track 7

Filename C:\FLAC\Miles Davis - Chronicle. The Complete Prestige Recordings 1951-1956 {ZYX, 8PCD 012-2}\CD5\07 - Minor March.wav

Pre-gap length 0:00:02.62

Peak level 100.0 %
Track quality 100.0 %
Test CRC 19D82A6A
Copy CRC 19D82A6A
Accurately ripped (confidence 3) [623A1637]
Copy OK

Track 8

Filename C:\FLAC\Miles Davis - Chronicle. The Complete Prestige Recordings 1951-1956 {ZYX, 8PCD 012-2}\CD5\08 - Changes.wav

Pre-gap length 0:00:03.00

Peak level 100.0 %
Track quality 100.0 %
Test CRC 4C14F4D6
Copy CRC 4C14F4D6
Accurately ripped (confidence 3) [9D7B6566]
Copy OK

Track 9

Filename C:\FLAC\Miles Davis - Chronicle. The Complete Prestige Recordings 1951-1956 {ZYX, 8PCD 012-2}\CD5\09 - In Your Own Sweet Way.wav

Pre-gap length 0:00:03.30

Peak level 76.0 %
Track quality 100.0 %
Test CRC A114D13A
Copy CRC A114D13A
Accurately ripped (confidence 3) [55AF0AF0]
Copy OK

Track 10

Filename C:\FLAC\Miles Davis - Chronicle. The Complete Prestige Recordings 1951-1956 {ZYX, 8PCD 012-2}\CD5\10 - No Line.wav

Pre-gap length 0:00:03.48

Peak level 90.8 %
Track quality 99.9 %
Test CRC 309300C4
Copy CRC 309300C4
Accurately ripped (confidence 3) [1806B2BB]
Copy OK

Track 11

Filename C:\FLAC\Miles Davis - Chronicle. The Complete Prestige Recordings 1951-1956 {ZYX, 8PCD 012-2}\CD5\11 - Vierd Blues.wav

Pre-gap length 0:00:03.50

Peak level 96.4 %
Track quality 100.0 %
Test CRC C3C99E2C
Copy CRC C3C99E2C
Accurately ripped (confidence 2) [F32330DD]
Copy OK


All tracks accurately ripped

No errors occurred

End of status report

EAC LOG D6
Exact Audio Copy V0.99 prebeta 5 from 4. May 2009

EAC extraction logfile from 16. November 2012, 15:12

Miles Davis / Chronicle. The Complete Prestige Recordings 1951-1956 (CD6)

Used drive : PLDS DVD+-RW DS-8A5SH Adapter: 6 ID: 1

Read mode : Secure
Utilize accurate stream : Yes
Defeat audio cache : Yes
Make use of C2 pointers : No

Read offset correction : 6
Overread into Lead-In and Lead-Out : No
Fill up missing offset samples with silence : Yes
Delete leading and trailing silent blocks : No
Null samples used in CRC calculations : Yes
Used interface : Native Win32 interface for Win NT & 2000
Gap handling : Appended to previous track

Used output format : User Defined Encoder
Selected bitrate : 1024 kBit/s
Quality : High
Add ID3 tag : No
Command line compressor : C:\Program Files (x86)\FLAC\flac.exe
Additional command line options : -8 -V -T "ARTIST=%a" -T "TITLE=%t" -T "ALBUM=%g" -T "DATE=%y" -T "TRACKNUMBER=%n" -T "GENRE=%m" -T "COMMENT=EAC FLAC -8" %s


TOC of the extracted CD

Track | Start | Length | Start sector | End sector
---------------------------------------------------------
1 | 0:00.00 | 5:21.55 | 0 | 24129
2 | 5:21.55 | 4:40.35 | 24130 | 45164
3 | 10:02.15 | 7:27.37 | 45165 | 78726
4 | 17:29.52 | 5:19.58 | 78727 | 102709
5 | 22:49.35 | 5:50.22 | 102710 | 128981
6 | 28:39.57 | 5:15.70 | 128982 | 152676
7 | 33:55.52 | 5:45.18 | 152677 | 178569
8 | 39:40.70 | 7:49.55 | 178570 | 213799
9 | 47:30.50 | 8:29.52 | 213800 | 252026
10 | 56:00.27 | 6:12.63 | 252027 | 279989


Track 1

Filename C:\FLAC\Miles Davis - Chronicle. The Complete Prestige Recordings 1951-1956 {ZYX, 8PCD 012-2}\CD6\01 - Stablemates.wav

Pre-gap length 0:00:02.00

Peak level 92.2 %
Track quality 99.9 %
Test CRC 3154BE8E
Copy CRC 3154BE8E
Accurately ripped (confidence 12) [B6FC642B]
Copy OK

Track 2

Filename C:\FLAC\Miles Davis - Chronicle. The Complete Prestige Recordings 1951-1956 {ZYX, 8PCD 012-2}\CD6\02 - How Am I To Know .wav

Pre-gap length 0:00:02.23

Peak level 81.8 %
Track quality 100.0 %
Test CRC 6E87F810
Copy CRC 6E87F810
Accurately ripped (confidence 12) [716796B1]
Copy OK

Track 3

Filename C:\FLAC\Miles Davis - Chronicle. The Complete Prestige Recordings 1951-1956 {ZYX, 8PCD 012-2}\CD6\03 - Just Squeeze Me.wav

Pre-gap length 0:00:03.00

Peak level 90.7 %
Track quality 100.0 %
Test CRC ABC37031
Copy CRC ABC37031
Accurately ripped (confidence 12) [17ECF839]
Copy OK

Track 4

Filename C:\FLAC\Miles Davis - Chronicle. The Complete Prestige Recordings 1951-1956 {ZYX, 8PCD 012-2}\CD6\04 - There Is No Greater Love.wav

Pre-gap length 0:00:02.15

Peak level 72.9 %
Track quality 99.9 %
Test CRC 9A70E525
Copy CRC 9A70E525
Accurately ripped (confidence 12) [53E1C8A6]
Copy OK

Track 5

Filename C:\FLAC\Miles Davis - Chronicle. The Complete Prestige Recordings 1951-1956 {ZYX, 8PCD 012-2}\CD6\05 - The Theme.wav

Pre-gap length 0:00:02.65

Peak level 88.7 %
Track quality 99.9 %
Test CRC C87C284E
Copy CRC C87C284E
Accurately ripped (confidence 12) [08F66C34]
Copy OK

Track 6

Filename C:\FLAC\Miles Davis - Chronicle. The Complete Prestige Recordings 1951-1956 {ZYX, 8PCD 012-2}\CD6\06 - S'Posin'.wav

Pre-gap length 0:00:03.17

Peak level 92.2 %
Track quality 100.0 %
Test CRC ED520465
Copy CRC ED520465
Accurately ripped (confidence 12) [86B6F89F]
Copy OK

Track 7

Filename C:\FLAC\Miles Davis - Chronicle. The Complete Prestige Recordings 1951-1956 {ZYX, 8PCD 012-2}\CD6\07 - In Your Own Sweet Way.wav

Pre-gap length 0:00:02.67

Peak level 74.9 %
Track quality 100.0 %
Test CRC 2BAEB509
Copy CRC 2BAEB509
Accurately ripped (confidence 12) [C7D8DF67]
Copy OK

Track 8

Filename C:\FLAC\Miles Davis - Chronicle. The Complete Prestige Recordings 1951-1956 {ZYX, 8PCD 012-2}\CD6\08 - Diane.wav

Pre-gap length 0:00:03.08

Peak level 92.3 %
Track quality 100.0 %
Test CRC 0E02702F
Copy CRC 0E02702F
Accurately ripped (confidence 11) [26D30283]
Copy OK

Track 9

Filename C:\FLAC\Miles Davis - Chronicle. The Complete Prestige Recordings 1951-1956 {ZYX, 8PCD 012-2}\CD6\09 - Trane's Blues.wav

Pre-gap length 0:00:02.45

Peak level 90.7 %
Track quality 99.9 %
Test CRC 382B42A1
Copy CRC 382B42A1
Accurately ripped (confidence 12) [FD9FACB8]
Copy OK

Track 10

Filename C:\FLAC\Miles Davis - Chronicle. The Complete Prestige Recordings 1951-1956 {ZYX, 8PCD 012-2}\CD6\10 - Something I Dreamed Last Night.wav

Pre-gap length 0:00:03.02

Peak level 85.9 %
Track quality 100.0 %
Test CRC 1B575D21
Copy CRC 1B575D21
Accurately ripped (confidence 12) [B53B20EE]
Copy OK


All tracks accurately ripped

No errors occurred

End of status report

EAC LOG D7
Exact Audio Copy V0.99 prebeta 5 from 4. May 2009

EAC extraction logfile from 16. November 2012, 17:37

Miles Davis / Chronicle. The Complete Prestige Recordings 1951-1956 (CD7)

Used drive : PLDS DVD+-RW DS-8A5SH Adapter: 6 ID: 1

Read mode : Secure
Utilize accurate stream : Yes
Defeat audio cache : Yes
Make use of C2 pointers : No

Read offset correction : 6
Overread into Lead-In and Lead-Out : No
Fill up missing offset samples with silence : Yes
Delete leading and trailing silent blocks : No
Null samples used in CRC calculations : Yes
Used interface : Native Win32 interface for Win NT & 2000
Gap handling : Appended to previous track

Used output format : User Defined Encoder
Selected bitrate : 1024 kBit/s
Quality : High
Add ID3 tag : No
Command line compressor : C:\Program Files (x86)\FLAC\flac.exe
Additional command line options : -8 -V -T "ARTIST=%a" -T "TITLE=%t" -T "ALBUM=%g" -T "DATE=%y" -T "TRACKNUMBER=%n" -T "GENRE=%m" -T "COMMENT=EAC FLAC -8" %s


TOC of the extracted CD

Track | Start | Length | Start sector | End sector
---------------------------------------------------------
1 | 0:00.00 | 6:40.27 | 0 | 30026
2 | 6:40.27 | 5:05.15 | 30027 | 52916
3 | 11:45.42 | 7:23.48 | 52917 | 86189
4 | 19:09.15 | 9:06.52 | 86190 | 127191
5 | 28:15.67 | 5:24.25 | 127192 | 151516
6 | 33:40.17 | 4:24.20 | 151517 | 171336
7 | 38:04.37 | 6:09.55 | 171337 | 199066
8 | 44:14.17 | 7:14.08 | 199067 | 231624
9 | 51:28.25 | 2:00.37 | 231625 | 240661
10 | 53:28.62 | 1:06.38 | 240662 | 245649
11 | 54:35.25 | 8:09.70 | 245650 | 282394
12 | 62:45.20 | 6:16.67 | 282395 | 310661


Track 1

Filename C:\FLAC\Miles Davis - Chronicle. The Complete Prestige Recordings 1951-1956 {ZYX, 8PCD 012-2}\CD7\01 - It Could Happen To You.wav

Pre-gap length 0:00:02.00

Peak level 91.6 %
Track quality 100.0 %
Test CRC 919CD9C9
Copy CRC 919CD9C9
Accurately ripped (confidence 11) [B889B7E9]
Copy OK

Track 2

Filename C:\FLAC\Miles Davis - Chronicle. The Complete Prestige Recordings 1951-1956 {ZYX, 8PCD 012-2}\CD7\02 - Woodyn' You.wav

Pre-gap length 0:00:03.47

Peak level 100.0 %
Track quality 100.0 %
Test CRC CE6BEB8C
Copy CRC CE6BEB8C
Accurately ripped (confidence 11) [8D2F98DB]
Copy OK

Track 3

Filename C:\FLAC\Miles Davis - Chronicle. The Complete Prestige Recordings 1951-1956 {ZYX, 8PCD 012-2}\CD7\03 - Ahmad's Blues.wav

Pre-gap length 0:00:02.42

Peak level 100.0 %
Track quality 99.9 %
Test CRC 0800449A
Copy CRC 0800449A
Accurately ripped (confidence 11) [8B60DD51]
Copy OK

Track 4

Filename C:\FLAC\Miles Davis - Chronicle. The Complete Prestige Recordings 1951-1956 {ZYX, 8PCD 012-2}\CD7\04 - Surrey With The Fringe On Top.wav

Pre-gap length 0:00:02.65

Peak level 93.3 %
Track quality 100.0 %
Test CRC B180A609
Copy CRC B180A609
Accurately ripped (confidence 11) [5D5163F7]
Copy OK

Track 5

Filename C:\FLAC\Miles Davis - Chronicle. The Complete Prestige Recordings 1951-1956 {ZYX, 8PCD 012-2}\CD7\05 - It Never Entered My Mind.wav

Pre-gap length 0:00:03.12

Peak level 70.2 %
Track quality 100.0 %
Test CRC 63862CE9
Copy CRC 63862CE9
Accurately ripped (confidence 10) [BD57D205]
Copy OK

Track 6

Filename C:\FLAC\Miles Davis - Chronicle. The Complete Prestige Recordings 1951-1956 {ZYX, 8PCD 012-2}\CD7\06 - When I Fall In Love.wav

Pre-gap length 0:00:03.02

Peak level 74.6 %
Track quality 100.0 %
Test CRC 86505585
Copy CRC 86505585
Accurately ripped (confidence 10) [DD0B5A15]
Copy OK

Track 7

Filename C:\FLAC\Miles Davis - Chronicle. The Complete Prestige Recordings 1951-1956 {ZYX, 8PCD 012-2}\CD7\07 - Salt Peanuts.wav

Pre-gap length 0:00:03.07

Peak level 93.7 %
Track quality 100.0 %
Test CRC 43CB6423
Copy CRC 43CB6423
Accurately ripped (confidence 11) [2E3CFCDF]
Copy OK

Track 8

Filename C:\FLAC\Miles Davis - Chronicle. The Complete Prestige Recordings 1951-1956 {ZYX, 8PCD 012-2}\CD7\08 - Four.wav

Pre-gap length 0:00:03.00

Peak level 93.3 %
Track quality 100.0 %
Test CRC 6AC8EC1D
Copy CRC 6AC8EC1D
Accurately ripped (confidence 11) [511922FC]
Copy OK

Track 9

Filename C:\FLAC\Miles Davis - Chronicle. The Complete Prestige Recordings 1951-1956 {ZYX, 8PCD 012-2}\CD7\09 - The Theme (take 1).wav

Pre-gap length 0:00:03.05

Peak level 85.7 %
Track quality 100.0 %
Test CRC 1FACFD2B
Copy CRC 1FACFD2B
Accurately ripped (confidence 11) [B438963D]
Copy OK

Track 10

Filename C:\FLAC\Miles Davis - Chronicle. The Complete Prestige Recordings 1951-1956 {ZYX, 8PCD 012-2}\CD7\10 - The Theme (take 2).wav

Pre-gap length 0:00:01.37

Peak level 92.9 %
Track quality 100.0 %
Test CRC E0C15814
Copy CRC E0C15814
Accurately ripped (confidence 11) [18980692]
Copy OK

Track 11

Filename C:\FLAC\Miles Davis - Chronicle. The Complete Prestige Recordings 1951-1956 {ZYX, 8PCD 012-2}\CD7\11 - If I Were A Bell.wav

Pre-gap length 0:00:03.10

Peak level 92.9 %
Track quality 100.0 %
Test CRC 9E079A17
Copy CRC 9E079A17
Accurately ripped (confidence 9) [FC67547C]
Copy OK

Track 12

Filename C:\FLAC\Miles Davis - Chronicle. The Complete Prestige Recordings 1951-1956 {ZYX, 8PCD 012-2}\CD7\12 - Well, You Needn't.wav

Pre-gap length 0:00:02.10

Peak level 98.4 %
Track quality 99.9 %
Test CRC 2E3C3C43
Copy CRC 2E3C3C43
Accurately ripped (confidence 9) [CDFC7DE9]
Copy OK


All tracks accurately ripped

No errors occurred

End of status report

EAC LOG D8
Exact Audio Copy V0.99 prebeta 5 from 4. May 2009

EAC extraction logfile from 16. November 2012, 20:44

Miles Davis / Chronicle. The Complete Prestige Recordings 1951-1956 (CD8)

Used drive : PLDS DVD+-RW DS-8A5SH Adapter: 6 ID: 1

Read mode : Secure
Utilize accurate stream : Yes
Defeat audio cache : Yes
Make use of C2 pointers : No

Read offset correction : 6
Overread into Lead-In and Lead-Out : No
Fill up missing offset samples with silence : Yes
Delete leading and trailing silent blocks : No
Null samples used in CRC calculations : Yes
Used interface : Native Win32 interface for Win NT & 2000
Gap handling : Appended to previous track

Used output format : User Defined Encoder
Selected bitrate : 1024 kBit/s
Quality : High
Add ID3 tag : No
Command line compressor : C:\Program Files (x86)\FLAC\flac.exe
Additional command line options : -8 -V -T "ARTIST=%a" -T "TITLE=%t" -T "ALBUM=%g" -T "DATE=%y" -T "TRACKNUMBER=%n" -T "GENRE=%m" -T "COMMENT=EAC FLAC -8" %s


TOC of the extracted CD

Track | Start | Length | Start sector | End sector
---------------------------------------------------------
1 | 0:00.00 | 5:21.15 | 0 | 24089
2 | 5:21.15 | 4:47.22 | 24090 | 45636
3 | 10:08.37 | 4:49.50 | 45637 | 67361
4 | 14:58.12 | 5:11.20 | 67362 | 90706
5 | 20:09.32 | 5:54.63 | 90707 | 117319
6 | 26:04.20 | 4:27.27 | 117320 | 137371
7 | 30:31.47 | 5:44.08 | 137372 | 163179
8 | 36:15.55 | 7:32.07 | 163180 | 197086
9 | 43:47.62 | 10:01.03 | 197087 | 242164
10 | 53:48.65 | 6:00.32 | 242165 | 269196


Track 1

Filename C:\FLAC\Miles Davis - Chronicle. The Complete Prestige Recordings 1951-1956 {ZYX, 8PCD 012-2}\CD8\01 - 'Round About Midnight.wav

Pre-gap length 0:00:02.00

Peak level 74.4 %
Track quality 100.0 %
Test CRC 401296D6
Copy CRC 401296D6
Accurately ripped (confidence 6) [CF7DBC09]
Copy OK

Track 2

Filename C:\FLAC\Miles Davis - Chronicle. The Complete Prestige Recordings 1951-1956 {ZYX, 8PCD 012-2}\CD8\02 - Half Nelson.wav

Pre-gap length 0:00:01.38

Peak level 96.3 %
Track quality 100.0 %
Test CRC 81CCFF60
Copy CRC 81CCFF60
Accurately ripped (confidence 6) [61505B65]
Copy OK

Track 3

Filename C:\FLAC\Miles Davis - Chronicle. The Complete Prestige Recordings 1951-1956 {ZYX, 8PCD 012-2}\CD8\03 - You're My Everything.wav

Pre-gap length 0:00:03.00

Peak level 93.6 %
Track quality 100.0 %
Test CRC 64C89905
Copy CRC 64C89905
Accurately ripped (confidence 6) [556E3DCA]
Copy OK

Track 4

Filename C:\FLAC\Miles Davis - Chronicle. The Complete Prestige Recordings 1951-1956 {ZYX, 8PCD 012-2}\CD8\04 - I Could Write A Book.wav

Pre-gap length 0:00:02.15

Peak level 82.3 %
Track quality 100.0 %
Test CRC 11EA7A0E
Copy CRC 11EA7A0E
Accurately ripped (confidence 6) [0AE7B462]
Copy OK

Track 5

Filename C:\FLAC\Miles Davis - Chronicle. The Complete Prestige Recordings 1951-1956 {ZYX, 8PCD 012-2}\CD8\05 - Oleo.wav

Pre-gap length 0:00:02.57

Peak level 90.9 %
Track quality 100.0 %
Test CRC 76269667
Copy CRC 76269667
Accurately ripped (confidence 6) [2F234CD2]
Copy OK

Track 6

Filename C:\FLAC\Miles Davis - Chronicle. The Complete Prestige Recordings 1951-1956 {ZYX, 8PCD 012-2}\CD8\06 - Airegin.wav

Pre-gap length 0:00:02.00

Peak level 89.2 %
Track quality 100.0 %
Test CRC AD5B7EE5
Copy CRC AD5B7EE5
Accurately ripped (confidence 6) [0EADD750]
Copy OK

Track 7

Filename C:\FLAC\Miles Davis - Chronicle. The Complete Prestige Recordings 1951-1956 {ZYX, 8PCD 012-2}\CD8\07 - Tune Up.wav

Pre-gap length 0:00:02.60

Peak level 100.0 %
Track quality 100.0 %
Test CRC 1DEB3087
Copy CRC 1DEB3087
Accurately ripped (confidence 6) [968E3204]
Copy OK

Track 8

Filename C:\FLAC\Miles Davis - Chronicle. The Complete Prestige Recordings 1951-1956 {ZYX, 8PCD 012-2}\CD8\08 - When Lights Are Low.wav

Pre-gap length 0:00:02.38

Peak level 100.0 %
Track quality 100.0 %
Test CRC 47D9CCA9
Copy CRC 47D9CCA9
Accurately ripped (confidence 6) [9DC08809]
Copy OK

Track 9

Filename C:\FLAC\Miles Davis - Chronicle. The Complete Prestige Recordings 1951-1956 {ZYX, 8PCD 012-2}\CD8\09 - Blues By Five.wav

Pre-gap length 0:00:02.55

Peak level 96.8 %
Track quality 99.9 %
Test CRC AC91586B
Copy CRC AC91586B
Accurately ripped (confidence 6) [3238E5A1]
Copy OK

Track 10

Filename C:\FLAC\Miles Davis - Chronicle. The Complete Prestige Recordings 1951-1956 {ZYX, 8PCD 012-2}\CD8\10 - My Funny Valentine.wav

Pre-gap length 0:00:02.38

Peak level 73.2 %
Track quality 100.0 %
Test CRC 2DD9E702
Copy CRC 2DD9E702
Accurately ripped (confidence 5) [5E6294E8]
Copy OK


All tracks accurately ripped

No errors occurred

End of status report



Thanks to ps7sr!




CD1 + Scans


UPLOADED LINKS

BITSHARE LINKS

DEPOSITFILES LINKS



CD2


UPLOADED LINKS

BITSHARE LINKS

DEPOSITFILES LINKS



CD3


UPLOADED LINKS

BITSHARE LINKS

DEPOSITFILES LINKS



CD4


UPLOADED LINKS

BITSHARE LINKS

DEPOSITFILES LINKS



CD5


UPLOADED LINKS

BITSHARE LINKS

DEPOSITFILES LINKS



CD6


UPLOADED LINKS

BITSHARE LINKS

DEPOSITFILES LINKS



CD7


UPLOADED LINKS

BITSHARE LINKS

DEPOSITFILES LINKS



CD8


UPLOADED LINKS

BITSHARE LINKS

DEPOSITFILES LINKS
ADVERTISING » Very Fast Download!



« ADVERTISING




Posted By: alsoel Date: 28 Nov 2012 13:59:03
No tengo palabras suficientes para expresarte mi GRATITUD por este POST. Es TODO UN LUJO MUSICAL. Muchísimas Gracias amigo Hungry Mind por compartirlo.
Posted By: JabJab Date: 28 Nov 2012 17:35:46
Marvelous! Many thanks ;)
Posted By: Giddy up Date: 28 Nov 2012 19:21:18
magnificent post

Many Thanks : )
Posted By: wong_kong70 Date: 29 Nov 2012 03:51:50
That's really great, hope to see more of this kind! Thanks!
Posted By: muzz.cz Date: 29 Nov 2012 07:40:17
ruskaval you are still biggest piece of shit around the world! I hope someone will kill you soon! All because such greedy rats like you must die!
Fuckin' skunk clone!
Posted By: FrancyD Date: 29 Nov 2012 15:58:02
Thanks to ps7sr and Hungry Mind for this great job!!
Posted By: diddlycrap Date: 30 Nov 2012 11:19:50
Thanks for a really great post...
Posted By: libra_winmx Date: 30 Nov 2012 11:53:51
Thaaaaaaaaaaaaaaks!
Gracias,

libra, from Brazil, Rio de Janeiro
Posted By: Garullista Date: 09 Dec 2012 23:22:46
Invaluable aporte. Gracias
Posted By: JakeJazz Date: 11 Dec 2012 00:50:35
Thanks for the Miles!!
Posted By: Aljochinka Date: 12 Feb 2013 12:06:13

After a long (hard) time ... back in the world...

MANY THANKS for this fantastic upload!!

Posted By: alanceta Date: 23 Mar 2014 19:02:23
Could you please repost? Many parts of this great post are missing. TIA.