Loading...

Return to Forever Featuring Chick Corea - Hymn of the Seventh Galaxy (1973)

Posted By : bumbo | Date : 30 Apr 2009 18:39:14 | Comments : 2 |
|



Return to Forever Featuring Chick Corea - Hymn of the Seventh Galaxy (1973)
Jazz-Fusion | EAC (APE+CUE+LOG) | full 300dpi scans | 268 MB
Polydor | 1991 | 825 336-2 | rar files | 3% recovery

With Hymn of the Seventh Galaxy, Corea continues his streak of simply timeless fusion albums. The best of the electric RTF albums.


Tracks
01 Hymn of the Seventh Galaxy Corea
02 After the Cosmic Rain Clarke
03 Captain Senor Mouse Corea
04 Theme to the Mothership Corea
05 Space Circus, Pts. 1 & 2 Corea
06 Game Maker Corea

Review @ cduniverse
HYMN OF THE 7TH GALAXY, its hyper speed momentum aside, shares many of the characteristics of prog rock: flashy playing, incredibly complex instrumental passages and arrangements, awry and tangled time signatures, and a propensity towards raw ... Full Descriptionenergy intermingled with electronics. Everyone here plays as if there were no tomorrow.

Chick Corea's supercharged electric piano and organ licks alternate between fire-breathing tone clusters and atmospheric grace. Guitarist Bill Connors plays like a comet circling a supernova; Stanley Clarke's earthquake-inducing bass lines are both monstrous and finger-poppin' funky, while drummer Lenny White simply beats his kit to jelly. Feel the power: the protoplasmic funk of "After the Cosmic Rain," the Fender Rhodes symphonies and ecstatic drumming of "Captain Senor Mouse," the far-out space-bop of the title track. Super hot stuff from one of jazz-rock's cornerstones.

Digitally remastered by Joseph M. Palmaccio.

Live Recording. Recorded in August 1973.

Personnel: Chick Corea (acoustic & electric pianos, organ, harpsichord, gong); Bill Connors (acoustic & electric guitars); Stanley Clarke (electric bass, bell tree); Lenny White (drums, bongos, congas, percussion).


Review by Daniel Gioffre
The second incarnation of Chick Corea's influential fusion group released only a single record, the magnificent Hymn of the Seventh Galaxy. Featuring a more rock-oriented approach than the Flora Purim-Joe Farrell band that was responsible for both Return to Forever and Light as a Feather, Corea and old standby Stanley Clarke join forces here with propulsive drummer Lenny White and electric guitarist Bill Connors. Although Connors lacks the sophistication of Al Di Meola, the young guitarist who replaced him, he possesses a deliciously raw sound that keeps Corea's heady compositions firmly grounded. White introduces a funk aspect to the music, replacing Airto's Latin grooves from the first two records. Clarke is as good, wrenching some truly frightening sounds out of his electric basses. This increased emphasis on electric instrumentation, also displayed in Corea's heavy use of synthesizers, is another thing that separates this record from the previous Return to Forever releases. And as good as the band performances are, it is the quality of the compositions that marks Hymn of the Seventh Galaxy as an indispensable disc of '70s fusion. "Captain Senor Mouse," one of Corea's finest fusion compositions, receives an excellent treatment here. Likewise, the two-part "Space Circus" is a fantastic mix of haunting and grooving elements, with some simply incredible solos thrown into the mix. With Hymn of the Seventh Galaxy, Corea continues his streak of simply timeless fusion albums. The best of the electric RTF albums.

LOG
Exact Audio Copy V0.99 prebeta 4 from 23. January 2008

EAC extraction logfile from 20. May 2008, 21:51

Return to Forever Featuring Chick Corea / Hymn of the Seventh Galaxy

Used drive : PLEXTOR DVDR PX-750A Adapter: 3 ID: 0

Read mode : Secure
Utilize accurate stream : Yes
Defeat audio cache : Yes
Make use of C2 pointers : No

Read offset correction : 102
Overread into Lead-In and Lead-Out : No
Fill up missing offset samples with silence : Yes
Delete leading and trailing silent blocks : No
Null samples used in CRC calculations : Yes
Used interface : Installed external ASPI interface

Used output format : Internal WAV Routines
Sample format : 44.100 Hz; 16 Bit; Stereo


TOC of the extracted CD

Track | Start | Length | Start sector | End sector
---------------------------------------------------------
1 | 0:00.32 | 3:31.68 | 32 | 15924
2 | 3:32.25 | 8:25.32 | 15925 | 53831
3 | 11:57.57 | 9:01.13 | 53832 | 94419
4 | 20:58.70 | 8:49.25 | 94420 | 134119
5 | 29:48.20 | 5:42.12 | 134120 | 159781
6 | 35:30.32 | 6:46.58 | 159782 | 190289


Range status and errors

Selected range

Filename F:\Return to Forever Featuring Chick Corea - Hymn of the Seventh Galaxy.wav

Peak level 89.2 %
Range quality 100.0 %
Copy CRC ED66C5EF
Copy OK

No errors occurred


AccurateRip summary

Track 1 accurately ripped (confidence 3) [9B142578]
Track 2 accurately ripped (confidence 3) [DF5060C0]
Track 3 accurately ripped (confidence 3) [90132FB2]
Track 4 accurately ripped (confidence 3) [9374AFC8]
Track 5 accurately ripped (confidence 3) [2B83346F]
Track 6 accurately ripped (confidence 3) [3C1F107B]

All tracks accurately ripped

End of status report



Part 1
Part 2
Part 3

Password: www.AvaxHome.ru

ADVERTISING » Very Fast Download!



« ADVERTISING




Posted By: dandoon Date: 30 Apr 2009 20:21:13
Thanks for RTF - great music !!
Posted By: thequick1 Date: 10 Jun 2010 09:39:08
thanks bumbo