Loading...

Ronny Jordan - A Brighter Day (2000)

Posted By : antonyart | Date : 27 Nov 2012 12:31:42 | Comments : 3 |
|



Ronny Jordan - A Brighter Day (2000)
EAC Rip | FLAC (IMG+CUE+LOG) | 473 MB | Complete HQ Scans 600 dpi JPG included | MP3 Lame 320 CBR | 168 MB
Genre: Jazz | RAR 5% Rec. | Label: Blue Note / Capitol (5 20208 2) | Filepost, Depositfiles

Brighter Day album by Ronny Jordan was recorded 08/1999 and released Mar 14, 2000 on the Blue Note label. A Brighter Day was nominated for the 2001 Grammy Award for Best Contemporary Jazz Album. This self-taught guitarist breezes into the "Mambo Inn" for Latin spice, over to "New Delhi" for an acoustic Middle Eastern rendezvous, and on to a beefy B3 organ BBQ that grounds his mellifluous guitar flow on "London Lowdown," with the ease of a jet-setting, six-string seducer. Guests at the party include Roy Ayers adding his intoxicating vibes to a champagne-chilled cover of his own "Mystic Voyage," renowned drummer Jeff "Tain" Watts giving "5/8 Flow" its straight-ahead Brubeck-like kick, and rapper Mos Def dropping rhymes over DJ-Spinna's remix of the title track. The acid jazz craze may have fizzled, but Jordan keeps pouring smoothies from his golden-toned guitar blender that have enough adventurous flavors to satisfy.


Tracklist:

01. Brighter Day 05:43
02. Aftermath 06:13
03. Mackin (featuring DJ Spinna) 07:03
04. Why 04:43
05. Mystic Voyage (featuring Roy Ayers) 04:14
06. Breauxlude 00:55
07. London Lowdown 05:13
08. Two Worlds 05:50
09. Mambo Inn 05:01
10. Rio 05:42
11. New Delhi 4:56
12. Seeing Is Believing 4:56
13. 5/8 In Flow 6:26
14. Brighter Day (Remix - featuring Mos Def) 6:18

Total: 73:14

EAC log
Exact Audio Copy V1.0 beta 3 from 29. August 2011

EAC extraction logfile from 25. November 2012, 0:53

Ronny Jordan / A Brighter Day (1999)

Used drive : HL-DT-STDVDRAM GT34N Adapter: 0 ID: 2

Read mode : Secure
Utilize accurate stream : Yes
Defeat audio cache : Yes
Make use of C2 pointers : No

Read offset correction : 103
Overread into Lead-In and Lead-Out : No
Fill up missing offset samples with silence : Yes
Delete leading and trailing silent blocks : No
Null samples used in CRC calculations : Yes
Used interface : Native Win32 interface for Win NT & 2000

Used output format : User Defined Encoder
Selected bitrate : 896 kBit/s
Quality : High
Add ID3 tag : Yes
Command line compressor : C:\Program Files (x86)\Exact Audio Copy\FLAC\FLAC.EXE
Additional command line options : -6 -V -T "ARTIST=%artist%" -T "TITLE=%title%" -T "ALBUM=%albumtitle%" -T "DATE=%year%" -T "TRACKNUMBER=%tracknr%" -T "GENRE=%genre%" -T "COMMENT=%comment%" -T "BAND=%albuminterpret%" -T "ALBUMARTIST=%albuminterpret%" -T "COMPOSER=%composer%" %haslyrics%--tag-from-file=LYRICS="%lyricsfile%"%haslyrics% -T "DISCNUMBER=%cdnumber%" -T "TOTALDISCS=%totalcds%" -T "TOTALTRACKS=%numtracks%" %hascover%--picture="%coverfile%"%hascover% %source% -o %dest%


TOC of the extracted CD

Track | Start | Length | Start sector | End sector
---------------------------------------------------------
1 | 0:00.00 | 5:43.05 | 0 | 25729
2 | 5:43.05 | 6:13.20 | 25730 | 53724
3 | 11:56.25 | 7:03.00 | 53725 | 85449
4 | 18:59.25 | 4:43.22 | 85450 | 106696
5 | 23:42.47 | 4:13.70 | 106697 | 125741
6 | 27:56.42 | 0:55.03 | 125742 | 129869
7 | 28:51.45 | 5:13.30 | 129870 | 153374
8 | 34:05.00 | 5:50.17 | 153375 | 179641
9 | 39:55.17 | 5:01.18 | 179642 | 202234
10 | 44:56.35 | 5:42.17 | 202235 | 227901
11 | 50:38.52 | 4:55.48 | 227902 | 250074
12 | 55:34.25 | 4:56.35 | 250075 | 272309
13 | 60:30.60 | 6:25.45 | 272310 | 301229
14 | 66:56.30 | 6:17.45 | 301230 | 329549


Range status and errors

Selected range

Filename D:\FLAC\JORDAN Ronny - A Brighter Day\Ronny Jordan - A Brighter Day (1999).wav

Peak level 100.0 %
Extraction speed 2.2 X
Range quality 99.9 %
Test CRC EEF04EF4
Copy CRC EEF04EF4
Copy OK

No errors occurred


AccurateRip summary

Track 1 cannot be verified as accurate (confidence 28) [EED23CAC], AccurateRip returned [A10EEF55] (AR v2)
Track 2 cannot be verified as accurate (confidence 28) [8CBC6DAF], AccurateRip returned [4A181888] (AR v2)
Track 3 cannot be verified as accurate (confidence 28) [F1815F0A], AccurateRip returned [44B3DCB2] (AR v2)
Track 4 cannot be verified as accurate (confidence 28) [1D1D3302], AccurateRip returned [A80E32DA] (AR v2)
Track 5 cannot be verified as accurate (confidence 29) [561262EA], AccurateRip returned [BF9E0652] (AR v2)
Track 6 cannot be verified as accurate (confidence 29) [53038935], AccurateRip returned [C9691649] (AR v2)
Track 7 cannot be verified as accurate (confidence 28) [A2EEFADC], AccurateRip returned [CA99BAB9] (AR v2)
Track 8 cannot be verified as accurate (confidence 28) [18614C6C], AccurateRip returned [0978B65D] (AR v2)
Track 9 cannot be verified as accurate (confidence 29) [46253FC7], AccurateRip returned [794B7A31] (AR v2)
Track 10 cannot be verified as accurate (confidence 27) [1FE282F9], AccurateRip returned [C9B194EE] (AR v2)
Track 11 cannot be verified as accurate (confidence 27) [D3422D24], AccurateRip returned [F4A03E44] (AR v2)
Track 12 cannot be verified as accurate (confidence 27) [60E5C897], AccurateRip returned [11B60DD3] (AR v2)
Track 13 cannot be verified as accurate (confidence 26) [3482E7F2], AccurateRip returned [4D2B8AAC] (AR v2)
Track 14 cannot be verified as accurate (confidence 27) [97761D7E], AccurateRip returned [09900802] (AR v2)

No tracks could be verified as accurate
You may have a different pressing from the one(s) in the database

End of status report

==== Log checksum 8B59810CFEF78D9F45F921487092BB13F76F2B9793A8A3E3A661B57F4ABCDF94 ====

Dynamic Range
foobar2000 1.1.9 / Dynamic Range Meter 1.1.1
log date: 2012-11-26 12:47:57

--------------------------------------------------------------------------------
Analyzed: Ronny Jordan / A Brighter Day (1999)
--------------------------------------------------------------------------------

DR Peak RMS Duration Track
--------------------------------------------------------------------------------
DR9 0.00 dB -9.52 dB 5:43 01-A Brighter Day
DR9 0.00 dB -9.97 dB 6:13 02-Aftermath
DR7 0.00 dB -8.30 dB 7:03 03-Mackin
DR11 0.00 dB -11.88 dB 4:43 04-Why
DR8 0.00 dB -9.44 dB 4:14 05-Mystic Voyage (feat. Roy Ayers)
DR14 0.00 dB -17.73 dB 0:55 06-Breauxlude
DR9 0.00 dB -10.25 dB 5:13 07-London Lowdown
DR9 0.00 dB -10.72 dB 5:50 08-Two Worlds
DR10 0.00 dB -11.54 dB 5:01 09-Mambo Inn
DR9 0.00 dB -10.62 dB 5:42 10-Rio
DR9 0.00 dB -10.80 dB 4:56 11-New Delhi
DR10 0.00 dB -10.78 dB 4:56 12-Seeing Is Believing
DR10 0.00 dB -11.27 dB 6:26 13-5/8 in Flow
DR9 0.00 dB -9.76 dB 6:18 14-A Brighter Day (feat. Mos Def)
--------------------------------------------------------------------------------

Number of tracks: 14
Official DR value: DR10

Samplerate: 44100 Hz
Channels: 2
Bits per sample: 16
Bitrate: 863 kbps
Codec: FLAC
================================================================================

Info
Engineers include: Steve Lewinson, Steve Hardy, Steve Parr.

Personnel: Ronny Jordan (guitar, midi guitar, drum programming); Jill Jones, Stephanie McKay (vocals); Zachary Breaux (guitar); Steve Wilson (flute); Todd Horton (trumpet); Bruce Flowers (piano, Fender Rhodes piano, keyboards); Onaje Allan Gumbs, Marcus Persiani (piano); Joel Campbell (keyboards); Roy Ayers, Stefon Harris (vibraphone); Ian Martin , Steve Lewinson (acoustic bass); Andy González (upright bass); Clarence Penn, Jeff "Tain" Watts, Poogie Bell (drums); Neil Clarke (percussion).

Audio Remixer: DJ Spinna.

Recording information: 08/1999.

Personnel: Ronny Jordan (acoustic & electric guitars, synthesizer, bass, programming); Stephanie McKay, Jill Jones, Philip Hamilton, Sivashakti Sivanesan (vocals); Todd Horton (trumpet); Steve Wilson (flute); Roy Ayers, Stefon Harris (vibraphone); Bruce Flowers (piano, Fender Rhodes piano, synthesizer); Marcus Persiani, Onje Allen Gumbs (piano); Brian Mitchell (Hammond B-3 organ); Joel Campbell (keyboards, synthesizer); Ticklah (keyboards, sound effects); Zachary Breaux (guitar); Steve Lewinson, Ian Martin, Andy Gonzalez (acoustic bass); Poogie Bell, Clarence Penn, Jeff "Tain" Watts (drums); Shivas Shanker (tablas); Neil Clarke, Cafe (percussion); DJ Spinna (programming, scratches); Mos Def.

Producers: Ronny Jordan, Brian Bacchus, Joel Campbell.

JazzTimes (5/00, p.136) - "...Melodious, warm-toned single note lines and Wes Montgomery-styled octaves on top of static hip-hop vamps....Pleasant enough...if smooth jazz is your thing, then by all means seek out this disc..."

from cduniverse.com



This CD is from my personal collection. My original rip & my scan work.
>> here is my blog with all my rips <<
Please, do not mirror these links at any web pages.

FLAC + HQ 600 dpi complete scans:

Filepost

Depositfiles

MP3 + 300 dpi front/back cover scans:

Filepost

Depositfiles


Password: Ant
ADVERTISING » Very Fast Download!



« ADVERTISING




Posted By: Laughaminute Date: 28 Nov 2012 04:48:15
Very very nice. Many thanks
Posted By: nrwsps Date: 28 Nov 2012 06:18:10
Thanks a lot.
Posted By: alsoel Date: 28 Nov 2012 12:24:55
Muchas Gracias!!!!! Excelente disco.