Loading...

Mark Isham - Miles Remembered: The Silent Way Project (1996)

Posted By : intothe | Date : 05 Oct 2008 09:28:00 | Comments : 2 |
|



Mark Isham - Miles Remembered: The Silent Way Project (1996)
Jazz | FLAC, CUE, LOG, SCANS | 437 MB | Columbia, 1999 | HDCD
Recorded live at Baked Potato, 1996 | 68:39


LOG
EAC extraction logfile from 4. January 2011, 8:53

Mark Isham / Miles Remembered: The Silent Way Project

Used drive : _NEC DVD_RW ND-3500AG Adapter: 0 ID: 0

Read mode : Secure
Utilize accurate stream : Yes
Defeat audio cache : Yes
Make use of C2 pointers : No

Read offset correction : 48
Overread into Lead-In and Lead-Out : No
Fill up missing offset samples with silence : Yes
Delete leading and trailing silent blocks : No
Null samples used in CRC calculations : Yes
Used interface : Native Win32 interface for Win NT & 2000

Used output format : User Defined Encoder
Selected bitrate : 768 kBit/s
Quality : High
Add ID3 tag : No
Command line compressor : C:\Program Files\Exact Audio Copy\FLAC\FLAC.EXE
Additional command line options : -6 -V -T "ARTIST=%a" -T "TITLE=%t" -T "ALBUM=%g" -T "DATE=%y" -T "TRACKNUMBER=%n" -T "GENRE=%m" -T "COMMENT=%e" %s -o %d


TOC of the extracted CD

Track | Start | Length | Start sector | End sector
---------------------------------------------------------
1 | 0:00.00 | 8:26.50 | 0 | 37999
2 | 8:26.50 | 5:06.35 | 38000 | 60984
3 | 13:33.10 | 5:09.65 | 60985 | 84224
4 | 18:43.00 | 6:34.52 | 84225 | 113826
5 | 25:17.52 | 7:48.20 | 113827 | 148946
6 | 33:05.72 | 2:48.25 | 148947 | 161571
7 | 35:54.22 | 15:27.40 | 161572 | 231136
8 | 51:21.62 | 5:22.55 | 231137 | 255341
9 | 56:44.42 | 5:45.50 | 255342 | 281266
10 | 62:30.17 | 5:52.63 | 281267 | 307729


Range status and errors

Selected range

Filename J:\eMusic\Rip\Mark Isham - Miles Remembered The Silent Way Project.wav

Peak level 95.9 %
Range quality 100.0 %
Test CRC 65EA1C99
Copy CRC 65EA1C99
Copy OK

No errors occurred


AccurateRip summary

Track 1 accurately ripped (confidence 2) [6D861171]
Track 2 accurately ripped (confidence 2) [06D678B1]
Track 3 accurately ripped (confidence 2) [42717AB1]
Track 4 accurately ripped (confidence 2) [044D800B]
Track 5 accurately ripped (confidence 2) [CBAB9A8D]
Track 6 accurately ripped (confidence 2) [85F7A258]
Track 7 accurately ripped (confidence 2) [CFCF64ED]
Track 8 accurately ripped (confidence 2) [6AFAD3BD]
Track 9 accurately ripped (confidence 2) [767F4202]
Track 10 accurately ripped (confidence 2) [91538E08]

All tracks accurately ripped

End of status report


In A Silent Way is one of the most celebrated albums in jazz history and it still sounds fresh decades after it was originally recorded. During the '90s, its evocative sonic textures and blends of acoustic and electric instruments could be heard throughout contemporary music, particularly in electronica artists who seized the more cerebral aspects of the album. Conversely, Mark Isham hears the space and atmosphere within the album, along with the rest of Miles Davis' electric fusion period. That's why his Davis tribute, Miles Remembered: The Silent Way Project, is so interesting. Even on edgier numbers, such as "Right Off" (the closest Davis ever got to metallic hard rock), Isham finds spacious sonic textures. It may be smoother than Davis fusion and have a different sense of purpose, but it's never boring, and it's often quite rewarding, standing as a testament to Davis' original vision and Isham's skills as an arranger and interpreter. - by Stephen Thomas Erlewine, AMG

Tracks:
1. In a Silent Way - Milestone (Miles Davis/Joe Zawinul) 8:26
2. Rioght Off (Theme from Jack Johnson) (Miles Davis) 5:06
3. Internet (Mark Isham) 5:09
4. All Blues (Miles Davis) 6:34
5. It's About that Time (Miles Davis) 7:48
6. Azael (Mark Isham) 2:48
7. Spanish Key (Miles Davis) 15:27
8. Ife (Miles Davis) 5:22
9. Great Expectations (Miles Davis/Joe Zawinul) 5:45
10. Black Satin (Miles Davis) 6:09

Personnel:
Mark Isham (Trumpet)
Peter Maunu (Guitar)
Steve Cardenas (Guitar)
Doug Lunn (Bass)
Michael Barsimanto (Drums)

reup: 04 Jan. 2011


ADVERTISING » Very Fast Download!



« ADVERTISING




Posted By: EDTOPIA Date: 28 Oct 2009 18:16:46
Thank You Very Much
Posted By: clx81 Date: 03 Jan 2011 12:06:21
Links are deads !

Can you re-upload ?