Loading...

Manowar - Louder Than Hell (1996) (GED 24925 424 925-2)

Posted By : Necromandus | Date : 20 May 2012 12:19:00 | Comments : 0 |
|




Manowar - Louder Than Hell (1996)
EAC Rip | FLAC, IMG+CUE+LOG | 380 MB | MP3 CBR 320 Kbps | 130 MB | Complete HQ Scans | PNG -> 50 MB
Heavy Metal | Label: Geffen Records, Inc. #GED 24925 424 925-2 | RAR 3% Rec. | FilePost

Led by bassist Joey DeMaio and his singular metallic musical vision, Louder Than Hell is another exercise in power metal evangelism peculiar to Manowar. The British Steel-like opener "Return of the Warlords" emphasizes the American band's rare ability to offer very European-sounding '80s metal. The ballad "Courage," like most of the group's slower numbers, is an abysmal failure. Fortunately, there are only a couple of these boring battle hymns included on this 1996 release. The shred-metal rhythmic constructs are also in limited quantity, but "Outlaw" with its pile-driving, 16th-note rhythm is up to the speedy standard set on The Triumph of Steel. A distinctly old-school Judas Priest vibe is apparent during the mid-tempo chunk of Louder Than Hell. Eric Adams' confident vocals don't wither one bit when compared to those of legendary screamer Rob Halford and reinforces the classic influence. Sure, Manowar's "true metal" flag-waving is tedious and goofy, but non-judgmental metal fans willing to overlook the bad comic book imagery will eventually marvel at the band's ability to create and capture their own brand of unapologetic power metal.

~ by Vincent Jeffries, allmusic.com

Tracklist :

1. Return Of The Warlord - 5:20
2. Brothers of Metal Pt. 1 - 3:55
3. The Gods Made Heavy Metal - 6:04
4. Courage - 3:49
5. Number 1 - 5:12
6. Outlaw - 3:22
7. King - 6:25
8. Today is a Good Day to Die - 9:43
9. My Spirit Lives On - 2:10
10. The Power - 4:09

EAC extraction logfile
Exact Audio Copy V1.0 beta 3 from 29. August 2011

EAC extraction logfile from 4. May 2012, 23:09

Manowar / Louder Than Hell (GED 24925 424 925-2)

Used drive : PIONEER DVD-RW DVR-219L Adapter: 1 ID: 0

Read mode : Secure
Utilize accurate stream : Yes
Defeat audio cache : Yes
Make use of C2 pointers : No

Read offset correction : 6
Overread into Lead-In and Lead-Out : No
Fill up missing offset samples with silence : Yes
Delete leading and trailing silent blocks : No
Null samples used in CRC calculations : Yes
Used interface : Native Win32 interface for Win NT & 2000

Used output format : Internal WAV Routines
Sample format : 44.100 Hz; 16 Bit; Stereo


TOC of the extracted CD

Track | Start | Length | Start sector | End sector
---------------------------------------------------------
1 | 0:00.00 | 5:19.62 | 0 | 23986
2 | 5:19.62 | 3:54.48 | 23987 | 41584
3 | 9:14.35 | 6:03.67 | 41585 | 68876
4 | 15:18.27 | 3:49.25 | 68877 | 86076
5 | 19:07.52 | 5:11.40 | 86077 | 109441
6 | 24:19.17 | 3:22.35 | 109442 | 124626
7 | 27:41.52 | 6:25.10 | 124627 | 153511
8 | 34:06.62 | 9:42.40 | 153512 | 197201
9 | 43:49.27 | 2:09.73 | 197202 | 206949
10 | 45:59.25 | 4:09.17 | 206950 | 225641


Range status and errors

Selected range

Filename D:\.www.AvaxHome.ru\Manowar - Louder Than Hell (GED 24925 424 925-2).wav

Peak level 100.0 %
Extraction speed 6.7 X
Range quality 99.9 %
Test CRC C342BDD8
Copy CRC C342BDD8
Copy OK

No errors occurred


AccurateRip summary

Track 1 accurately ripped (confidence 3) [DBED6B87] (AR v2)
Track 2 accurately ripped (confidence 3) [682D96E6] (AR v2)
Track 3 accurately ripped (confidence 3) [4FDBE6A4] (AR v2)
Track 4 accurately ripped (confidence 3) [431711DD] (AR v2)
Track 5 accurately ripped (confidence 3) [C47FB913] (AR v2)
Track 6 accurately ripped (confidence 3) [B69F2E97] (AR v2)
Track 7 accurately ripped (confidence 3) [C46D2A8F] (AR v2)
Track 8 accurately ripped (confidence 3) [6A637C45] (AR v2)
Track 9 accurately ripped (confidence 3) [E9198A5F] (AR v2)
Track 10 accurately ripped (confidence 3) [8ECC9CF9] (AR v2)

All tracks accurately ripped

End of status report

---- CUETools DB Plugin V2.1.3

[CTDB TOCID: bvrJFMqmFBKG.6Z4SSgCoEY7Kik-] found, Submit result: bvrJFMqmFBKG.6Z4SSgCoEY7Kik- has been confirmed
[166a7f17] (117/117) Accurately ripped


==== Log checksum 83F5027A15E480B548A413A57331F6E5E2F1BD0DEEC7684F6A1490A8C864572C ====

auCDtect + Dynamic Range
-----------------------

DON'T MODIFY THIS FILE

-----------------------

PERFORMER: auCDtect Task Manager, ver. 1.5.1RC3 build 1.5.1.4
Copyright (c) 2008-2010 y-soft. All rights reserved
http://y-soft.org

ANALYZER: auCDtect: CD records authenticity detector, version 0.8.2
Copyright (c) 2004 Oleg Berngardt. All rights reserved.
Copyright (c) 2004 Alexander Djourik. All rights reserved.


FILE: Manowar - Louder Than Hell (GED 24925 424 925-2).wav
Size: 530710028 Hash: 12C95B01E1834F9A080757FCCA2B83BC Accuracy: -m0
Conclusion: CDDA 100%
Signature: 0EEE0F875BF7F05862C46ECD484C7CDF0C54FAA3

================================================================================
foobar2000 1.1.3 / Dynamic Range Meter 1.1.0
log date: 2012-05-19 18:36:39

--------------------------------------------------------------------------------
Analyzed: Manowar / Louder Than Hell (GED 24925 424 925-2)
--------------------------------------------------------------------------------

DR Peak RMS Duration Track
--------------------------------------------------------------------------------
DR6 0.00 dB -7.55 dB 5:20 01-Return Of The Warlord
DR7 0.00 dB -8.84 dB 3:55 02-Brothers of Metal Pt. 1
DR7 0.00 dB -8.20 dB 6:04 03-The Gods Made Heavy Metal
DR8 0.00 dB -10.95 dB 3:49 04-Courage
DR6 0.00 dB -7.47 dB 5:12 05-Number 1
DR6 0.00 dB -7.38 dB 3:22 06-Outlaw
DR7 0.00 dB -9.54 dB 6:25 07-King
DR8 0.00 dB -11.69 dB 9:43 08-Today is a Good Day to Die
DR10 -0.44 dB -12.94 dB 2:10 09-My Spirit Lives On
DR6 0.00 dB -6.74 dB 4:09 10-The Power
--------------------------------------------------------------------------------

Number of tracks: 10
Official DR value: DR7

Samplerate: 44100 Hz
Channels: 2
Bits per sample: 16
Bitrate: 1411 kbps
Codec: PCM
================================================================================

• Eric Adams - Vocals
• Joey DeMaio - Bass
• Karl Logan - Guitars
• Scott Columbus - Drums

All song written and produced by Manowar
Recorded & Mixed at Haus Wahnfried N.Y.
Engineered By Rich Breen for BAD
Audio Assistant Engineer - Ehab G. Haddad

Please, do not write these links at any web pages. Enjoy & keep the files alive!
* - EAC Image, standard LOG, embedded cuesheet, Foobar2000 ready
Huge thanks to my friend bigggwest for original CD!
In case you encounter some dead links, please leave the comment here or send me a private message!

ADVERTISING » Very Fast Download!



« ADVERTISING




No comments for the news