Loading...

Sebastian Bach - ABachalipse Now (2013) (Avalon, MIZF-70020)

Posted By : Necromandus | Date : 27 Apr 2013 22:12:00 | Comments : 2 |
|



Sebastian Bach - ABachalipse Now (2013)
EAC Rip | FLAC, IMG+CUE+LOG | 830 MB | MP3 CBR 320 Kbps | 260 MB | Complete HQ Scans | PNG -> 120 MB
DVD9 -> Folder | NTSC PAL 720x480, 16:9, 29.970fps | ~ 150 min | English Dolby AC3 48000Hz 2ch 448Kbps | 7.2 GB
Heavy Metal | Label: Marquee Inc., Japan #MIZF-70020 | RAR 3% Rec. | FilePost

As vocalist for late-'80s hair metal rockers Skid Row, Sebastian Bach's impassioned screams and mellow handling of power ballads left many considering him one of metal's best singers and possibly one of the more overlooked. Bach continued a solo career long after Skid Row, one that included multiple musical collaborations, a stint on Broadway, some TV acting roles, and a slew of solo albums. The cleverly/ridiculously titled Abachalypse Now features remixed and remastered audio from three 2012 concerts that took place in France, Belgium, and Los Angeles, featuring Bach and his backing band in fine form as they tear through Skid Row classics like "I Remember You" and "18 & Life" as well as songs from Bach's solo albums, including "Kicking & Screaming" and "(Love Is) A Bitch Slap."

~ by Fred Thomas, allmusic.com

DVD Tracklist :

Live at Hellfest, France, June 16th 2012
01. Slave To The Grind
02. Kicking & Screaming
03. Here I Am
04. Big Guns
05. Piece Of Me
06. 18 & Life
07. American Metalhead
08. Monkey Business
09. I Remember You
10. Youth Gone Wild
Live at Nokia, Los Angeles CA, Aug 2nd 2012
01. Big Guns
02. (Love In) a Bitchslap
03. Piece Of Me
04. 18 & Life
05. American Metalhead
06. Monkey Business
07. I Remember You
08. TunnelVision
09. Youth Gone Wild
Live at Graspop, Belgium, June 24th 2012
01. Kicking & Screaming
02. Dirty Power
03. Here I am
04. big Guns
05. 18 & Life
06. American Metalhead
07. Monkey Business
08. I Remember You
09. TunnelVision
Bonus:
Kicking & Screaming Videos
1. Kicking & Screaming
2. TunnelVision
3. I'm Alive

CD1 Tracklist :

1. Slave To The Grind - 3:34
2. Kicking & Screaming - 4:19
3. Here I Am - 4:09
4. Big Guns - 4:45
5. Piece Of Me - 3:48
6. 18 & Life - 5:18
7. American Metalhead - 5:08
8. Monkey Business - 7:17
9. I Remember You - 7:22
10. Youth Gone Wild - 6:41

EAC extraction logfile
Exact Audio Copy V1.0 beta 3 from 29. August 2011

EAC extraction logfile from 27. April 2013, 13:59

Sebastian Bach / ABachalipse Now (CD1, Avalon, MIZF-70020)

Used drive : PLEXTOR DVDR PX-612U Adapter: 1 ID: 0

Read mode : Secure
Utilize accurate stream : Yes
Defeat audio cache : Yes
Make use of C2 pointers : No

Read offset correction : 6
Overread into Lead-In and Lead-Out : No
Fill up missing offset samples with silence : Yes
Delete leading and trailing silent blocks : No
Null samples used in CRC calculations : Yes
Used interface : Installed external ASPI interface

Used output format : User Defined Encoder
Selected bitrate : 1024 kBit/s
Quality : High
Add ID3 tag : No
Command line compressor : C:\Program Files (x86)\Exact Audio Copy 1.0b3\Flac\flac.exe
Additional command line options : -V -8 -T "Date=%year%" -T "Genre=%genre%" %source%


TOC of the extracted CD

Track | Start | Length | Start sector | End sector
---------------------------------------------------------
1 | 0:00.00 | 3:34.30 | 0 | 16079
2 | 3:34.30 | 4:18.41 | 16080 | 35470
3 | 7:52.71 | 4:09.01 | 35471 | 54146
4 | 12:01.72 | 4:45.33 | 54147 | 75554
5 | 16:47.30 | 3:48.20 | 75555 | 92674
6 | 20:35.50 | 5:18.17 | 92675 | 116541
7 | 25:53.67 | 5:07.69 | 116542 | 139635
8 | 31:01.61 | 7:17.02 | 139636 | 172412
9 | 38:18.63 | 7:21.59 | 172413 | 205546
10 | 45:40.47 | 6:40.43 | 205547 | 235589


Range status and errors

Selected range

Filename D:\Ripped By liveevil\Sebastian Bach - ABachalipse Now (CD1, Avalon, MIZF-70020).wav

Peak level 100.0 %
Extraction speed 4.4 X
Range quality 100.0 %
Test CRC 7CBDB8B5
Copy CRC 7CBDB8B5
Copy OK

No errors occurred


AccurateRip summary

Track 1 not present in database
Track 2 not present in database
Track 3 not present in database
Track 4 not present in database
Track 5 not present in database
Track 6 not present in database
Track 7 not present in database
Track 8 not present in database
Track 9 not present in database
Track 10 not present in database

None of the tracks are present in the AccurateRip database

End of status report

==== Log checksum C256C7BD4FCE245A71E8862A8F9156E6B4A319A0B529FC36022BC5666FC13E9E ====

CD2 Tracklist :

1. Big Guns - 4:59
2. (Love Is) A Bitchslap - 2:54
3. Piece Of Me - 3:23
4. 18 & Life - 4:52
5. American Metalhead - 4:41
6. Monkey Business - 7:39
7. I Remember You - 6:12
8. TunnelVision - 4:47
9. Youth Gone Wild - 5:28
10. 18 & Life (Live From Graspop, Belgium 2012 - Bonus Track) - 6:09

EAC extraction logfile
Exact Audio Copy V1.0 beta 3 from 29. August 2011

EAC extraction logfile from 27. April 2013, 14:32

Sebastian Bach / ABachalipse Now (CD2, Avalon, MIZF-70020)

Used drive : PLEXTOR DVDR PX-612U Adapter: 1 ID: 0

Read mode : Secure
Utilize accurate stream : Yes
Defeat audio cache : Yes
Make use of C2 pointers : No

Read offset correction : 6
Overread into Lead-In and Lead-Out : No
Fill up missing offset samples with silence : Yes
Delete leading and trailing silent blocks : No
Null samples used in CRC calculations : Yes
Used interface : Installed external ASPI interface

Used output format : User Defined Encoder
Selected bitrate : 1024 kBit/s
Quality : High
Add ID3 tag : No
Command line compressor : C:\Program Files (x86)\Exact Audio Copy 1.0b3\Flac\flac.exe
Additional command line options : -V -8 -T "Date=%year%" -T "Genre=%genre%" %source%


TOC of the extracted CD

Track | Start | Length | Start sector | End sector
---------------------------------------------------------
1 | 0:00.00 | 4:58.53 | 0 | 22402
2 | 4:58.53 | 2:54.28 | 22403 | 35480
3 | 7:53.06 | 3:22.58 | 35481 | 50688
4 | 11:15.64 | 4:52.02 | 50689 | 72590
5 | 16:07.66 | 4:40.46 | 72591 | 93636
6 | 20:48.37 | 7:38.61 | 93637 | 128047
7 | 28:27.23 | 6:12.27 | 128048 | 155974
8 | 34:39.50 | 4:47.33 | 155975 | 177532
9 | 39:27.08 | 5:27.50 | 177533 | 202107
10 | 44:54.58 | 6:08.49 | 202108 | 229756


Range status and errors

Selected range

Filename D:\Ripped By liveevil\Sebastian Bach - ABachalipse Now (CD2, Avalon, MIZF-70020).wav

Peak level 100.0 %
Extraction speed 4.4 X
Range quality 100.0 %
Test CRC 8564E971
Copy CRC 8564E971
Copy OK

No errors occurred


AccurateRip summary

Track 1 not present in database
Track 2 not present in database
Track 3 not present in database
Track 4 not present in database
Track 5 not present in database
Track 6 not present in database
Track 7 not present in database
Track 8 not present in database
Track 9 not present in database
Track 10 not present in database

None of the tracks are present in the AccurateRip database

End of status report

==== Log checksum D9EEDB50A3E482EC246D5949E1E55E57D159F5CE5A7193098E241C903F11C9A5 ====

• Sebastian Bach - Vocals
• Nick Sterling - Guitar & Background Vocals
• Bobby Jarzombek - Drums
• Johnny Chromatic - Guitar & Background Vocals
• Jason Christopher - Bass

Special Guests:
Ashley Purdy / Brent Woods / Jinxx / Roy Z
Executive Producers: Sebastian Bach, Andrew Stuart, Rick Sales, Devin Dehaven

ADVERTISING » Very Fast Download!



« ADVERTISING




Posted By: stephenzb Date: 28 Apr 2013 08:47:01
Great post ! Thanks a lot !
But the DVD part02 is broken : -(
Please fix it.
Posted By: Necromandus Date: 28 Apr 2013 18:29:53
fixed , sorry