Loading...

Kingfisher Sky - Skin of the Earth (2010)

Posted By : rd | Date : 17 Dec 2010 18:15:29 | Comments : 1 |
|



Kingfisher Sky - Skin of the Earth (2010)
EAC Rip | APE + CUE + LOG | 346 Mb | MP3 320 CBR | 117 Mb | Covers | 46:47
Genre: Progressive metal, progressive rock, symphonic metal

Ivar's progressive rock and traditional folk influences collided with Judith's classical conservatory background, and also her preference for soul and artists like Aretha Franklin. Combined with their mutual love for bands and artists like Porcupine Tree, Jethro Tull, Peter Gabriel, Kate Bush and Tori Amos, new songs were written.

Release Date: September 24th, 2010
Label: Pirate Label


Official Website
Wikipedia
Encyclopaedia Metallum
MySpace Music

Band:

Bass - Eric Hoogendoorn
Cello - Maaike Peterse
Drums - Ivar de Graaf
Guitar - Chris Henny , Edo van der Kolk
Guitar [Additional] - Ivar de Graaf
Keyboards - David Gutierrez Rojas
Keyboards [Additional] - Ivar de Graaf
Flute - Erica van den Berg
Mandolin - Ruud Jolie

Tracklist:

1 Multitude 3:41
2 Rise From The Flames 3:38
3 The Attic 4:45
4 My Better Part 3:49
5 Like A Shadow 4:40
6 Two Old Trees 3:52
7 We Love Our Heroes 3:48
8 Mushroom Wall 5:25
9 Liquid Clocks 4:27
10 One More Day 4:36
11 The Edge Of Insanity 4:07

MP3

FSonic

или / or

FServe

APE

FSonic 1 FSonic 2

или / or

FServe 1 FServe 2

В каждом архиве инфа для восстановления! Сканы в комплекте. Части взаимозаменяемы.
Each archive contains information for recovery! Covers included. All parts are interchangeable


LOG
Exact Audio Copy V0.99 prebeta 5 from 4. May 2009

EAC extraction logfile from 4. December 2010, 23:46

Kingfisher Sky / Skin of the Earth

Used drive : PLEXTOR DVDR PX-860A Adapter: 0 ID: 0

Read mode : Secure
Utilize accurate stream : Yes
Defeat audio cache : Yes
Make use of C2 pointers : No

Read offset correction : 96
Overread into Lead-In and Lead-Out : No
Fill up missing offset samples with silence : Yes
Delete leading and trailing silent blocks : No
Null samples used in CRC calculations : Yes
Used interface : Installed external ASPI interface

Used output format : Monkey's Audio Lossless Encoder
Selected bitrate : Normal Lossless Compression
Quality : High
Add ID3 tag : Yes
Command line compressor : C:\Program Files\Monkey's Audio\MAC.exe


TOC of the extracted CD

Track | Start | Length | Start sector | End sector
---------------------------------------------------------
1 | 0:00.00 | 3:40.63 | 0 | 16562
2 | 3:40.63 | 3:37.69 | 16563 | 32906
3 | 7:18.57 | 4:45.04 | 32907 | 54285
4 | 12:03.61 | 3:48.44 | 54286 | 71429
5 | 15:52.30 | 4:40.22 | 71430 | 92451
6 | 20:32.52 | 3:52.11 | 92452 | 109862
7 | 24:24.63 | 3:48.15 | 109863 | 126977
8 | 28:13.03 | 5:24.45 | 126978 | 151322
9 | 33:37.48 | 4:27.22 | 151323 | 171369
10 | 38:04.70 | 4:35.40 | 171370 | 192034
11 | 42:40.35 | 4:07.29 | 192035 | 210588


Range status and errors

Selected range

Filename J:\MUSIC\Kingfisher Sky - Skin of the Earth.wav

Peak level 97.7 %
Range quality 100.0 %
Test CRC 4E3E111B
Copy CRC 4E3E111B
Copy OK

No errors occurred


AccurateRip summary

Track 1 cannot be verified as accurate (confidence 1) [DD463609], AccurateRip returned [54D96B01]
Track 2 cannot be verified as accurate (confidence 1) [7C0D6D1C], AccurateRip returned [C1BD73B2]
Track 3 cannot be verified as accurate (confidence 1) [4877F3AD], AccurateRip returned [0FA8E095]
Track 4 cannot be verified as accurate (confidence 1) [ED6DEEDB], AccurateRip returned [F4DC11F9]
Track 5 cannot be verified as accurate (confidence 1) [F75EFAC4], AccurateRip returned [AF1F9F78]
Track 6 cannot be verified as accurate (confidence 1) [8750607A], AccurateRip returned [E2952A34]
Track 7 cannot be verified as accurate (confidence 1) [1C58F68E], AccurateRip returned [56584598]
Track 8 cannot be verified as accurate (confidence 1) [20615CBA], AccurateRip returned [BB55F4C0]
Track 9 cannot be verified as accurate (confidence 1) [FE3F67F1], AccurateRip returned [C078199B]
Track 10 cannot be verified as accurate (confidence 1) [692AAB05], AccurateRip returned [82595DE5]
Track 11 cannot be verified as accurate (confidence 1) [30F75322], AccurateRip returned [04FFD482]

No tracks could be verified as accurate
You may have a different pressing from the one(s) in the database

End of status report


Прошу обратить внимание на то, что весь материал, представленный выше, предназначен исключительно для ознакомления! Приобретайте, пожалуйста, легальные диски, которые вне всякого сомнения станут достойным украшением вашей коллекции!

ADVERTISING » Very Fast Download!



« ADVERTISING




Posted By: andre88 Date: 24 Sep 2011 12:47:39
Many Thanks!