Loading...

Black 'n Blue - Without Love (1985)

Posted By : rd | Date : 10 Jan 2011 21:07:31 | Comments : 1 |
|



Black 'n Blue - Without Love (1985)
EAC Rip | APE + CUE + LOG | 280 Mb | MP3 320 CBR | 104 Mb | Covers | 36:38
Genre: Glam metal

Without Love is Black 'n Blue's second album.

Label: Pirate Label

Wikipedia

Band:

Jaime St. James: Lead vocals
Tommy Thayer: Guitar, keyboards
Jeff Warner: Guitar
Patrick Young: Bass
Pete Holmes: Drums


Tracklist:

Rockin' on Heaven's Door
Without Love
Stop the Lightning
Nature of the Beach
Miss Mystery
Swing Time
Bombastic Plastic
We Got the Fire
Strange Things
Two Wrongs (Don't Make It Love)

MP3

FSonic

или / or

FServe

APE

FSonic 1 FSonic 2

или / or

FServe 1 FServe 2

Инфа для восстановления и сканы в комплекте. Части взаимозаменяемы.
Information for recovery & covers included. All parts are interchangeable


Exact Audio Copy V0.99 prebeta 5 from 4. May 2009

EAC extraction logfile from 5. December 2010, 1:39

Black 'n Blue / Without Love

Used drive : PLEXTOR DVDR PX-860A Adapter: 0 ID: 0

Read mode : Secure
Utilize accurate stream : Yes
Defeat audio cache : Yes
Make use of C2 pointers : No

Read offset correction : 96
Overread into Lead-In and Lead-Out : No
Fill up missing offset samples with silence : Yes
Delete leading and trailing silent blocks : No
Null samples used in CRC calculations : Yes
Used interface : Installed external ASPI interface

Used output format : Monkey's Audio Lossless Encoder
Selected bitrate : Normal Lossless Compression
Quality : High
Add ID3 tag : Yes
Command line compressor : C:\Program Files\Monkey's Audio\MAC.exe


TOC of the extracted CD

Track | Start | Length | Start sector | End sector
---------------------------------------------------------
1 | 0:00.00 | 3:31.00 | 0 | 15824
2 | 3:31.00 | 3:38.00 | 15825 | 32174
3 | 7:09.00 | 4:08.35 | 32175 | 50809
4 | 11:17.35 | 3:50.30 | 50810 | 68089
5 | 15:07.65 | 4:00.25 | 68090 | 86114
6 | 19:08.15 | 3:21.50 | 86115 | 101239
7 | 22:29.65 | 3:38.25 | 101240 | 117614
8 | 26:08.15 | 3:11.00 | 117615 | 131939
9 | 29:19.15 | 3:24.25 | 131940 | 147264
10 | 32:43.40 | 3:54.70 | 147265 | 164884


Range status and errors

Selected range

Filename J:\MUSIC\Black 'n Blue - Without Love.wav

Peak level 99.5 %
Range quality 100.0 %
Copy CRC 1FA0291C
Copy OK

No errors occurred


AccurateRip summary

Track 1 not present in database
Track 2 not present in database
Track 3 not present in database
Track 4 not present in database
Track 5 not present in database
Track 6 not present in database
Track 7 not present in database
Track 8 not present in database
Track 9 not present in database
Track 10 not present in database

None of the tracks are present in the AccurateRip database

End of status report

Прошу обратить внимание на то, что весь материал, представленный выше, предназначен исключительно для ознакомления! Приобретайте, пожалуйста, легальные диски, которые вне всякого сомнения станут достойным украшением вашей коллекции!

ADVERTISING » Very Fast Download!



« ADVERTISING




Posted By: muddboogers Date: 10 Jan 2011 22:43:15
Thanks! The only one I don't have.