Loading...

Testament - Dark Roots Of Thrash (2013)

Posted By : v3122 | Date : 01 Nov 2013 14:45:00 | Comments : 3 |
|


Testament - Dark Roots Of Thrash (2013) front

Testament - Dark Roots Of Thrash (2013)
EAC | Flac(Image) + Cue + Log & iPod M4A(Tracks)
2CD | Nuclear Blust, NB 3101-0 | ~ 752 or 755 Mb | Scans(jpg, 600dpi) -> 78 Mb
DVD9: PAL 16:9 (720x576) VBR | LPCM, 2 ch | ~ 7.40 Gb
Thrash / Speed Metal

Recorded live at the Paramount Theatre in Huntington, New York on February 15, 2013, Dark Roots of Thrash, a riff on the name of the thrash legends' 2011 tenth studio album Dark Roots of Earth, offers up 18 blistering live cuts spread over two discs, including longstanding Testament classics like “Burnt Offerings,” “Apocalyptic City,” “Disciples of the Watch,” and “Into the Pit,” and current fan favorites such as “DNR (Do Not Resuscitate),” “True American Hate,” and “Native Blood.” The Nuclear Blast-issued Dark Roots of Thrash is also available as a triple-disc set, the third being a DVD of the Tommy Jones-directed concert film, which puts the viewer right in the middle of the action with liberal shots from the mosh pit cam.

by James Christopher Monger, AMG

Testament - Dark Roots Of Thrash (2013):

Testament - Dark Roots Of Thrash (2013) cd1

Tracklist CD1:

01. Intro
02. Rise Up
03. More Than Meets The Eye
04. Burnt Offerings
05. Native Blood
06. True American Hate
07. Dark Roots Of Earth
08. Into The Pit
09. Practice What You Preach

EAC Log
Exact Audio Copy V1.0 beta 3 from 29. August 2011

EAC extraction logfile from 18. October 2013, 0:54

Testament / Dark Roots Of Thrash

Used drive : ATAPI iHAP122 9 Adapter: 3 ID: 0

Read mode : Secure
Utilize accurate stream : Yes
Defeat audio cache : Yes
Make use of C2 pointers : No

Read offset correction : 6
Overread into Lead-In and Lead-Out : No
Fill up missing offset samples with silence : Yes
Delete leading and trailing silent blocks : No
Null samples used in CRC calculations : Yes
Used interface : Installed external ASPI interface

Used output format : User Defined Encoder
Selected bitrate : 1024 kBit/s
Quality : High
Add ID3 tag : No
Command line compressor : C:\Program Files\FLAC\flac.exe
Additional command line options : -V -8 -T "Date=%year%" -T "Genre=%genre%" -T"COMMENT=Ripped by Ilijan" -8 -V %source%


TOC of the extracted CD

Track | Start | Length | Start sector | End sector
---------------------------------------------------------
1 | 0:00.00 | 2:37.74 | 0 | 11848
2 | 2:37.74 | 4:18.50 | 11849 | 31248
3 | 6:56.49 | 4:25.08 | 31249 | 51131
4 | 11:21.57 | 6:36.24 | 51132 | 80855
5 | 17:58.06 | 5:14.14 | 80856 | 104419
6 | 23:12.20 | 6:22.34 | 104420 | 133103
7 | 29:34.54 | 5:41.06 | 133104 | 158684
8 | 35:15.60 | 3:25.70 | 158685 | 174129
9 | 38:41.55 | 5:23.70 | 174130 | 198424


Range status and errors

Selected range

Filename D:\Ilijan\Testament - Dark Roots Of Thrash.wav

Peak level 98.8 %
Extraction speed 5.4 X
Range quality 100.0 %
Test CRC C858DEAB
Copy CRC C858DEAB
Copy OK

No errors occurred


AccurateRip summary

Track 1 not present in database
Track 2 not present in database
Track 3 not present in database
Track 4 not present in database
Track 5 not present in database
Track 6 not present in database
Track 7 not present in database
Track 8 not present in database
Track 9 not present in database

None of the tracks are present in the AccurateRip database

End of status report

DR Log
foobar2000 1.2.9 / Dynamic Range Meter 1.1.1
log date: 2013-11-01 08:30:56

--------------------------------------------------------------------------------
Analyzed: Testament / Dark Roots Of Thrash
--------------------------------------------------------------------------------

DR Peak RMS Duration Track
--------------------------------------------------------------------------------
DR12 -2.02 dB -17.80 dB 2:38 01-Intro
DR8 -0.10 dB -9.37 dB 4:19 02-Rise Up
DR8 -0.10 dB -9.10 dB 4:25 03-More Than Meets The Eye
DR9 -0.10 dB -10.16 dB 6:36 04-Burnt Offerings
DR9 -0.10 dB -9.58 dB 5:14 05-Native Blood
DR9 -0.10 dB -10.46 dB 6:22 06-True American Hate
DR9 -0.10 dB -10.14 dB 5:41 07-Dark Roots Of Earth
DR10 -0.10 dB -10.84 dB 3:26 08-Into The Pit
DR10 -0.10 dB -10.54 dB 5:24 09-Practice What You Preach
--------------------------------------------------------------------------------

Number of tracks: 9
Official DR value: DR9

Samplerate: 44100 Hz
Channels: 2
Bits per sample: 16
Bitrate: 1028 kbps
Codec: FLAC

Testament - Dark Roots Of Thrash (2013) cd2

Tracklist CD2:

01. Riding The Snake
02. Eyes Of Wrath
03. Trial By Fire
04. The Haunting
05. New Order
06. DNR
07. Three Days In Darkness
08. Formation Of Damnation
09. Over The Wall
10. Disciples Of The Watch

EAC Log
Exact Audio Copy V1.0 beta 3 from 29. August 2011

EAC extraction logfile from 18. October 2013, 1:17

Testament / Dark Roots Of Thrash

Used drive : ATAPI iHAP122 9 Adapter: 3 ID: 0

Read mode : Secure
Utilize accurate stream : Yes
Defeat audio cache : Yes
Make use of C2 pointers : No

Read offset correction : 6
Overread into Lead-In and Lead-Out : No
Fill up missing offset samples with silence : Yes
Delete leading and trailing silent blocks : No
Null samples used in CRC calculations : Yes
Used interface : Installed external ASPI interface

Used output format : User Defined Encoder
Selected bitrate : 1024 kBit/s
Quality : High
Add ID3 tag : No
Command line compressor : C:\Program Files\FLAC\flac.exe
Additional command line options : -V -8 -T "Date=%year%" -T "Genre=%genre%" -T"COMMENT=Ripped by Ilijan" -8 -V %source%


TOC of the extracted CD

Track | Start | Length | Start sector | End sector
---------------------------------------------------------
1 | 0:00.00 | 4:27.74 | 0 | 20098
2 | 4:27.74 | 5:49.15 | 20099 | 46288
3 | 10:17.14 | 4:40.55 | 46289 | 67343
4 | 14:57.69 | 4:45.72 | 67344 | 88790
5 | 19:43.66 | 5:04.31 | 88791 | 111621
6 | 24:48.22 | 4:23.14 | 111622 | 131360
7 | 29:11.36 | 7:13.67 | 131361 | 163902
8 | 36:25.28 | 6:47.28 | 163903 | 194455
9 | 43:12.56 | 4:47.67 | 194456 | 216047
10 | 48:00.48 | 7:29.37 | 216048 | 249759


Range status and errors

Selected range

Filename D:\Ilijan\Testament - Dark Roots Of Thrash.wav

Peak level 98.8 %
Extraction speed 5.7 X
Range quality 100.0 %
Test CRC EEEE7802
Copy CRC EEEE7802
Copy OK

No errors occurred


AccurateRip summary

Track 1 not present in database
Track 2 not present in database
Track 3 not present in database
Track 4 not present in database
Track 5 not present in database
Track 6 not present in database
Track 7 not present in database
Track 8 not present in database
Track 9 not present in database
Track 10 not present in database

None of the tracks are present in the AccurateRip database

End of status report

DR Log
foobar2000 1.2.9 / Dynamic Range Meter 1.1.1
log date: 2013-11-01 08:31:14

--------------------------------------------------------------------------------
Analyzed: Testament / Dark Roots Of Thrash
--------------------------------------------------------------------------------

DR Peak RMS Duration Track
--------------------------------------------------------------------------------
DR10 -0.10 dB -10.85 dB 4:28 01-Riding The Snake
DR9 -0.10 dB -11.05 dB 5:49 02-Eyes Of Wrath
DR9 -0.10 dB -10.79 dB 4:41 03-Trial By Fire
DR10 -0.10 dB -10.72 dB 4:46 04-The Haunting
DR9 -0.10 dB -10.64 dB 5:04 05-The New Order
DR9 -0.10 dB -10.53 dB 4:23 06-D.N.R. (Do Not Resuscitate)
DR9 -0.10 dB -11.03 dB 7:14 07-Three Days In Darkness
DR9 -0.10 dB -10.30 dB 6:47 08-The Formation Of Damnation
DR9 -0.10 dB -10.19 dB 4:48 09-Over The Wall
DR9 -0.10 dB -11.00 dB 7:29 10-Disciples Of The Watch
--------------------------------------------------------------------------------

Number of tracks: 10
Official DR value: DR9

Samplerate: 44100 Hz
Channels: 2
Bits per sample: 16
Bitrate: 1023 kbps
Codec: FLAC

Testament - Dark Roots Of Thrash (2013) dvd

Tracklist DVD:

01. Intro
02. Rise Up
03. More Than Meets The Eye
04. Burnt Offerings
05. Native Blood
06. True American Hate
07. Dark Roots Of Earth
08. Into The Pit
09. Practice What You Preach
10. Riding The Snake
11. Eyes Of Wrath
12. Trial By Fire
13. The Haunting
14. The New Order
15. Do Not Resuscitate
16. Three Days In Darkness
17. The Formation Of Damnation
18. Over The Wall
19. Disciples Of The Watch
20. Credits

DVDinfo
Title: 2013 - Dark Roots Of Thrash - DVD
Size: 7.01 Gb ( 7 355 760,00 KBytes ) - DVD-9
Enabled regions: 1, 2, 3, 4, 5, 6, 7, 8

VTS_01 :
Play Length: 00:00:10+00:00:43
Video: PAL 16:9 (720x576) VBR, Auto Letterboxed
Audio:
Not specified (LinearPCM, 2 ch)

VTS_02 :
Play Length: 01:42:52
Video: PAL 16:9 (720x576) VBR, Auto Letterboxed
Audio:
Not specified (LinearPCM, 2 ch)

VTS_03 :
Play Length: 00:11:12
Video: PAL 16:9 (720x576) VBR, Auto Letterboxed
Audio:
Not specified (LinearPCM, 2 ch)

VTS_04 :
Play Length: 00:05:58
Video: PAL 16:9 (720x576) VBR, Auto Letterboxed
Audio:
Not specified (LinearPCM, 2 ch)


Testament - Dark Roots Of Thrash (2013) 1

Testament - Dark Roots Of Thrash (2013) 2

Testament - Dark Roots Of Thrash (2013) 3

Testament - Dark Roots Of Thrash (2013) 4

Testament - Dark Roots Of Thrash (2013) 5

Testament - Dark Roots Of Thrash (2013) 6

Testament - Dark Roots Of Thrash (2013) 7

Testament

Musicians:

Greg Christian - Bass
Alex Skolnick - Guitars
Eric Peterson - Guitars
Chuck Billy - Vocals
Gene Hoglan - Drums

Testament - Dark Roots Of Thrash (2013) back

All thanks go to Ilijan

Download Testament - Dark Roots Of Thrash (2013):

ADVERTISING » Very Fast Download!



« ADVERTISING




Posted By: Mahone Date: 02 Nov 2013 08:55:32
Fantastic share v3122!!! Many thanks to you and Ilijan!
Posted By: Jagged Date: 02 Nov 2013 12:00:21
Many thanks...
Posted By: scythe Date: 02 Nov 2013 16:31:49
Thanx for sharing!!!!