Loading...

Megadeth - Peace Sells... But Who's Buying? (1986) [1st Press + Remastered] [RE-UP][PROPER]

Posted By : Necromandus | Date : 02 Dec 2010 13:34:00 | Comments : 9 |
|



Megadeth - Peace Sells... But Who's Buying? (1986)
EAC Rip | FLAC, IMG+CUE+LOG | 260 MB | Complete Scans | 8 MB
Label: Combat/Capitol | Catalog Number: CDP 7 46370 2 | RAR 3% Rec. | HotFile & FileServe
... Non Remastered 1st Press CD ...
---
Megadeth - Peace Sells... But Who's Buying? (1986)
EAC Rip | FLAC, IMG+CUE+LOG | 440 MB | Complete Scans | 25 MB
Label: EMI/Capitol | Catalog Number: 72435-79877-2-1 | RAR 3% Rec. | HotFile & FileServe
... 2004, Reximed and Remastered by Dave Mustaine with bonus tracks ...

Arguably Megadeth's strongest effort and a classic of early thrash, Peace Sells combines a punkish political awareness with a dark, threatening, typically heavy metal worldview, preoccupied with evil, the occult, and the like. The anthemic title track and "Wake Up Dead" are the two major standouts, and there is also a cover of Willie Dixon's "I Ain't Superstitious," which takes on an air of supernaturally induced paranoia in the album's context. The lines between hell and earth are blurred throughout the album, and the crashing, complex music backs up Mustaine's apocalyptic vision of life as damnation -- his limited vocal style is used to great effect, growling and snarling in a barely intelligible fashion under all the complicated guitar work. Vital, necessary thrash.

~ by Steve Huey, allmusic.com

Original Release Date: November 1986
Label: Combat/Capitol
Catalog No.: CDP 7 46370 2

Tracklist:

1. Wake Up Dead - 3:41
2. The Conjuring - 5:04
3. Peace Sells - 4:04
4. Devils Island - 5:06
5. Good Mourning / Black Friday - 6:42
6. Bad Omen - 4:05
7. I Ain't Superstitious - 2:46
8. My Last Words - 4:47

EAC extraction logfile
Exact Audio Copy V0.99 prebeta 4 from 23. January 2008

EAC extraction logfile from 30. September 2009, 20:24

Megadeth / Peace Sells... But Who's Buying?

Used drive : Optiarc DVD RW AD-7191A Adapter: 1 ID: 0

Read mode : Secure
Utilize accurate stream : Yes
Defeat audio cache : Yes
Make use of C2 pointers : No

Read offset correction : 6
Overread into Lead-In and Lead-Out : No
Fill up missing offset samples with silence : Yes
Delete leading and trailing silent blocks : No
Null samples used in CRC calculations : Yes
Used interface : Installed external ASPI interface

Used output format : Internal WAV Routines
Sample format : 44.100 Hz; 16 Bit; Stereo


TOC of the extracted CD

Track | Start | Length | Start sector | End sector
---------------------------------------------------------
1 | 0:00.33 | 3:40.72 | 33 | 16604
2 | 3:41.30 | 5:04.20 | 16605 | 39424
3 | 8:45.50 | 4:04.08 | 39425 | 57732
4 | 12:49.58 | 5:05.45 | 57733 | 80652
5 | 17:55.28 | 6:41.50 | 80653 | 110777
6 | 24:37.03 | 4:05.25 | 110778 | 129177
7 | 28:42.28 | 2:46.17 | 129178 | 141644
8 | 31:28.45 | 4:47.35 | 141645 | 163204


Range status and errors

Selected range

Filename G:\-= lossless work =-\Megadeth - Peace Sells... But Who's Buying.wav

Peak level 100.0 %
Range quality 100.0 %
Copy CRC CD640CAE
Copy OK

No errors occurred


AccurateRip summary

Track 1 accurately ripped (confidence 37) [5EC44975]
Track 2 accurately ripped (confidence 37) [DE5C8F97]
Track 3 accurately ripped (confidence 38) [F5D5B510]
Track 4 accurately ripped (confidence 36) [53857AE2]
Track 5 accurately ripped (confidence 35) [7955E0C0]
Track 6 accurately ripped (confidence 35) [3E887939]
Track 7 accurately ripped (confidence 37) [44D72CCA]
Track 8 accurately ripped (confidence 37) [CD269543]

All tracks accurately ripped

End of status report

Re-Release Date: July 2004
Label: EMI/Capitol
Catalog No.: 72435-79877-2-1

Tracklist:

1. Wake Up Dead - 3:37
2. The Conjuring - 5:02
3. Peace Sells - 4:02
4. Devils Island - 5:05
5. Good Mourning / Black Friday - 6:40
6. Bad Omen - 4:03
7. I Ain't Superstitious - 2:45
8. My Last Words - 4:55
9. Wake Up Dead (Randy Burns Mix) - 3:40
10. The Conjuring (Randy Burns Mix) - 5:02
11. Peace Sells (Randy Burns Mix) - 4:00
12. Good Mourning / Black Friday (Randy Burns Mix) - 6:40

EAC extraction logfile
Exact Audio Copy V0.99 prebeta 4 from 23. January 2008

EAC extraction logfile from 15. October 2009, 11:23

Megadeth / Peace Sells... But Who's Buying?

Used drive : SONY DVD RW AW-G170A Adapter: 0 ID: 0

Read mode : Secure
Utilize accurate stream : Yes
Defeat audio cache : Yes
Make use of C2 pointers : No

Read offset correction : 48
Overread into Lead-In and Lead-Out : No
Fill up missing offset samples with silence : Yes
Delete leading and trailing silent blocks : No
Null samples used in CRC calculations : Yes
Used interface : Installed external ASPI interface

Used output format : Internal WAV Routines
Sample format : 44.100 Hz; 16 Bit; Stereo


TOC of the extracted CD

Track | Start | Length | Start sector | End sector
---------------------------------------------------------
1 | 0:00.00 | 3:37.25 | 0 | 16299
2 | 3:37.25 | 5:02.25 | 16300 | 38974
3 | 8:39.50 | 4:02.32 | 38975 | 57156
4 | 12:42.07 | 5:05.15 | 57157 | 80046
5 | 17:47.22 | 6:39.58 | 80047 | 110029
6 | 24:27.05 | 4:03.32 | 110030 | 128286
7 | 28:30.37 | 2:45.20 | 128287 | 140681
8 | 31:15.57 | 4:55.25 | 140682 | 162831
9 | 36:11.07 | 3:40.13 | 162832 | 179344
10 | 39:51.20 | 5:01.72 | 179345 | 201991
11 | 44:53.17 | 4:00.33 | 201992 | 220024
12 | 48:53.50 | 6:39.40 | 220025 | 249989


Range status and errors

Selected range

Filename D:\Music\Megadeth - Peace Sells... But Who's Buying.wav

Peak level 100.0 %
Range quality 100.0 %
Copy CRC 9C912A26
Copy OK

No errors occurred


AccurateRip summary

Track 1 accurately ripped (confidence 25) [8FB6C305]
Track 2 accurately ripped (confidence 25) [5FEB1532]
Track 3 accurately ripped (confidence 27) [829411C2]
Track 4 accurately ripped (confidence 26) [E99CD6FB]
Track 5 accurately ripped (confidence 27) [40203337]
Track 6 accurately ripped (confidence 27) [AC3753BE]
Track 7 accurately ripped (confidence 27) [C205B9ED]
Track 8 accurately ripped (confidence 27) [D88521F7]
Track 9 accurately ripped (confidence 24) [AA737508]
Track 10 accurately ripped (confidence 24) [951DF4A4]
Track 11 accurately ripped (confidence 24) [A20B3CD4]
Track 12 accurately ripped (confidence 24) [DFEAF7B0]

All tracks accurately ripped

End of status report

• Dave Mustaine - vocals, lead & rhythm guitars
• Chris Poland - lead & rhythm guitars
• David Ellefson - bass guitar & background vocals
• Gar Samuelson - drums & percussion

Produced by Dave Mustaine and Randy Burns.
Engineered by Casey McMackin and Randy Burns.
Recorded at The Music Grinder, L.A., CA., mixed at Can-Am Recorders, Tarzana, CA.
Additional recording at Track Records, Rock Steady Studios, L.A., CA and
at Maddog Studios, Venice, CA, February 15, 1986 - March 20, 1986.

Re-Release credits:
Remixed and remastered by Dave Mustaine and Ralph Patlan.
Produced by Dave Mustaine. Engineered by Ralph Patlan

lossless* (flac) + covers via HotFile.com:
ORIGINAL CD - Lossless part1.rar
ORIGINAL CD - Lossless part2.rar
ORIGINAL CD - Lossless part3.rar
---
REMASTERED CD - Lossless part1.rar
REMASTERED CD - Lossless part2.rar
REMASTERED CD - Lossless part3.rar
REMASTERED CD - Lossless part4.rar
REMASTERED CD - Lossless part5.rar

lossless* (flac) + covers via FileServe.com:
ORIGINAL CD - Lossless part1.rar
ORIGINAL CD - Lossless part2.rar
ORIGINAL CD - Lossless part3.rar
---
REMASTERED CD - Lossless part1.rar
REMASTERED CD - Lossless part2.rar
REMASTERED CD - Lossless part3.rar
REMASTERED CD - Lossless part4.rar
REMASTERED CD - Lossless part5.rar

PASSWORD: www.AvaxHome.ru
Please, do not write these links at any web pages. Enjoy & keep the files alive!

* - EAC Image, standard LOG, embedded cuesheet, Foobar2000 ready
Fully repackaged, Huge thanks to my friend Sanych aka liveevil!
In case you encounter some dead links, please leave the comment here or send me a private message!


---------

ADVERTISING » Very Fast Download!



« ADVERTISING




Posted By: MetalManiac666 Date: 20 Dec 2008 17:12:17
Thank You!
Posted By: pallej Date: 20 Dec 2008 22:24:52
Thank you!!
Posted By: Contrabasse Date: 25 Dec 2008 22:30:05
Thank you!
Posted By: Yakko Date: 26 Dec 2008 19:29:00
You're great! Many thanks! Satan Claus thanks too!
Posted By: JCSC7510 Date: 04 Mar 2009 12:02:56
Necro:

Thanks for posting this quality prod;
However...
Are you aware that RAPIDSHARE is imposing download limits to their Premium users?
Around 2 Gigs a day! ...
Considering the size of great stuff that you all (uploaders) are more and more producing and uploading this means that for a 7/8 Gigs post a Premium user at Rapidshare needs 3/4 days to fully download it. What do you think about ?
I am already Premium user from MEGAUPLOAD - DEPOSITFILES - FILEFACTORY - EASYSHARE.
With these guys I am delighted; you know why?
NO DOWNLOAD LIMITS AT ALL !!!
Posted By: polarismlz Date: 09 Aug 2009 02:36:51
Thank You For Remastered 2004 [EMI/Capitol, 72435-79877-2-1]
APE+CUE+LOG | 425Mb | Complete Scans (300dpi)

fixed : cue Megadeth - Peace Sells...But Who's Buying (Remixed & Remastered)

REM GENRE Metal
REM DATE 2004
REM DISCID CA11560D
REM COMMENT "ExactAudioCopy v0.99pb3"
PERFORMER "Megadeth"
TITLE "Peace Sells...But Who's Buying? (Remastered)"
FILE "Megadeth - Peace Sells...But Who's Buying (Remixed & Remastered).ape" WAVE
TRACK 01 AUDIO
TITLE "Wake Up Dead"
PERFORMER "Megadeth"
INDEX 01 00:00:00
TRACK 02 AUDIO
TITLE "The Conjuring"
PERFORMER "Megadeth"
INDEX 01 03:37:25
TRACK 03 AUDIO
TITLE "Peace Sells"
PERFORMER "Megadeth"
INDEX 01 08:39:50
TRACK 04 AUDIO
TITLE "Devils Island"
PERFORMER "Megadeth"
INDEX 01 12:42:07
TRACK 05 AUDIO
TITLE "Good Mourning/Black Friday"
PERFORMER "Megadeth"
INDEX 01 17:47:22
TRACK 06 AUDIO
TITLE "Bad Omen"
PERFORMER "Megadeth"
INDEX 01 24:27:05
TRACK 07 AUDIO
TITLE "I Ain't Superstitious"
PERFORMER "Megadeth"
INDEX 01 28:30:37
TRACK 08 AUDIO
TITLE "My Last Words"
PERFORMER "Megadeth"
INDEX 01 31:15:57
TRACK 09 AUDIO
TITLE "Wake Up Dead (Randy Burns Mix)"
PERFORMER "Megadeth"
INDEX 01 36:11:07
TRACK 10 AUDIO
TITLE "The Conjuring (Randy Burns Mix)"
PERFORMER "Megadeth"
INDEX 01 39:51:20
TRACK 11 AUDIO
TITLE "Peace Sells (Randy Burns Mmix)"
PERFORMER "Megadeth"
INDEX 01 44:53:17
TRACK 12 AUDIO
TITLE "Good Mourning/Black Friday (Randy Burns Mix)"
PERFORMER "Megadeth"
INDEX 01 48:53:50
Posted By: Morcego Vermelho Date: 04 Sep 2009 12:41:19
I love CD 1st pressings! Thank you so much for it!!!
Posted By: TheMechanix Date: 02 Feb 2011 03:36:50
This is the bomb. Bought their earlies many times and finally, FLAC. I like all the extras, sounds great remastered too. Thanks a megaton!
Posted By: marshallmars Date: 13 Apr 2011 19:34:05
This needs a re-up!!!

A metal classic!