Loading...

The Moody Blues - The Present (1983)

Posted By : L@ter | Date : 31 Jul 2010 12:03:55 | Comments : 10 |
|



The Moody Blues - The Present (1983)
EAC Rip | FLAC, IMG+CUE, LOG | 264 MB | 42,02 min | Scans
Label: Decca Records | Rock | Recorded: March - December 1982 | RAR 3% Rec.

The Present is a 1983 album by The Moody Blues. It is the second album of the Patrick Moraz era. It had three minor hit singles, "Blue World" (#62) , "Sitting at the Wheel" (#27) and "Running Water". The album itself features strong compositions, but with a track order designed to capitalise on the legacy of the more successful Long Distance Voyager, with Justin Hayward's songs at the beginning and Ray Thomas' as finales. The Present also became, in 1983, the first compact disc manufactured worldwide. In November 2008, the album was remastered and released on CD with two extra tracks. The cover is a pastiche of Maxfield Parrish's famous painting Daybreak, with some subtle details: The crossed arms of the standing child is said to symbolise the roman numeral X, this being the Moody Blues' tenth album (with Lodge and Hayward).  Wikipedia

Personnel

- Justin Hayward - vocals, guitar
- John Lodge - vocals, bass guitar
- Ray Thomas - vocals, harmonica, flute
- Graeme Edge - drums
- Patrick Moraz - keyboards
- Pip Williams - sequencing


Tracklist

01. Blue World
02. Meet Me Halfway
03. Sitting at the Wheel
04. Going Nowhere
05. Hole in the World
06. Under My Feet
07. It's Cold Outside of Your Heart
08. Running Water
09. I Am
10. Sorry

Eac Log

Exact Audio Copy V0.99 prebeta 5 from 4. May 2009

EAC extraction logfile from 31. July 2010, 12:45

The Moody Blues / The Present

Used drive : HL-DT-STDVD-RAM GH22NP20 Adapter: 0 ID: 0

Read mode : Secure
Utilize accurate stream : Yes
Defeat audio cache : Yes
Make use of C2 pointers : No

Read offset correction : 102
Overread into Lead-In and Lead-Out : No
Fill up missing offset samples with silence : Yes
Delete leading and trailing silent blocks : No
Null samples used in CRC calculations : Yes
Used interface : Native Win32 interface for Win NT & 2000

Used output format : User Defined Encoder
Selected bitrate : 768 kBit/s
Quality : High
Add ID3 tag : No
Command line compressor : C:\Program Files\Exact Audio Copy\FLAC\FLAC.EXE
Additional command line options : -6 -V -T "ARTIST=%a" -T "TITLE=%t" -T "ALBUM=%g" -T "DATE=%y" -T "TRACKNUMBER=%n" -T "GENRE=%m" -T "COMMENT=%e" %s -o %d


TOC of the extracted CD

Track | Start | Length | Start sector | End sector
---------------------------------------------------------
1 | 0:00.00 | 5:20.11 | 0 | 24010
2 | 5:20.11 | 4:08.08 | 24011 | 42618
3 | 9:28.19 | 5:40.28 | 42619 | 68146
4 | 15:08.47 | 5:33.23 | 68147 | 93144
5 | 20:41.70 | 1:54.35 | 93145 | 101729
6 | 22:36.30 | 4:51.54 | 101730 | 123608
7 | 27:28.09 | 4:27.42 | 123609 | 143675
8 | 31:55.51 | 3:22.71 | 143676 | 158896
9 | 35:18.47 | 1:40.65 | 158897 | 166461
10 | 36:59.37 | 5:02.62 | 166462 | 189173


Range status and errors

Selected range

Filename C:\The Moody Blues - The Present.wav

Peak level 98.9 %
Range quality 100.0 %
Copy CRC 789DAFDA
Copy OK

No errors occurred


AccurateRip summary

Track 1 not present in database
Track 2 not present in database
Track 3 not present in database
Track 4 not present in database
Track 5 not present in database
Track 6 not present in database
Track 7 not present in database
Track 8 not present in database
Track 9 not present in database
Track 10 not present in database

None of the tracks are present in the AccurateRip database

End of status report

Cue Sheet

REM GENRE Rock
REM DATE 1983
REM DISCID 6409DA0A
REM COMMENT "ExactAudioCopy v0.99pb5"
PERFORMER "The Moody Blues"
TITLE "The Present"
FILE "The Moody Blues - The Present.flac" WAVE
TRACK 01 AUDIO
TITLE "Blue World"
PERFORMER "The Moody Blues"
INDEX 01 00:00:00
TRACK 02 AUDIO
TITLE "Meet Me Halfway"
PERFORMER "The Moody Blues"
INDEX 01 05:20:11
TRACK 03 AUDIO
TITLE "Sitting At The Wheel"
PERFORMER "The Moody Blues"
INDEX 01 09:28:19
TRACK 04 AUDIO
TITLE "Going Nowhere"
PERFORMER "The Moody Blues"
INDEX 01 15:08:47
TRACK 05 AUDIO
TITLE "Hole In The World"
PERFORMER "The Moody Blues"
INDEX 01 20:41:70
TRACK 06 AUDIO
TITLE "Under My Feet"
PERFORMER "The Moody Blues"
INDEX 01 22:36:30
TRACK 07 AUDIO
TITLE "It's Cold Outside Of Your Heart"
PERFORMER "The Moody Blues"
INDEX 01 27:28:09
TRACK 08 AUDIO
TITLE "Running Water"
PERFORMER "The Moody Blues"
INDEX 01 31:55:51
TRACK 09 AUDIO
TITLE "I Am"
PERFORMER "The Moody Blues"
INDEX 01 35:18:47
TRACK 10 AUDIO
TITLE "Sorry"
PERFORMER "The Moody Blues"
INDEX 01 36:59:37



ADVERTISING » Very Fast Download!



« ADVERTISING




Posted By: Rosemy Date: 31 Jul 2010 12:20:44
Un tout grand bonjour et aussi Merci pour ce présent.
Un présent du passé que l'on va conjuguer à nouveau au présent... pour quelques minutes de douce nostalgie. :)
Amitiés, cher L@ter et encore beaucoup de ces présents. :) :) :)
Posted By: Miltiades Date: 31 Jul 2010 13:13:15
Thank You!
Posted By: ueberall123 Date: 31 Jul 2010 13:36:43
vielen dank für den up.
Posted By: grissyboy Date: 31 Jul 2010 16:28:01
thanks from canada and no irritating password -- nice
Posted By: rockman2020 Date: 01 Aug 2010 05:12:31
Thank You!
Pozdrav zo Slovenska.
Posted By: Kazira Date: 01 Aug 2010 22:04:59
Great share. Thank you.
Posted By: perstol Date: 04 Aug 2010 18:08:38
Many thanks!
Posted By: EDTOPIA Date: 30 Mar 2011 00:48:40
Please
Can you reupload this album?

Thank you.
Posted By: L@ter Date: 30 Mar 2011 15:31:36
Reup 30 march 2011 ;))
Posted By: EDTOPIA Date: 20 Jun 2011 21:15:25
Thank you very much L@ter!