Loading...

David Garrett - Music: Live In Concert (2012)

Posted By : nakil | Date : 27 Sep 2013 18:58:00 | Comments : 2 |
|



David Garrett - Music: Live In Concert (2012)
Bluray-rip 720p | German | MKV | x264 @ 5520kbps | 1280×720 | 23.976 fps | DTS @ 755kbps, 6 channels | 125min. | 5.46 GB
Genre: Classical - Violin | Label: Universal

A former child prodigy of the classical world who signed to Deutsche Grammophon when he was only 13, David Garrett now provokes Garrett-mania among hordes of international fans with his spectacular fusions of rock and pop with symphonic or baroque traditions. To him, it's all Music and all equally valid. The album brilliantly combines different musical styles and eras. He not only presents pieces that stir the soul but also sets new standards in the versatility of his violin playing. With arrangements from Beethoven to Michael Jackson, the talented violinist fascinates the listener with different elements from the world of classical music and pop.

Tracklist:

01. We Will Rock You
02. Sabre Dance
03. Whole Lotta Bond
04. Human Nature
05. Beethoven-Scherzo
06. Live & Let Die
07. Tico Tico
08. Yesterday
09. Funiculi Funicula
10. Welcome To The Jungle
11. Thank You For Loving Me
12. He's A Pirate
13. Palladio
14. Sandstorm
15. Viva La Vida
16. Clementi-Sonatina
17. Kashmir
18. Celtic Rondo
19. Cry Me A River
20. Misirlou
21. Leningrad
22. Variations On A Theme Of Corelli
23. Desperado
24. Stop Crying Your Heart Out
25. Highway To Hell
26. Smells Like Teen Spirit
27. Music
28. Let It Be

Mediainfo log
General
UniqueID : 189223848879527745276283691609541342924 (0x8E5B300B76D14CBEB05691526AE876CC)
Complete name : F:\fkkhd-dgmlic-720.mkv
Format : Matroska
File size : 5.46 GiB
Duration : 2h 5mn
Overall bit rate : 6 211 Kbps
Encoded date : UTC 2012-10-28 08:34:09
Writing application : mkvmerge v4.0.0 ('The Stars were mine') built on Jun 6 2010 16:18:42
Writing library : libebml v1.0.0 + libmatroska v1.0.0

Video
ID : 1
Format : AVC
Format/Info : Advanced Video Codec
Format profile : High@L4.1
Format settings, CABAC : Yes
Format settings, ReFrames : 5 frames
Codec ID : V_MPEG4/ISO/AVC
Duration : 2h 5mn
Bit rate : 5 520 Kbps
Width : 1 280 pixels
Height : 720 pixels
Display aspect ratio : 16:9
Frame rate : 23.976 fps
Color space : YUV
Chroma subsampling : 4:2:0
Bit depth : 8 bits
Scan type : Progressive
Bits/(Pixel*Frame) : 0.250
Stream size : 4.69 GiB (86%)
Writing library : x264 core 128 r2216 198a7ea
Encoding settings : cabac=1 / ref=5 / deblock=1:0:0 / analyse=0x3:0x133 / me=umh / subme=7 / psy=1 / psy_rd=1.00:0.00 / mixed_ref=1 / me_range=16 / chroma_me=1 / trellis=1 / 8x8dct=1 / cqm=0 / deadzone=21,11 / fast_pskip=0 / chroma_qp_offset=-2 / threads=24 / lookahead_threads=4 / sliced_threads=0 / nr=0 / decimate=1 / interlaced=0 / bluray_compat=0 / constrained_intra=0 / bframes=3 / b_pyramid=2 / b_adapt=1 / b_bias=0 / direct=1 / weightb=1 / open_gop=0 / weightp=2 / keyint=250 / keyint_min=23 / scenecut=40 / intra_refresh=0 / rc=2pass / mbtree=0 / bitrate=5520 / ratetol=1.0 / qcomp=0.60 / qpmin=0 / qpmax=69 / qpstep=4 / cplxblur=20.0 / qblur=0.5 / ip_ratio=1.40 / pb_ratio=1.30 / aq=1:1.00
Language : English

Audio
ID : 2
Format : DTS
Format/Info : Digital Theater Systems
Codec ID : A_DTS
Duration : 2h 5mn
Bit rate mode : Constant
Bit rate : 755 Kbps
Channel(s) : 6 channels
Channel positions : Front: L C R, Side: L R, LFE
Sampling rate : 48.0 KHz
Bit depth : 24 bits
Compression mode : Lossy
Stream size : 679 MiB (12%)
Title : German
Language : German

Menu
00:00:00.000 : en:00:00:00.000
00:04:10.250 : en:00:04:10.250
00:07:59.979 : en:00:07:59.979
00:11:38.965 : en:00:11:38.965
00:16:50.009 : en:00:16:50.009
00:20:57.456 : en:00:20:57.456
00:24:36.141 : en:00:24:36.141
00:28:08.921 : en:00:28:08.921
00:32:12.531 : en:00:32:12.531
00:36:52.010 : en:00:36:52.010
00:39:46.684 : en:00:39:46.684
00:44:11.482 : en:00:44:11.482
00:47:15.633 : en:00:47:15.633
00:51:03.961 : en:00:51:03.961
00:54:18.989 : en:00:54:18.989
00:59:52.122 : en:00:59:52.122
01:04:43.246 : en:01:04:43.246
01:09:27.697 : en:01:09:27.697
01:14:00.036 : en:01:14:00.036
01:18:55.564 : en:01:18:55.564
01:23:10.285 : en:01:23:10.285
01:28:41.683 : en:01:28:41.683
01:32:51.332 : en:01:32:51.332
01:37:53.735 : en:01:37:53.735
01:43:38.813 : en:01:43:38.813
01:48:25.766 : en:01:48:25.766
01:52:30.844 : en:01:52:30.844
01:58:21.361 : en:01:58:21.361






Many thanks to the original uploader







ADVERTISING » Very Fast Download!



« ADVERTISING




Posted By: normanl Date: 28 Sep 2013 00:15:15
Thanks a lot for sharing these wonderful and special music.
Posted By: odd189 Date: 28 Sep 2013 01:22:09
great post !