Loading...

John Cafferty And The Beaver Brown Band - Eddie And The Cruisers (Original Motion Picture Soundtrack) (1983)

Posted By : muddboogers | Date : 08 Dec 2011 03:45:12 | Comments : 4 |
|



John Cafferty And The Beaver Brown Band - Eddie And The Cruisers (Original Motion Picture Soundtrack) (1983)
EAC | FLAC IMG+CUE+LOG | Scans | RAR 3% Recovery | 266 MB
Rock & Roll | 1983 Volcano Entertainment III, LLC #32001-2

There was a year's delay before this film, which concerns the mysterious death of a fictional '60s rock star, took off via video and cable TV, but when it did, the soundtrack album, featuring such songs as "On the Dark Side" and "Tender Years" by John Cafferty & the Beaver Brown Band, took off with it. To most, the songs sounded like Bruce Springsteen clones, but the music was appealing nonetheless. ~ William Ruhlmann, allmusic.com

Eddie And The Cruisers (Original Motion Picture Soundtrack) @ Discogs & Samples @ Allmusic

Tracklist:
1. On The Dark Side
2. Tender Years
3. Runaround Sue
4. Down On My Knees
5. Hang up My Rock And Roll Shoes
6. Wild Summer Nights
7. Boardwalk Angel
8. Betty Lou's Got A New Pair Of Shoes
9. Those Oldies But Goodies (Remind Me Of You)
10. Season In Hell (Fire Suite)

EAC-LOG
Exact Audio Copy V1.0 beta 3 from 29. August 2011

EAC extraction logfile from 3. December 2011, 21:51

John Cafferty And The Beaver Brown Band / Eddie And The Cruisers

Used drive : TDK CDRW4800B Adapter: 2 ID: 1

Read mode : Secure
Utilize accurate stream : Yes
Defeat audio cache : Yes
Make use of C2 pointers : No

Read offset correction : 6
Overread into Lead-In and Lead-Out : No
Fill up missing offset samples with silence : Yes
Delete leading and trailing silent blocks : No
Null samples used in CRC calculations : Yes
Used interface : Native Win32 interface for Win NT & 2000

Used output format : Internal WAV Routines
Sample format : 44.100 Hz; 16 Bit; Stereo


TOC of the extracted CD

Track | Start | Length | Start sector | End sector
---------------------------------------------------------
1 | 0:00.00 | 2:42.72 | 0 | 12221
2 | 2:42.72 | 4:45.28 | 12222 | 33624
3 | 7:28.25 | 2:16.65 | 33625 | 43889
4 | 9:45.15 | 5:04.47 | 43890 | 66736
5 | 14:49.62 | 3:42.05 | 66737 | 83391
6 | 18:31.67 | 4:32.25 | 83392 | 103816
7 | 23:04.17 | 1:40.35 | 103817 | 111351
8 | 24:44.52 | 1:47.63 | 111352 | 119439
9 | 26:32.40 | 3:21.57 | 119440 | 134571
10 | 29:54.22 | 2:52.63 | 134572 | 147534


Range status and errors

Selected range

Filename E:\[# AvaxHome #]\John Cafferty And The Beaver Brown Band - Eddie And The Cruisers.wav

Peak level 100.0 %
Extraction speed 5.3 X
Range quality 100.0 %
Test CRC 48B6AFDA
Copy CRC 48B6AFDA
Copy OK

No errors occurred


AccurateRip summary

Track 1 accurately ripped (confidence 9) [C160C66F] (AR v1)
Track 2 accurately ripped (confidence 8) [6FFB11AD] (AR v1)
Track 3 accurately ripped (confidence 9) [10738EAC] (AR v1)
Track 4 accurately ripped (confidence 9) [96579D28] (AR v1)
Track 5 accurately ripped (confidence 9) [2D4D9D49] (AR v1)
Track 6 accurately ripped (confidence 8) [75DEE71E] (AR v1)
Track 7 accurately ripped (confidence 9) [271C25AA] (AR v1)
Track 8 accurately ripped (confidence 9) [2959D5E1] (AR v1)
Track 9 accurately ripped (confidence 9) [89C81EC4] (AR v1)
Track 10 accurately ripped (confidence 9) [35B56DD5] (AR v1)

All tracks accurately ripped

End of status report

==== Log checksum 1BE1555B393DD6FDD8989E8A692C6D61C88D902092C3DF64E2C87AE42B7A3078 ====

AccurateRip/CUETools-LOG
[CUETools log; Date: 12/3/2011 9:55:28 PM; Version: 2.1.2a]
[CTDB TOCID: 0Va0dJ.pwn56oQ50cVJo6QvQYPs-] found.
[ CTDBID ] Status
[291096b3] (23/23) Accurately ripped
[AccurateRip ID: 000d1206-0067b2f1-9107af0a] found.
Track [ CRC ] Status
01 [c160c66f] (09/32) Accurately ripped
02 [6ffb11ad] (08/31) Accurately ripped
03 [10738eac] (09/32) Accurately ripped
04 [96579d28] (09/32) Accurately ripped
05 [2d4d9d49] (09/32) Accurately ripped
06 [75dee71e] (08/31) Accurately ripped
07 [271c25aa] (09/32) Accurately ripped
08 [2959d5e1] (09/32) Accurately ripped
09 [89c81ec4] (09/33) Accurately ripped
10 [35b56dd5] (09/33) Accurately ripped
Offsetted by -646:
01 [5788ba69] (04/32) Accurately ripped
02 [b851e93a] (04/31) Accurately ripped
03 [e06fae9f] (04/32) Accurately ripped
04 [a7de7667] (04/32) Accurately ripped
05 [9f30f6ba] (04/32) Accurately ripped
06 [87f47342] (04/31) Accurately ripped
07 [c9cb3ea6] (04/32) Accurately ripped
08 [81aeac40] (04/32) Accurately ripped
09 [a44cebe3] (04/33) Accurately ripped
10 [2f5386ec] (04/33) Accurately ripped
Offsetted by -12:
01 [04228aa1] (12/32) Accurately ripped
02 [6bdd94e6] (12/31) Accurately ripped
03 [8c0d16e1] (12/32) Accurately ripped
04 [b07323d7] (12/32) Accurately ripped
05 [68ff53a7] (12/32) Accurately ripped
06 [b1b02f47] (12/31) Accurately ripped
07 [18a688d7] (12/32) Accurately ripped
08 [27a910f9] (12/32) Accurately ripped
09 [4ebb90ab] (13/33) Accurately ripped
10 [df44efd2] (13/33) Accurately ripped
Offsetted by 664:
01 [f69b5297] (04/32) Accurately ripped
02 [d775e1cf] (04/31) Accurately ripped
03 [89ce896a] (04/32) Accurately ripped
04 [ecb87be3] (04/32) Accurately ripped
05 [684d17c9] (04/32) Accurately ripped
06 [bbac18ff] (04/31) Accurately ripped
07 [f72d0166] (04/32) Accurately ripped
08 [1d0e101d] (04/32) Accurately ripped
09 [58ccbb81] (04/33) Accurately ripped
10 [693e6bd5] (04/33) Accurately ripped

Track Peak [ CRC32 ] [W/O NULL] [ LOG ]
-- 100.0 [48B6AFDA] [5A3863CF] CRC32
01 91.9 [4EC64C3D] [75B2396E]
02 92.2 [4A9E48C2] [92203604]
03 84.0 [98FEBA0C] [BF00D4BC]
04 99.9 [3AA6D9AB] [E07EBCA6]
05 96.2 [3161EA71] [49B4A3A0]
06 100.0 [261863BA] [F8895BC9]
07 85.3 [90BEC153] [255190F5]
08 86.1 [30731E39] [92111A46]
09 95.5 [94ACB333] [B2BBBDD4]
10 96.3 [FB4B94A1] [03F01369]

I bought this brand new a few years back only to discover that some of the tracks were indexed incorrectly. Tracks 4 & 5 are one continuous track and track 10 is split into two tracks. I purchased this again recently to see if the problem had been corrected, but it has not. I have include my usual 2 cue files and also a modified cue file. The modified cue file has been edited and tracks 4 & 5 have been split and the second index point in track 10 has been deleted and is one track. The modified cue file works just fine in foobar2000.

More Eddie And The Cruisers:
Eddie And The Cruisers II: Eddie Lives (Original Motion Picture Soundtrack)

FileServe

FileSonic

Password: www.AvaxHome.ws
ADVERTISING » Very Fast Download!



« ADVERTISING




Posted By: Laserman59 Date: 08 Dec 2011 06:01:11
Thank you MB for this great share. :-)
Posted By: setinhere Date: 09 Dec 2011 00:45:53
error message - corrupt file or wrong password. downloaded three times, same each time.
Posted By: muddboogers Date: 12 Dec 2011 15:52:25
Posted By: setinhere Date: 09 Dec 2011 00:45:53
error message - corrupt file or wrong password. downloaded three times, same each time.

----------------------------------------

I have 123 combined downloads for this (minus your "3") and no one else appears to have a problem. So, I believe you are doing something wrong on your end.
Posted By: davidlbobo Date: 12 Apr 2014 19:33:26
can you re-up?