Loading...

Dean Martin - The Capitol Years (1996)

Posted By : flac jacket | Date : 14 Jan 2013 07:01:46 | Comments : 6 |
|



Dean Martin - The Capitol Years (1996)
EAC Secure Rip | FLAC (Image + Cue + Log) - 551 MB | Complete Scans (Jpeg 600 dpi) - 423 MB | MP3 (CBR320 Kbps) - 280 MB
Vocal, Pop, Standards | Capitol Records | CDP 0777 7 98409 2 2 | 110:06 minutes | 5% WinRar Recovery | Hosted on: Uploaded & FilePost

Spanning two discs and 40 songs, The Capitol Years is the most thorough retrospective of Dean Martin's Capitol recordings. From "Memories Are Made of This" to "Return to Me" and "Volare," all of his major hits for the label are included, as are several album tracks, lesser-known singles, and a handful of rarities. The collection may have a few too many songs for some casual fans, but it's the only album that presents all the important Capitol tracks with care, thought, and first-class sound.


EAC Log CD1
Exact Audio Copy V1.0 beta 2 from 29. April 2011

EAC extraction logfile from 6. January 2013, 21:13

Dean Martin / The Capitol Years (CD1)

Used drive : HL-DT-STDVDRAM GH60N Adapter: 0 ID: 1

Read mode : Secure
Utilize accurate stream : Yes
Defeat audio cache : Yes
Make use of C2 pointers : No

Read offset correction : 667
Overread into Lead-In and Lead-Out : No
Fill up missing offset samples with silence : Yes
Delete leading and trailing silent blocks : No
Null samples used in CRC calculations : Yes
Used interface : Native Win32 interface for Win NT & 2000

Used output format : User Defined Encoder
Selected bitrate : 1024 kBit/s
Quality : High
Add ID3 tag : No
Command line compressor : C:\Program Files (x86)\Exact Audio Copy\Flac\flac.exe
Additional command line options : -V -5 -T "artist=%albumartist%" -T "title=%title%" -T "album=%albumtitle%" -T "date=%year%" -T "genre=%genre%" -T "tracknumber=%tracknr%" %source%


TOC of the extracted CD

Track | Start | Length | Start sector | End sector
---------------------------------------------------------
1 | 0:00.00 | 2:26.22 | 0 | 10971
2 | 2:26.22 | 2:33.48 | 10972 | 22494
3 | 4:59.70 | 2:47.65 | 22495 | 35084
4 | 7:47.60 | 2:33.55 | 35085 | 46614
5 | 10:21.40 | 3:12.62 | 46615 | 61076
6 | 13:34.27 | 2:34.50 | 61077 | 72676
7 | 16:09.02 | 2:52.13 | 72677 | 85589
8 | 19:01.15 | 1:56.37 | 85590 | 94326
9 | 20:57.52 | 2:30.30 | 94327 | 105606
10 | 23:28.07 | 2:23.65 | 105607 | 116396
11 | 25:51.72 | 3:03.00 | 116397 | 130121
12 | 28:54.72 | 2:30.38 | 130122 | 141409
13 | 31:25.35 | 2:01.67 | 141410 | 150551
14 | 33:27.27 | 3:14.70 | 150552 | 165171
15 | 36:42.22 | 3:08.35 | 165172 | 179306
16 | 39:50.57 | 2:20.70 | 179307 | 189876
17 | 42:11.52 | 2:38.23 | 189877 | 201749
18 | 44:50.00 | 2:23.62 | 201750 | 212536
19 | 47:13.62 | 2:34.25 | 212537 | 224111
20 | 49:48.12 | 2:27.63 | 224112 | 235199


Range status and errors

Selected range

Filename C:\EAC\Dean Martin - (1996) The Capitol Years\CD1\Dean Martin - The Capitol Years (CD1).wav

Peak level 99.3 %
Extraction speed 1.8 X
Range quality 100.0 %
Test CRC 1CAE6900
Copy CRC 1CAE6900
Copy OK

No errors occurred


AccurateRip summary

Track 1 accurately ripped (confidence 3) [0F7D17DD] (AR v2)
Track 2 accurately ripped (confidence 3) [C7EFAD3C] (AR v2)
Track 3 accurately ripped (confidence 3) [0920AE12] (AR v2)
Track 4 accurately ripped (confidence 3) [88DD2492] (AR v2)
Track 5 accurately ripped (confidence 3) [DCDAC2ED] (AR v2)
Track 6 accurately ripped (confidence 3) [0CDB4F57] (AR v2)
Track 7 accurately ripped (confidence 3) [12EBE6E6] (AR v2)
Track 8 accurately ripped (confidence 3) [4EC53746] (AR v2)
Track 9 accurately ripped (confidence 3) [BF82FA37] (AR v2)
Track 10 accurately ripped (confidence 3) [937F58B8] (AR v2)
Track 11 accurately ripped (confidence 3) [2F29E370] (AR v2)
Track 12 accurately ripped (confidence 3) [FD96CF97] (AR v2)
Track 13 accurately ripped (confidence 3) [6780F5C5] (AR v2)
Track 14 accurately ripped (confidence 3) [C83B8B59] (AR v2)
Track 15 accurately ripped (confidence 3) [89252FA0] (AR v2)
Track 16 accurately ripped (confidence 3) [46A2B97E] (AR v2)
Track 17 accurately ripped (confidence 3) [EB3C3CE1] (AR v2)
Track 18 accurately ripped (confidence 3) [5EE8665A] (AR v2)
Track 19 accurately ripped (confidence 3) [68AD6B4F] (AR v2)
Track 20 accurately ripped (confidence 3) [816D9DFB] (AR v2)

All tracks accurately ripped

End of status report

==== Log checksum 5B20199478346F48DFE7F592C56F00DDED2A79C84484BC575250C4BF553090EB ====


EAC Log CD2
Exact Audio Copy V1.0 beta 2 from 29. April 2011

EAC extraction logfile from 7. January 2013, 15:06

Dean Martin / The Capitol Years (CD2)

Used drive : HL-DT-STDVDRAM GH60N Adapter: 0 ID: 1

Read mode : Secure
Utilize accurate stream : Yes
Defeat audio cache : Yes
Make use of C2 pointers : No

Read offset correction : 667
Overread into Lead-In and Lead-Out : No
Fill up missing offset samples with silence : Yes
Delete leading and trailing silent blocks : No
Null samples used in CRC calculations : Yes
Used interface : Native Win32 interface for Win NT & 2000

Used output format : User Defined Encoder
Selected bitrate : 1024 kBit/s
Quality : High
Add ID3 tag : No
Command line compressor : C:\Program Files (x86)\Exact Audio Copy\Flac\flac.exe
Additional command line options : -V -5 -T "artist=%albumartist%" -T "title=%title%" -T "album=%albumtitle%" -T "date=%year%" -T "genre=%genre%" -T "tracknumber=%tracknr%" %source%


TOC of the extracted CD

Track | Start | Length | Start sector | End sector
---------------------------------------------------------
1 | 0:00.00 | 2:16.57 | 0 | 10256
2 | 2:16.57 | 2:54.40 | 10257 | 23346
3 | 5:11.22 | 2:25.45 | 23347 | 34266
4 | 7:36.67 | 2:31.00 | 34267 | 45591
5 | 10:07.67 | 2:51.30 | 45592 | 58446
6 | 12:59.22 | 2:19.38 | 58447 | 68909
7 | 15:18.60 | 2:14.37 | 68910 | 78996
8 | 17:33.22 | 2:25.50 | 78997 | 89921
9 | 19:58.72 | 2:46.15 | 89922 | 102386
10 | 22:45.12 | 3:01.18 | 102387 | 115979
11 | 25:46.30 | 2:25.65 | 115980 | 126919
12 | 28:12.20 | 2:45.20 | 126920 | 139314
13 | 30:57.40 | 8:40.37 | 139315 | 178351
14 | 39:38.02 | 1:53.48 | 178352 | 186874
15 | 41:31.50 | 3:02.10 | 186875 | 200534
16 | 44:33.60 | 2:25.60 | 200535 | 211469
17 | 46:59.45 | 2:16.00 | 211470 | 221669
18 | 49:15.45 | 2:51.17 | 221670 | 234511
19 | 52:06.62 | 3:05.58 | 234512 | 248444
20 | 55:12.45 | 2:34.67 | 248445 | 260061


Range status and errors

Selected range

Filename C:\EAC\Dean Martin - (1996) The Capitol Years\CD2\Dean Martin - The Capitol Years (CD2).wav

Peak level 100.0 %
Extraction speed 2.1 X
Range quality 100.0 %
Test CRC 66FB061F
Copy CRC 66FB061F
Copy OK

No errors occurred


AccurateRip summary

Track 1 accurately ripped (confidence 2) [9715A0B4] (AR v2)
Track 2 accurately ripped (confidence 2) [6B836EA6] (AR v2)
Track 3 accurately ripped (confidence 2) [D0D23182] (AR v2)
Track 4 accurately ripped (confidence 2) [5DC90E70] (AR v2)
Track 5 accurately ripped (confidence 2) [461C04F2] (AR v2)
Track 6 accurately ripped (confidence 2) [A474558D] (AR v2)
Track 7 accurately ripped (confidence 2) [497AD97D] (AR v2)
Track 8 accurately ripped (confidence 2) [3A3AF842] (AR v2)
Track 9 accurately ripped (confidence 2) [B25A3D8F] (AR v2)
Track 10 accurately ripped (confidence 2) [327C8463] (AR v2)
Track 11 accurately ripped (confidence 2) [F89EF9C0] (AR v2)
Track 12 accurately ripped (confidence 2) [0E697DD7] (AR v2)
Track 13 accurately ripped (confidence 2) [96C9DAA1] (AR v2)
Track 14 accurately ripped (confidence 2) [EF8F76C7] (AR v2)
Track 15 accurately ripped (confidence 2) [8A305989] (AR v2)
Track 16 accurately ripped (confidence 2) [0AD99379] (AR v2)
Track 17 accurately ripped (confidence 2) [DD9CB020] (AR v2)
Track 18 accurately ripped (confidence 2) [BF6B2930] (AR v2)
Track 19 accurately ripped (confidence 2) [98147A7F] (AR v2)
Track 20 accurately ripped (confidence 2) [E5C55C75] (AR v2)

All tracks accurately ripped

End of status report

==== Log checksum C9723D73C8A54224BB930172D44863E5CACCBF8C9AAA54AE92FCF09B12B54467 ====


Track Listing CD1:

01. Memories Are Made Of This
02. Powder Your Face With Sunshine (Smile! Smile! Smile!)
03. You Was (Duet With Peggy Lee)
04. Dreamy Old New England Moon (With Paul Weston)
05. I'm Gonna Paper All My Walls With Your Love Letters
06. I'll Always Love You (Day After Day)
07. Solitaire
08. Night Train To Memphis
09. Pretty As A Picture
10. Oh Marie
11. You Belong To Me
12. Susan
13. The Peanut Vendor
14. I'm Yours
15. That's Amore
16. I'd Cry Like A Baby
17. Hey Brother, Pour The WIne
18. Every Street's A Boulevard (In Old New York) (Duet With Jerry Lewis)
19. I'll Gladly Make The Same Mistake Again
20. Open Up The Doghouse (Two Cats Are Coming In) (Duet With Nat King Cole)

Track Listing CD2:

01. Carolina In The Morning
02. In Napoli
03. Innamorata (Sweetheart)
04. I'm Gonna Steal You Away (With The Nuggets)
05. Only Trust Your Heart
06. Beau James
07. Good Mornin' Life
08. Return To Me (Ritorna-Me)
09. It's 1200 Miles From Palm Springs To Texas
10. Volare (Nel Blu Di Pinto Di Blu)
11. On An Evening In Roma (Sott'er Celo De Roma)
12. All I Do Is Dream Of You
13. Medley (Live)
14. My Guiding Star
15. Until The Real Thing Comes Along
16. Ain't That A Kick In The Head
17. Just In Time
18. Be An Angel
19. Non Dimenticar
20. Somebody Loves You


CD Released: June 11, 1996


DR Log CD1
foobar2000 1.1.7 / Dynamic Range Meter 1.1.0
log date: 2013-01-09 23:42:25

--------------------------------------------------------------------------------
Analyzed: Dean Martin / The Capitol Years (CD1)
--------------------------------------------------------------------------------

DR Peak RMS Duration Track
--------------------------------------------------------------------------------
DR15 -0.97 dB -18.37 dB 2:26 01-Memories Are Made Of This
DR14 -0.88 dB -17.46 dB 2:34 02-Powder Your Face With Sunshine (Smile! Smile! Smile!)
DR13 -1.15 dB -17.32 dB 2:48 03-You Was (Duet With Peggy Lee)
DR12 -3.16 dB -18.18 dB 2:34 04-Dreamy Old New England Moon (With Paul Weston)
DR15 -0.10 dB -17.38 dB 3:13 05-I'm Gonna Paper All My Walls With Your Love Letters
DR12 -2.42 dB -18.49 dB 2:35 06-I'll Always Love You (Day After Day)
DR13 -2.27 dB -19.25 dB 2:52 07-Solitaire
DR13 -1.12 dB -17.02 dB 1:56 08-Night Train To Memphis
DR13 -2.14 dB -18.46 dB 2:30 09-Pretty As A Picture
DR12 -0.19 dB -15.51 dB 2:24 10-Oh Marie
DR13 -2.63 dB -18.64 dB 3:03 11-You Belong To Me
DR14 -0.42 dB -18.12 dB 2:31 12-Susan
DR14 -0.46 dB -17.22 dB 2:02 13-The Peanut Vendor
DR13 -2.72 dB -18.48 dB 3:15 14-I'm Yours
DR13 -0.39 dB -16.43 dB 3:08 15-That's Amore
DR13 -0.11 dB -15.35 dB 2:21 16-I'd Cry Like A Baby
DR14 -0.06 dB -17.61 dB 2:38 17-Hey Brother, Pour The WIne
DR13 -1.98 dB -18.87 dB 2:24 18-Every Street's A Boulevard (In Old New York) (Duet With Jerry Lewis)
DR14 -0.35 dB -16.85 dB 2:34 19-I'll Gladly Make The Same Mistake Again
DR14 -0.68 dB -18.81 dB 2:28 20-Open Up The Doghouse (Two Cats Are Coming In) (Duet With Nat King Cole)
--------------------------------------------------------------------------------

Number of tracks: 20
Official DR value: DR13

Samplerate: 44100 Hz
Channels: 2
Bits per sample: 16
Bitrate: 637 kbps
Codec: FLAC
================================================================================


DR Log CD2
foobar2000 1.1.7 / Dynamic Range Meter 1.1.0
log date: 2013-01-09 23:43:25

--------------------------------------------------------------------------------
Analyzed: Dean Martin / The Capitol Years (CD2)
--------------------------------------------------------------------------------

DR Peak RMS Duration Track
--------------------------------------------------------------------------------
DR13 -0.20 dB -14.59 dB 2:17 01-Carolina In The Morning
DR13 -0.22 dB -15.44 dB 2:55 02-In Napoli
DR12 -1.33 dB -16.24 dB 2:26 03-Innamorata (Sweetheart)
DR14 -0.48 dB -17.80 dB 2:31 04-I'm Gonna Steal You Away (With The Nuggets)
DR14 -1.67 dB -18.58 dB 2:51 05-Only Trust Your Heart
DR12 -0.06 dB -14.00 dB 2:20 06-Beau James
DR12 -1.64 dB -14.54 dB 2:14 07-Good Mornin' Life
DR12 -1.37 dB -16.64 dB 2:26 08-Return To Me (Ritorna-Me)
DR13 -0.21 dB -15.43 dB 2:46 09-It's 1200 Miles From Palm Springs To Texas
DR12 -0.60 dB -17.21 dB 3:01 10-Volare (Nel Blu Di Pinto Di Blu)
DR12 -0.53 dB -14.97 dB 2:26 11-On An Evening In Roma (Sott'er Celo De Roma)
DR13 0.00 dB -16.56 dB 2:45 12-All I Do Is Dream Of You
DR14 -0.06 dB -18.79 dB 8:40 13-Medley (Live)
DR11 -2.51 dB -17.85 dB 1:54 14-My Guiding Star
DR12 -0.40 dB -14.63 dB 3:02 15-Until The Real Thing Comes Along
DR10 -0.51 dB -13.37 dB 2:26 16-Ain't That A Kick In The Head
DR13 -0.43 dB -15.93 dB 2:16 17-Just In Time
DR12 -0.43 dB -16.17 dB 2:51 18-Be An Angel
DR12 -1.84 dB -17.65 dB 3:06 19-Non Dimenticar
DR13 -0.16 dB -15.90 dB 2:35 20-Somebody Loves You
--------------------------------------------------------------------------------

Number of tracks: 20
Official DR value: DR12

Samplerate: 44100 Hz
Channels: 2
Bits per sample: 16
Bitrate: 694 kbps
Codec: FLAC
================================================================================


Ripped and Scanned from the Stadium Studios Library January 2013
5% WinRar Recovery

ADVERTISING » Very Fast Download!



« ADVERTISING




Posted By: diddlycrap Date: 14 Jan 2013 10:19:40
Thanks a lot. A top post..
Posted By: dipstick Date: 14 Jan 2013 17:00:03
This is a very nice 2cd set for sure. Thanks for the share!
Posted By: Giddy up Date: 14 Jan 2013 18:53:44
Mucho Thanks :)
Posted By: alsoel Date: 14 Jan 2013 21:23:52
Muchas Gracias!!!
Posted By: musician3 Date: 15 Jan 2013 02:04:04
Great..............................Thank You
Posted By: Robotron Date: 11 Jul 2013 09:10:47
Absolut gauletto!!! Dino is the greatest. Wunderbar!!!!!!!!!!!!!! Thanx, Aldä.