Loading...

Dean Martin - The Complete Reprise Albums Collection (1962-1978) [2001/2002 EMI-Capitol Remasters]

Posted By : flac jacket | Date : 06 Jan 2013 07:27:39 | Comments : 18 |
|



Dean Martin - The Complete Reprise Albums Collection (1962-1978) [2001/2002 EMI-Capitol Remasters]
EAC Secure Rip | FLACx12 (Image + Cue + Log) including Complete Scans (Jpeg 600 dpi) - 4.98 GB | MP3x24 (CBR320 Kbps) - 2.2 GB
Pop, Standards, Vocal, Jazz, Country | Collector's Choice | CCM 251-262 | 705:16 minutes | 5% WinRar Recovery | Hosted on: Uploaded & FilePost

Dean Martin was an American singer, film actor, television star and comedian. One of the most popular and enduring American entertainers of the mid-20th Century, Martin was nicknamed the "King of Cool" due to his seemingly effortless charisma and self-assuredness. A member of the "Rat Pack," Martin was a major star in four areas of show business: concert stage/night clubs, recordings, motion pictures, and television. He was the host of the successful television variety program The Dean Martin Show (1965-1974), and subsequently The Dean Martin Celebrity Roasts (1974-1985). Martin's relaxed, warbling crooning voice earned him dozens of hit singles. This collection contains all of the LPs in the Reprise catalog.




_______________________________________________________________________________________________________________




Dean Martin - French Style (1962) + Dino Latino (1962) [2001 EMI-Capitol Remaster]
EAC Secure Rip | FLAC (Image + Cue + Log) including Complete Scans (Jpeg 600 dpi) - 457 MB | MP3x2 (CBR320 Kbps) - 189 MB
Pop, Standards, Vocal, Jazz, Country | Collector's Choice | CCM-252-2 | 60:49 minutes | 5% WinRar Recovery | Hosted on: FilePost



EAC Log
Exact Audio Copy V1.0 beta 2 from 29. April 2011

EAC extraction logfile from 18. July 2012, 18:25

Dean Martin / French Style + Dino Latino

Used drive : HL-DT-STDVDRAM GH60N Adapter: 0 ID: 1

Read mode : Secure
Utilize accurate stream : Yes
Defeat audio cache : Yes
Make use of C2 pointers : No

Read offset correction : 667
Overread into Lead-In and Lead-Out : No
Fill up missing offset samples with silence : Yes
Delete leading and trailing silent blocks : No
Null samples used in CRC calculations : Yes
Used interface : Native Win32 interface for Win NT & 2000

Used output format : User Defined Encoder
Selected bitrate : 1024 kBit/s
Quality : High
Add ID3 tag : No
Command line compressor : C:\Program Files (x86)\Exact Audio Copy\Flac\flac.exe
Additional command line options : -V -8 -T "artist=%albumartist%" -T "title=%title%" -T "album=%albumtitle%" -T "date=%year%" -T "genre=%genre%" -T "tracknumber=%tracknr%" %source%


TOC of the extracted CD

Track | Start | Length | Start sector | End sector
---------------------------------------------------------
1 | 0:00.00 | 2:53.70 | 0 | 13044
2 | 2:53.70 | 3:34.67 | 13045 | 29161
3 | 6:28.62 | 2:26.00 | 29162 | 40111
4 | 8:54.62 | 3:20.05 | 40112 | 55116
5 | 12:14.67 | 2:26.08 | 55117 | 66074
6 | 14:41.00 | 3:00.30 | 66075 | 79604
7 | 17:41.30 | 2:22.52 | 79605 | 90306
8 | 20:04.07 | 2:48.18 | 90307 | 102924
9 | 22:52.25 | 3:27.15 | 102925 | 118464
10 | 26:19.40 | 2:39.07 | 118465 | 130396
11 | 28:58.47 | 3:39.33 | 130397 | 146854
12 | 32:38.05 | 3:02.25 | 146855 | 160529
13 | 35:40.30 | 2:18.07 | 160530 | 170886
14 | 37:58.37 | 2:33.18 | 170887 | 182379
15 | 40:31.55 | 2:06.15 | 182380 | 191844
16 | 42:37.70 | 1:52.62 | 191845 | 200306
17 | 44:30.57 | 2:33.43 | 200307 | 211824
18 | 47:04.25 | 2:46.60 | 211825 | 224334
19 | 49:51.10 | 2:38.50 | 224335 | 236234
20 | 52:29.60 | 2:46.12 | 236235 | 248696
21 | 55:15.72 | 2:27.35 | 248697 | 259756
22 | 57:43.32 | 3:04.05 | 259757 | 273561


Range status and errors

Selected range

Filename C:\EAC\Dean Martin - (1962,1962) French Style + Dino Latino [2001 EMI-Capitol Remaster]\Dean Martin - French Style + Dino Latino.wav

Peak level 98.8 %
Extraction speed 2.1 X
Range quality 100.0 %
Test CRC A927A76D
Copy CRC A927A76D
Copy OK

No errors occurred


AccurateRip summary

Track 1 accurately ripped (confidence 5) [165D35A2] (AR v1)
Track 2 accurately ripped (confidence 5) [F5E894AC] (AR v1)
Track 3 accurately ripped (confidence 5) [2D507B2D] (AR v1)
Track 4 accurately ripped (confidence 5) [B5F6BA4A] (AR v1)
Track 5 accurately ripped (confidence 5) [70846205] (AR v1)
Track 6 accurately ripped (confidence 5) [C73DF951] (AR v1)
Track 7 accurately ripped (confidence 5) [BEFA9E4A] (AR v1)
Track 8 accurately ripped (confidence 5) [029CEDF0] (AR v1)
Track 9 accurately ripped (confidence 5) [5B34FBD5] (AR v1)
Track 10 accurately ripped (confidence 5) [B7ACF97B] (AR v1)
Track 11 accurately ripped (confidence 5) [3763D270] (AR v1)
Track 12 accurately ripped (confidence 5) [92E59307] (AR v1)
Track 13 accurately ripped (confidence 5) [D7669F29] (AR v1)
Track 14 accurately ripped (confidence 5) [84923AD9] (AR v1)
Track 15 accurately ripped (confidence 5) [E7C21AC2] (AR v1)
Track 16 accurately ripped (confidence 5) [D9DA3879] (AR v1)
Track 17 accurately ripped (confidence 5) [F1D3758A] (AR v1)
Track 18 accurately ripped (confidence 5) [81820330] (AR v1)
Track 19 accurately ripped (confidence 5) [2AAF6E46] (AR v1)
Track 20 accurately ripped (confidence 5) [BF680EB1] (AR v1)
Track 21 accurately ripped (confidence 5) [43FDD576] (AR v1)
Track 22 accurately ripped (confidence 5) [A9D03914] (AR v1)

All tracks accurately ripped

End of status report

==== Log checksum 510B616DC92072A21C94F14860FE356C8213513A8330847A4A71CFA23BCADB22 ====


French Style (1962)

01. C'est Si Bon
02. April In Paris
03. Mimi
04. Darling, Je Vous Aime
05. Beaucoup
06. The Poor People Of Paris
07. The River Seine
08. The Last Time I Saw Paris
09. Mam'selle
10. C'est Magnifique
11. Gigi
12. I Love Paris

Dino Latino (1962)

13. (Alla En) El Rancho Grande
14. Manana
15. Tangerine
16. South Of The Border
17. In A Little Spanish Town
18. What A Diff'rence A Day Made
19. Magic Is The Moonlight
20. Always In My Heart
21. Besame Mucho
22. La Paloma


Albums Released: April 1962, October 1962
Collector's Choice Remaster: October 23, 2001


DR Log
foobar2000 1.1.7 / Dynamic Range Meter 1.1.0
log date: 2012-07-21 17:27:04

--------------------------------------------------------------------------------
Analyzed: Dean Martin / French Style + Dino Latino
--------------------------------------------------------------------------------

DR Peak RMS Duration Track
--------------------------------------------------------------------------------
DR10 -0.10 dB -13.37 dB 2:54 01-C'est Si Bon
DR10 -0.10 dB -13.72 dB 3:35 02-April In Paris
DR10 -0.10 dB -12.82 dB 2:26 03-Mimi
DR10 -0.14 dB -13.68 dB 3:20 04-Darling, Je Vous Aime
DR10 -0.10 dB -13.71 dB 2:26 05-Beaucoup
DR11 -0.43 dB -13.50 dB 3:00 06-The Poor People Of Paris
DR10 -0.10 dB -12.96 dB 2:23 07-The River Seine
DR11 -0.10 dB -14.90 dB 2:48 08-The Last Time I Saw Paris
DR11 -1.54 dB -15.98 dB 3:27 09-Mam'selle
DR10 -0.10 dB -13.52 dB 2:39 10-C'est Magnifique
DR12 -0.78 dB -16.90 dB 3:39 11-Gigi
DR11 -0.10 dB -16.67 dB 3:02 12-I Love Paris
DR10 -0.10 dB -12.53 dB 2:18 13-(Alla En) El Rancho Grande
DR10 -0.10 dB -13.23 dB 2:33 14-Manana
DR11 -0.10 dB -13.88 dB 2:06 15-Tangerine
DR10 -0.10 dB -13.85 dB 1:53 16-South Of The Border
DR12 -0.10 dB -15.13 dB 2:34 17-In A Little Spanish Town
DR11 -0.10 dB -14.72 dB 2:47 18-What A Diff'rence A Day Made
DR10 -0.10 dB -13.88 dB 2:39 19-Magic Is The Moonlight
DR10 -0.10 dB -15.17 dB 2:46 20-Always In My Heart
DR11 -0.98 dB -15.11 dB 2:27 21-Besame Mucho
DR11 -0.10 dB -13.96 dB 3:04 22-La Paloma
--------------------------------------------------------------------------------

Number of tracks: 22
Official DR value: DR11

Samplerate: 44100 Hz
Channels: 2
Bits per sample: 16
Bitrate: 834 kbps
Codec: FLAC
================================================================================


Ripped and Scanned from the Stadium Studios Library July 2012
5% WinRar Recovery





_______________________________________________________________________________________________________________




Dean Martin - Dean "Tex" Martin Country Style (1963) + Dean "Tex" Martin Rides Again (1963) [2001 EMI-Capitol Remaster]
EAC Secure Rip | FLAC (Image + Cue + Log) including Complete Scans (Jpeg 600 dpi) - 485 MB | MP3x2 (CBR320 Kbps) - 206 MB
Pop, Standards, Vocal, Jazz, Country | Collector's Choice | CCM-251-2 | 63:44 minutes | 5% WinRar Recovery | Hosted on: FilePost



EAC Log
Exact Audio Copy V1.0 beta 2 from 29. April 2011

EAC extraction logfile from 18. July 2012, 20:14

Dean Martin / Country Style + Dean ''Tex'' Martin Rides Again

Used drive : HL-DT-STDVDRAM GH60N Adapter: 0 ID: 1

Read mode : Secure
Utilize accurate stream : Yes
Defeat audio cache : Yes
Make use of C2 pointers : No

Read offset correction : 667
Overread into Lead-In and Lead-Out : No
Fill up missing offset samples with silence : Yes
Delete leading and trailing silent blocks : No
Null samples used in CRC calculations : Yes
Used interface : Native Win32 interface for Win NT & 2000

Used output format : User Defined Encoder
Selected bitrate : 1024 kBit/s
Quality : High
Add ID3 tag : No
Command line compressor : C:\Program Files (x86)\Exact Audio Copy\Flac\flac.exe
Additional command line options : -V -8 -T "artist=%albumartist%" -T "title=%title%" -T "album=%albumtitle%" -T "date=%year%" -T "genre=%genre%" -T "tracknumber=%tracknr%" %source%


TOC of the extracted CD

Track | Start | Length | Start sector | End sector
---------------------------------------------------------
1 | 0:00.00 | 2:38.05 | 0 | 11854
2 | 2:38.05 | 2:51.10 | 11855 | 24689
3 | 5:29.15 | 2:40.67 | 24690 | 36756
4 | 8:10.07 | 3:01.58 | 36757 | 50389
5 | 11:11.65 | 2:26.40 | 50390 | 61379
6 | 13:38.30 | 3:13.00 | 61380 | 75854
7 | 16:51.30 | 2:22.17 | 75855 | 86521
8 | 19:13.47 | 2:53.15 | 86522 | 99511
9 | 22:06.62 | 1:49.10 | 99512 | 107696
10 | 23:55.72 | 2:10.73 | 107697 | 117519
11 | 26:06.70 | 1:46.70 | 117520 | 125539
12 | 27:53.65 | 2:19.52 | 125540 | 136016
13 | 30:13.42 | 2:33.35 | 136017 | 147526
14 | 32:47.02 | 3:06.38 | 147527 | 161514
15 | 35:53.40 | 2:31.00 | 161515 | 172839
16 | 38:24.40 | 2:06.70 | 172840 | 182359
17 | 40:31.35 | 2:44.50 | 182360 | 194709
18 | 43:16.10 | 3:00.50 | 194710 | 208259
19 | 46:16.60 | 2:44.55 | 208260 | 220614
20 | 49:01.40 | 3:24.30 | 220615 | 235944
21 | 52:25.70 | 2:50.52 | 235945 | 248746
22 | 55:16.47 | 3:08.25 | 248747 | 262871
23 | 58:24.72 | 3:00.13 | 262872 | 276384
24 | 61:25.10 | 2:16.72 | 276385 | 286656


Range status and errors

Selected range

Filename C:\EAC\Dean Martin - Country Style + Dean ''Tex'' Martin Rides Again.wav

Peak level 98.8 %
Extraction speed 1.9 X
Range quality 100.0 %
Test CRC 280D670B
Copy CRC 280D670B
Copy OK

No errors occurred


AccurateRip summary

Track 1 accurately ripped (confidence 3) [03C53F9C] (AR v1)
Track 2 accurately ripped (confidence 2) [934604B1] (AR v1)
Track 3 accurately ripped (confidence 3) [FD10A173] (AR v1)
Track 4 accurately ripped (confidence 3) [A85EFD9A] (AR v1)
Track 5 accurately ripped (confidence 3) [36DC844F] (AR v1)
Track 6 accurately ripped (confidence 3) [FA1208B1] (AR v1)
Track 7 accurately ripped (confidence 3) [8828A026] (AR v1)
Track 8 accurately ripped (confidence 3) [0F7C6542] (AR v1)
Track 9 accurately ripped (confidence 3) [5247006D] (AR v1)
Track 10 accurately ripped (confidence 3) [449E7A48] (AR v1)
Track 11 accurately ripped (confidence 3) [CA854BBE] (AR v1)
Track 12 accurately ripped (confidence 3) [EE701BBF] (AR v1)
Track 13 accurately ripped (confidence 3) [946FC198] (AR v1)
Track 14 accurately ripped (confidence 3) [4CA16CE6] (AR v1)
Track 15 accurately ripped (confidence 3) [B160C814] (AR v1)
Track 16 accurately ripped (confidence 3) [6F8B7EAA] (AR v1)
Track 17 accurately ripped (confidence 3) [09CF9470] (AR v1)
Track 18 accurately ripped (confidence 3) [059C3043] (AR v1)
Track 19 accurately ripped (confidence 3) [A04A3B5E] (AR v1)
Track 20 accurately ripped (confidence 3) [0E044223] (AR v1)
Track 21 accurately ripped (confidence 3) [0D7278DA] (AR v1)
Track 22 accurately ripped (confidence 3) [1CD6320C] (AR v1)
Track 23 accurately ripped (confidence 3) [D250FA66] (AR v1)
Track 24 accurately ripped (confidence 3) [EA741F79] (AR v1)

All tracks accurately ripped

End of status report

==== Log checksum BDBDF5DD1E462A425F2F35F843AD76CB289C52C50E871BB8F42852E76B44B6A7 ====


Dean "Tex" Martin Country Style (1963)

01. I´m So Lonesome I Could Cry
02. Face In A Crowd
03. Things
04. Room Full Of Roses
05. I Walk The Line
06. My Heart Cries For You
07. Any Time
08. Shutters And Boards
09. Blue, Blue Day
10. Singing The Blues
11. Hey, Good Lookin´
12. Ain´t Gonna Try Anymore


Dean "Tex" Martin Rides Again (1963)

13. I´m Gonna Change Everything
14. Candy Kisses
15. Rockin´ Alone (In An Old Rocking Chair)
16. Just A Little Lovin´
17. I Can´t Help It (If I´m Still In Love With You)
18. My Sugar´s Gone
19. Corrine, Corrina
20. Take Good Care Of Her
21. The Middle Of The Night Is My Cryin´ Time
22. From Lover To Loser
23. Bouquet Of Roses
24. Second Hand Rose (Second Hand Heart)


Albums Released: January 1963, April 1963
Collector's Choice Remaster: October 23, 2001


DR Log
foobar2000 1.1.7 / Dynamic Range Meter 1.1.0
log date: 2012-07-21 18:14:32

--------------------------------------------------------------------------------
Analyzed: Dean Martin / Country Style + Dean ''Tex'' Martin Rides Again
--------------------------------------------------------------------------------

DR Peak RMS Duration Track
--------------------------------------------------------------------------------
DR9 -0.12 dB -12.79 dB 2:38 01-I´m So Lonesome I Could Cry
DR10 -1.02 dB -14.16 dB 2:51 02-Face In A Crowd
DR11 -0.10 dB -13.90 dB 2:41 03-Things
DR11 -0.10 dB -14.36 dB 3:02 04-Room Full Of Roses
DR11 -0.45 dB -14.48 dB 2:27 05-I Walk The Line
DR10 -0.10 dB -12.85 dB 3:13 06-My Heart Cries For You
DR12 -0.10 dB -14.36 dB 2:22 07-Any Time
DR10 -0.10 dB -13.03 dB 2:53 08-Shutters And Boards
DR12 -0.10 dB -13.70 dB 1:49 09-Blue, Blue Day
DR10 -0.10 dB -12.33 dB 2:11 10-Singing The Blues
DR12 -0.10 dB -14.07 dB 1:47 11-Hey, Good Lookin´
DR9 -0.10 dB -12.78 dB 2:20 12-Ain´t Gonna Try Anymore
DR11 -0.10 dB -14.18 dB 2:33 13-I´m Gonna Change Everything
DR11 -0.14 dB -14.75 dB 3:07 14-Candy Kisses
DR10 -0.38 dB -13.24 dB 2:31 15-Rockin´ Alone (In An Old Rocking Chair)
DR10 -1.21 dB -13.88 dB 2:07 16-Just A Little Lovin´
DR10 -0.10 dB -12.73 dB 2:45 17-I Can´t Help It (If I´m Still In Love With You)
DR11 -0.10 dB -13.59 dB 3:01 18-My Sugar´s Gone
DR11 -0.30 dB -13.08 dB 2:45 19-Corrine, Corrina
DR11 -0.10 dB -14.42 dB 3:24 20-Take Good Care Of Her
DR10 -0.10 dB -12.67 dB 2:51 21-The Middle Of The Night Is My Cryin´ Time
DR10 -0.18 dB -13.28 dB 3:08 22-From Lover To Loser
DR11 -1.21 dB -14.63 dB 3:00 23-Bouquet Of Roses
DR11 -0.93 dB -14.74 dB 2:17 24-Second Hand Rose (Second Hand Heart)
--------------------------------------------------------------------------------

Number of tracks: 24
Official DR value: DR11

Samplerate: 44100 Hz
Channels: 2
Bits per sample: 16
Bitrate: 849 kbps
Codec: FLAC
================================================================================


Ripped and Scanned from the Stadium Studios Library July 2012
5% WinRar Recovery





_______________________________________________________________________________________________________________




Dean Martin - Dream With Dean (1964) + Everybody Loves Somebody (1964) [2001 EMI-Capitol Remaster]
EAC Secure Rip | FLAC (Image + Cue + Log) including Complete Scans (Jpeg 600 dpi) - 459 MB | MP3x2 (CBR320 Kbps) - 213 MB
Pop, Standards, Vocal, Jazz, Country | Collector's Choice | CCM-254-2 | 67:39 minutes | 5% WinRar Recovery | Hosted on: FilePost



EAC Log
Exact Audio Copy V1.0 beta 2 from 29. April 2011

EAC extraction logfile from 19. July 2012, 20:19

Dean Martin / Dream With Dean + Everybody Loves Somebody

Used drive : HL-DT-STDVDRAM GH60N Adapter: 0 ID: 1

Read mode : Secure
Utilize accurate stream : Yes
Defeat audio cache : Yes
Make use of C2 pointers : No

Read offset correction : 667
Overread into Lead-In and Lead-Out : No
Fill up missing offset samples with silence : Yes
Delete leading and trailing silent blocks : No
Null samples used in CRC calculations : Yes
Used interface : Native Win32 interface for Win NT & 2000

Used output format : User Defined Encoder
Selected bitrate : 1024 kBit/s
Quality : High
Add ID3 tag : No
Command line compressor : C:\Program Files (x86)\Exact Audio Copy\Flac\flac.exe
Additional command line options : -V -8 -T "artist=%albumartist%" -T "title=%title%" -T "album=%albumtitle%" -T "date=%year%" -T "genre=%genre%" -T "tracknumber=%tracknr%" %source%


TOC of the extracted CD

Track | Start | Length | Start sector | End sector
---------------------------------------------------------
1 | 0:00.00 | 3:15.67 | 0 | 14691
2 | 3:15.67 | 3:04.38 | 14692 | 28529
3 | 6:20.30 | 3:16.05 | 28530 | 43234
4 | 9:36.35 | 3:03.32 | 43235 | 56991
5 | 12:39.67 | 3:07.20 | 56992 | 71036
6 | 15:47.12 | 3:11.08 | 71037 | 85369
7 | 18:58.20 | 2:36.50 | 85370 | 97119
8 | 21:34.70 | 2:18.00 | 97120 | 107469
9 | 23:52.70 | 2:18.35 | 107470 | 117854
10 | 26:11.30 | 2:58.50 | 117855 | 131254
11 | 29:10.05 | 2:45.57 | 131255 | 143686
12 | 31:55.62 | 2:17.38 | 143687 | 153999
13 | 34:13.25 | 2:46.67 | 154000 | 166516
14 | 37:00.17 | 2:31.48 | 166517 | 177889
15 | 39:31.65 | 2:52.00 | 177890 | 190789
16 | 42:23.65 | 3:01.00 | 190790 | 204364
17 | 45:24.65 | 2:09.15 | 204365 | 214054
18 | 47:34.05 | 2:40.47 | 214055 | 226101
19 | 50:14.52 | 3:10.70 | 226102 | 240421
20 | 53:25.47 | 2:36.05 | 240422 | 252126
21 | 56:01.52 | 3:07.05 | 252127 | 266156
22 | 59:08.57 | 2:56.65 | 266157 | 279421
23 | 62:05.47 | 2:43.53 | 279422 | 291699
24 | 64:49.25 | 2:48.27 | 291700 | 304326


Range status and errors

Selected range

Filename C:\EAC\Dean Martin - (1964) Dream With Dean + Everybody Loves Somebody [2001 EMI-Capitol Remaster]\Dean Martin - Dream With Dean + Everybody Loves Somebody.wav

Peak level 98.8 %
Extraction speed 2.0 X
Range quality 99.9 %
Test CRC 0F68DD40
Copy CRC 0F68DD40
Copy OK

No errors occurred


AccurateRip summary

Track 1 accurately ripped (confidence 4) [C8416700] (AR v1)
Track 2 accurately ripped (confidence 3) [80DD3652] (AR v1)
Track 3 accurately ripped (confidence 4) [FFB748B5] (AR v1)
Track 4 accurately ripped (confidence 4) [597CB16A] (AR v1)
Track 5 accurately ripped (confidence 3) [C07AB424] (AR v1)
Track 6 accurately ripped (confidence 3) [CFCC2AF6] (AR v1)
Track 7 accurately ripped (confidence 4) [D917FD20] (AR v1)
Track 8 accurately ripped (confidence 4) [FA305938] (AR v1)
Track 9 accurately ripped (confidence 3) [BBA38F6E] (AR v1)
Track 10 accurately ripped (confidence 3) [DFF56580] (AR v1)
Track 11 accurately ripped (confidence 3) [C7D4A462] (AR v1)
Track 12 accurately ripped (confidence 3) [0E579AC8] (AR v1)
Track 13 accurately ripped (confidence 4) [85A51663] (AR v1)
Track 14 accurately ripped (confidence 4) [DA38C38B] (AR v1)
Track 15 accurately ripped (confidence 4) [F3B8CF71] (AR v1)
Track 16 accurately ripped (confidence 4) [322F80A2] (AR v1)
Track 17 accurately ripped (confidence 4) [60858B34] (AR v1)
Track 18 accurately ripped (confidence 4) [8B5D56C3] (AR v1)
Track 19 accurately ripped (confidence 4) [9A83A44F] (AR v1)
Track 20 accurately ripped (confidence 4) [E49F04DB] (AR v1)
Track 21 accurately ripped (confidence 4) [96DC6F4F] (AR v1)
Track 22 accurately ripped (confidence 4) [E82AE699] (AR v1)
Track 23 accurately ripped (confidence 4) [2943E4D5] (AR v1)
Track 24 accurately ripped (confidence 4) [39E51064] (AR v1)

All tracks accurately ripped

End of status report

==== Log checksum 2A6FEA42EC74817DB31DAD0B0D29B8A761D2BDF489DE0F0D779FAA42EE8B0098 ====


Dream With Dean (1964)

01. I'm Confessin' (That I Love You)
02. Fools Rush In
03. I'll Buy That Dream
04. If You Were The Only Girl
05. Blue Moon
06. Everybody Loves Somebody
07. I Don't Know Why (I Just Do)
08. Gimmie A Little Kill Will Ya Huh?
09. Hands Across The Table
10. Smile
11. My Melancholy Baby
12. Baby Won't You Please Come Home


Everybody Loves Somebody (1964)

13. Everybody Loves Somebody
14. Your Other Love
15. Shutters And Boards
16. Baby-O
17. A Little Voice
18. Things
19. My Heart Cries For You
20. Siesta Fiesta
21. From Lover To Loser
22. Just Close Your Eyes
23. Corinne Corrina
24. Face In A Crowd


Albums Released: June 1964, June 1964
Collector's Choice Remaster: October 23, 2001


DR Log
foobar2000 1.1.7 / Dynamic Range Meter 1.1.0
log date: 2012-07-21 18:51:09

--------------------------------------------------------------------------------
Analyzed: Dean Martin / Dream With Dean + Everybody Loves Somebody
--------------------------------------------------------------------------------

DR Peak RMS Duration Track
--------------------------------------------------------------------------------
DR13 -0.10 dB -16.47 dB 3:16 01-I'm Confessin' (That I Love You)
DR13 -0.10 dB -16.82 dB 3:05 02-Fools Rush In
DR13 -0.10 dB -16.27 dB 3:16 03-I'll Buy That Dream
DR13 -0.10 dB -16.52 dB 3:03 04-If You Were The Only Girl
DR12 -0.10 dB -14.78 dB 3:07 05-Blue Moon
DR11 -0.10 dB -14.27 dB 3:11 06-Everybody Loves Somebody
DR13 -0.10 dB -16.78 dB 2:37 07-I Don't Know Why (I Just Do)
DR13 -0.10 dB -16.36 dB 2:18 08-Gimmie A Little Kill Will Ya Huh?
DR11 -0.10 dB -15.05 dB 2:18 09-Hands Across The Table
DR12 -0.10 dB -15.55 dB 2:59 10-Smile
DR13 -0.10 dB -16.68 dB 2:46 11-My Melancholy Baby
DR12 -0.10 dB -16.10 dB 2:18 12-Baby Won't You Please Come Home
DR11 -0.10 dB -13.55 dB 2:47 13-Everybody Loves Somebody
DR11 -0.10 dB -13.67 dB 2:32 14-Your Other Love
DR11 -0.10 dB -14.80 dB 2:52 15-Shutters And Boards
DR10 -0.10 dB -14.38 dB 3:01 16-Baby-O
DR10 -0.10 dB -13.66 dB 2:09 17-A Little Voice
DR11 -0.10 dB -14.51 dB 2:41 18-Things
DR9 -0.10 dB -12.26 dB 3:11 19-My Heart Cries For You
DR11 -0.10 dB -13.86 dB 2:36 20-Siesta Fiesta
DR10 -1.10 dB -13.83 dB 3:07 21-From Lover To Loser
DR11 -2.10 dB -15.42 dB 2:57 22-Just Close Your Eyes
DR10 -0.10 dB -12.95 dB 2:44 23-Corinne Corrina
DR10 -0.10 dB -14.50 dB 2:48 24-Face In A Crowd
--------------------------------------------------------------------------------

Number of tracks: 24
Official DR value: DR11

Samplerate: 44100 Hz
Channels: 2
Bits per sample: 16
Bitrate: 753 kbps
Codec: FLAC
================================================================================


Ripped and Scanned from the Stadium Studios Library July 2012
5% WinRar Recovery





_______________________________________________________________________________________________________________




Dean Martin - The Door Is Still Open To My Heart (1964) + (Remember Me) I'm The One Who Loves You (1965) [2001 EMI-Capitol Remaster]
EAC Secure Rip | FLAC (Image + Cue + Log) including Complete Scans (Jpeg 600 dpi) - 457 MB | MP3x2 (CBR320 Kbps) - 197 MB
Pop, Standards, Vocal, Jazz, Country | Collector's Choice | CCM-253-2 | 63:30 minutes | 5% WinRar Recovery | Hosted on: FilePost



EAC Log
Exact Audio Copy V1.0 beta 2 from 29. April 2011

EAC extraction logfile from 22. July 2012, 20:27

Dean Martin / The Door Is Still Open To My Heart + (Remember Me) I'm The One Who Loves You

Used drive : HL-DT-STDVDRAM GH60N Adapter: 0 ID: 1

Read mode : Secure
Utilize accurate stream : Yes
Defeat audio cache : Yes
Make use of C2 pointers : No

Read offset correction : 667
Overread into Lead-In and Lead-Out : No
Fill up missing offset samples with silence : Yes
Delete leading and trailing silent blocks : No
Null samples used in CRC calculations : Yes
Used interface : Native Win32 interface for Win NT & 2000

Used output format : User Defined Encoder
Selected bitrate : 1024 kBit/s
Quality : High
Add ID3 tag : No
Command line compressor : C:\Program Files (x86)\Exact Audio Copy\Flac\flac.exe
Additional command line options : -V -8 -T "artist=%albumartist%" -T "title=%title%" -T "album=%albumtitle%" -T "date=%year%" -T "genre=%genre%" -T "tracknumber=%tracknr%" %source%


TOC of the extracted CD

Track | Start | Length | Start sector | End sector
---------------------------------------------------------
1 | 0:00.00 | 2:54.40 | 0 | 13089
2 | 2:54.40 | 2:50.50 | 13090 | 25889
3 | 5:45.15 | 2:32.42 | 25890 | 37331
4 | 8:17.57 | 2:48.65 | 37332 | 49996
5 | 11:06.47 | 2:10.53 | 49997 | 59799
6 | 13:17.25 | 2:24.65 | 59800 | 70664
7 | 15:42.15 | 2:45.47 | 70665 | 83086
8 | 18:27.62 | 2:50.68 | 83087 | 95904
9 | 21:18.55 | 2:59.55 | 95905 | 109384
10 | 24:18.35 | 1:59.20 | 109385 | 118329
11 | 26:17.55 | 2:45.72 | 118330 | 130776
12 | 29:03.52 | 2:38.43 | 130777 | 142669
13 | 31:42.20 | 2:28.20 | 142670 | 153789
14 | 34:10.40 | 2:25.02 | 153790 | 164666
15 | 36:35.42 | 2:21.70 | 164667 | 175311
16 | 38:57.37 | 2:56.40 | 175312 | 188551
17 | 41:54.02 | 2:31.03 | 188552 | 199879
18 | 44:25.05 | 2:09.02 | 199880 | 209556
19 | 46:34.07 | 2:43.35 | 209557 | 221816
20 | 49:17.42 | 2:46.65 | 221817 | 234331
21 | 52:04.32 | 2:45.58 | 234332 | 246764
22 | 54:50.15 | 3:19.25 | 246765 | 261714
23 | 58:09.40 | 2:37.12 | 261715 | 273501
24 | 60:46.52 | 2:42.15 | 273502 | 285666


Range status and errors

Selected range

Filename C:\EAC\Dean Martin - (1964) The Door Is Still Open To My Heart + (1965) (Remember Me) I'm The One Who Loves You\Dean Martin - The Door Is Still Open To My Heart + (Remember Me) I'm The One Who Loves You.wav

Peak level 98.8 %
Extraction speed 1.9 X
Range quality 100.0 %
Test CRC B6D47295
Copy CRC B6D47295
Copy OK

No errors occurred


AccurateRip summary

Track 1 accurately ripped (confidence 6) [E11DD7BF] (AR v1)
Track 2 accurately ripped (confidence 6) [9A2CCB76] (AR v1)
Track 3 accurately ripped (confidence 6) [061FC03F] (AR v1)
Track 4 accurately ripped (confidence 6) [03CB32CD] (AR v1)
Track 5 accurately ripped (confidence 6) [AA7ECDF2] (AR v1)
Track 6 accurately ripped (confidence 6) [BCD7885F] (AR v1)
Track 7 accurately ripped (confidence 6) [57515A10] (AR v1)
Track 8 accurately ripped (confidence 6) [6243D54A] (AR v1)
Track 9 accurately ripped (confidence 6) [BED4B97F] (AR v1)
Track 10 accurately ripped (confidence 6) [BA0C3C67] (AR v1)
Track 11 accurately ripped (confidence 6) [05DB0C96] (AR v1)
Track 12 accurately ripped (confidence 6) [37777ECF] (AR v1)
Track 13 accurately ripped (confidence 6) [993B19F8] (AR v1)
Track 14 accurately ripped (confidence 6) [B2A6F47B] (AR v1)
Track 15 accurately ripped (confidence 6) [7CB6F420] (AR v1)
Track 16 accurately ripped (confidence 6) [7A450A5D] (AR v1)
Track 17 accurately ripped (confidence 6) [305F973B] (AR v1)
Track 18 accurately ripped (confidence 6) [F0A0F961] (AR v1)
Track 19 accurately ripped (confidence 6) [4321F771] (AR v1)
Track 20 accurately ripped (confidence 6) [B0AF60A8] (AR v1)
Track 21 accurately ripped (confidence 6) [B780B6D7] (AR v1)
Track 22 accurately ripped (confidence 6) [F08FA3E0] (AR v1)
Track 23 accurately ripped (confidence 6) [8C107A18] (AR v1)
Track 24 accurately ripped (confidence 6) [60B3E210] (AR v1)

All tracks accurately ripped

End of status report

==== Log checksum 38D0EB497247516440CCA454C73FFC636D83BB5F6FD6867FB77842DC439F62B9 ====


The Door Is Still Open To My Heart (1964)

01. The Door Is Still Open To My Heart
02. We'll Sing In The Sunshine
03. I'm Gonna Change Everything
04. The Middle Of The Night Is My Cryin' Time
05. Every Minute, Every Hour
06. Clinging Vine
07. In The Misty Moonlight
08. Always Together
09. My Sugar's Gone
10. Your Nobody 'Til Somebody Loves You
11. Take Me
12. So Long Baby


(Remember Me) I'm The One Who Loves You (1965)

13. (Remember Me) I'm The One Who Loves You
14. King Of The Road
15. Welcome To My World
16. My Shoes Keep Walkin' Back To You
17. Born To Lose
18. The Birds And The Bees
19. Walk On By
20. Red Roses For A Blue Lady
21. Take These Chains From My Heart
22. Here Comes My Baby
23. I Don't Think You Love Me Anymore
24. Running Around


Albums Released: November 1964, September 1965
Collector's Choice Remaster: October 23, 2001


DR Log
foobar2000 1.1.7 / Dynamic Range Meter 1.1.0
log date: 2012-07-25 21:54:40

--------------------------------------------------------------------------------
Analyzed: Dean Martin / The Door Is Still Open To My Heart + (Remember Me) I'm The One Who Loves You
--------------------------------------------------------------------------------

DR Peak RMS Duration Track
--------------------------------------------------------------------------------
DR11 -0.10 dB -13.72 dB 2:55 01-The Door Is Still Open To My Heart
DR11 -0.10 dB -13.70 dB 2:51 02-We'll Sing In The Sunshine
DR10 -0.78 dB -13.16 dB 2:33 03-I'm Gonna Change Everything
DR10 -0.10 dB -12.18 dB 2:49 04-The Middle Of The Night Is My Cryin' Time
DR11 -0.10 dB -14.10 dB 2:11 05-Every Minute, Every Hour
DR10 -0.10 dB -12.27 dB 2:25 06-Clinging Vine
DR10 -0.10 dB -12.24 dB 2:46 07-In The Misty Moonlight
DR10 -0.10 dB -13.56 dB 2:51 08-Always Together
DR10 -0.10 dB -12.56 dB 3:00 09-My Sugar's Gone
DR11 -0.34 dB -14.18 dB 1:59 10-Your Nobody 'Til Somebody Loves You
DR12 -0.10 dB -15.65 dB 2:46 11-Take Me
DR11 -2.21 dB -15.72 dB 2:39 12-So Long Baby
DR12 -0.10 dB -15.26 dB 2:28 13-(Remember Me) I'm The One Who Loves You
DR11 -0.10 dB -15.06 dB 2:25 14-King Of The Road
DR10 -0.67 dB -14.10 dB 2:22 15-Welcome To My World
DR12 -0.29 dB -16.20 dB 2:57 16-My Shoes Keep Walkin' Back To You
DR11 -0.68 dB -14.46 dB 2:31 17-Born To Lose
DR11 -0.10 dB -14.92 dB 2:09 18-The Birds And The Bees
DR11 -0.16 dB -14.92 dB 2:43 19-Walk On By
DR11 -0.10 dB -14.26 dB 2:47 20-Red Roses For A Blue Lady
DR10 -0.10 dB -14.65 dB 2:46 21-Take These Chains From My Heart
DR11 -0.10 dB -14.83 dB 3:19 22-Here Comes My Baby
DR11 -0.10 dB -15.58 dB 2:37 23-I Don't Think You Love Me Anymore
DR12 -0.10 dB -16.03 dB 2:42 24-Running Around
--------------------------------------------------------------------------------

Number of tracks: 24
Official DR value: DR11

Samplerate: 44100 Hz
Channels: 2
Bits per sample: 16
Bitrate: 799 kbps
Codec: FLAC
================================================================================


Ripped and Scanned from the Stadium Studios Library July 2012
5% WinRar Recovery





_______________________________________________________________________________________________________________




Dean Martin - Dean Martin Hits Again (1965) + Houston (1965) [2001 EMI-Capitol Remaster]
EAC Secure Rip | FLAC (Image + Cue + Log) including Complete Scans (Jpeg 600 dpi) - 411 MB | MP3x2 (CBR320 Kbps) - 176 MB
Pop, Standards, Vocal, Jazz, Country | Collector's Choice | CCM-255-2 | 54:09 minutes | 5% WinRar Recovery | Hosted on: FilePost



EAC Log
Exact Audio Copy V1.0 beta 2 from 29. April 2011

EAC extraction logfile from 23. July 2012, 17:47

Dean Martin / Dean Martin Hits Again + Houston

Used drive : HL-DT-STDVDRAM GH60N Adapter: 0 ID: 1

Read mode : Secure
Utilize accurate stream : Yes
Defeat audio cache : Yes
Make use of C2 pointers : No

Read offset correction : 667
Overread into Lead-In and Lead-Out : No
Fill up missing offset samples with silence : Yes
Delete leading and trailing silent blocks : No
Null samples used in CRC calculations : Yes
Used interface : Native Win32 interface for Win NT & 2000

Used output format : User Defined Encoder
Selected bitrate : 1024 kBit/s
Quality : High
Add ID3 tag : No
Command line compressor : C:\Program Files (x86)\Exact Audio Copy\Flac\flac.exe
Additional command line options : -V -8 -T "artist=%albumartist%" -T "title=%title%" -T "album=%albumtitle%" -T "date=%year%" -T "genre=%genre%" -T "tracknumber=%tracknr%" %source%


TOC of the extracted CD

Track | Start | Length | Start sector | End sector
---------------------------------------------------------
1 | 0:00.00 | 1:58.22 | 0 | 8871
2 | 1:58.22 | 2:39.03 | 8872 | 20799
3 | 4:37.25 | 2:40.40 | 20800 | 32839
4 | 7:17.65 | 2:02.30 | 32840 | 42019
5 | 9:20.20 | 2:02.50 | 42020 | 51219
6 | 11:22.70 | 2:32.50 | 51220 | 62669
7 | 13:55.45 | 2:34.45 | 62670 | 74264
8 | 16:30.15 | 2:39.40 | 74265 | 86229
9 | 19:09.55 | 2:44.02 | 86230 | 98531
10 | 21:53.57 | 2:42.08 | 98532 | 110689
11 | 24:35.65 | 2:43.67 | 110690 | 122981
12 | 27:19.57 | 2:12.05 | 122982 | 132886
13 | 29:31.62 | 2:26.10 | 132887 | 143846
14 | 31:57.72 | 2:08.70 | 143847 | 153516
15 | 34:06.67 | 2:40.68 | 153517 | 165584
16 | 36:47.60 | 2:52.52 | 165585 | 178536
17 | 39:40.37 | 2:24.60 | 178537 | 189396
18 | 42:05.22 | 2:26.45 | 189397 | 200391
19 | 44:31.67 | 2:14.08 | 200392 | 210449
20 | 46:46.00 | 2:21.60 | 210450 | 221084
21 | 49:07.60 | 2:45.00 | 221085 | 233459
22 | 51:52.60 | 2:14.62 | 233460 | 243571


Range status and errors

Selected range

Filename C:\EAC\Dean Martin - (1965) Dean Martin Hits Again + (1965) Houston [2001 EMI-Capitol Remaster]\Dean Martin - Dean Martin Hits Again + Houston.wav

Peak level 98.8 %
Extraction speed 2.0 X
Range quality 99.9 %
Test CRC 266A4EBC
Copy CRC 266A4EBC
Copy OK

No errors occurred


AccurateRip summary

Track 1 cannot be verified as accurate (confidence 1) [CAD4BFB8], AccurateRip returned [7FC947E0] (AR v2)
Track 2 cannot be verified as accurate (confidence 1) [D4367421], AccurateRip returned [6110D68A] (AR v2)
Track 3 cannot be verified as accurate (confidence 1) [0685E5A3], AccurateRip returned [3AAF2E0E] (AR v2)
Track 4 cannot be verified as accurate (confidence 1) [8936C983], AccurateRip returned [E8A01D36] (AR v2)
Track 5 cannot be verified as accurate (confidence 1) [095395F4], AccurateRip returned [85712BFF] (AR v2)
Track 6 cannot be verified as accurate (confidence 1) [B42E1EC4], AccurateRip returned [DC51BC02] (AR v2)
Track 7 cannot be verified as accurate (confidence 1) [F7E4DE41], AccurateRip returned [631E133B] (AR v2)
Track 8 cannot be verified as accurate (confidence 1) [2FCD7BE2], AccurateRip returned [A5518925] (AR v2)
Track 9 cannot be verified as accurate (confidence 1) [A315811A], AccurateRip returned [3CD69782] (AR v2)
Track 10 cannot be verified as accurate (confidence 1) [F790A8D4], AccurateRip returned [B8423D0E] (AR v2)
Track 11 cannot be verified as accurate (confidence 1) [D2C711DF], AccurateRip returned [466F7258] (AR v2)
Track 12 cannot be verified as accurate (confidence 1) [FFBB41F1], AccurateRip returned [C029F361] (AR v2)
Track 13 cannot be verified as accurate (confidence 1) [56D395A8], AccurateRip returned [F9153072] (AR v2)
Track 14 cannot be verified as accurate (confidence 1) [8538EB39], AccurateRip returned [9287E6A6] (AR v2)
Track 15 cannot be verified as accurate (confidence 1) [DA394CB8], AccurateRip returned [681DDEFE] (AR v2)
Track 16 cannot be verified as accurate (confidence 1) [273E1959], AccurateRip returned [2CE0E8BE] (AR v2)
Track 17 cannot be verified as accurate (confidence 1) [A65D001F], AccurateRip returned [690A9A39] (AR v2)
Track 18 cannot be verified as accurate (confidence 1) [23D133BC], AccurateRip returned [99D48D1B] (AR v2)
Track 19 cannot be verified as accurate (confidence 1) [A9050D50], AccurateRip returned [D44C9043] (AR v2)
Track 20 cannot be verified as accurate (confidence 1) [4500C3FA], AccurateRip returned [98B0C0B1] (AR v2)
Track 21 cannot be verified as accurate (confidence 1) [2B7AF575], AccurateRip returned [6F41BAB3] (AR v2)
Track 22 cannot be verified as accurate (confidence 1) [9C56D77B], AccurateRip returned [A6CA2682] (AR v2)

No tracks could be verified as accurate
You may have a different pressing from the one(s) in the database

End of status report

==== Log checksum 0D33AC3E8005C1383B3AC3FC75CA1193281E8C99EC6E4B2EEAF44E87030DF610 ====


Dean Martin Hits Again (1965)

01. You're Nobody 'Til Somebody Loves You
02. I'll Hold You In My Heart
03. Have A Heart
04. My Heart Is An Open Book
05. You'll Always Be The One I Love
06. Send Me The Pillow You Dream On
07. In The Chapel In The Moonlight
08. Send Me Some Lovin'
09. Wedding Bells
10. I'll Be Seeing You


Houston (1965)

11. Houston
12. The First Thing Ev'ry Morning (And The Last Thing Ev'ry Night)
13. Hammer And Nails
14. Little Lovely One
15. Love, Love, Love
16. Down Home
17. I Will
18. Snap Your Fingers
19. Everybody But Me
20. Old Yellow Line
21. Detour
22. You're The Reason I'm In Love


Albums Released: January 1965, October 1965
Collector's Choice Remaster: October 23, 2001


DR Log
foobar2000 1.1.7 / Dynamic Range Meter 1.1.0
log date: 2012-12-26 22:21:01

--------------------------------------------------------------------------------
Analyzed: Dean Martin / Dean Martin Hits Again + Houston
--------------------------------------------------------------------------------

DR Peak RMS Duration Track
--------------------------------------------------------------------------------
DR11 -0.56 dB -14.79 dB 1:58 01-You're Nobody 'Til Somebody Loves You
DR11 -0.10 dB -14.32 dB 2:39 02-I'll Hold You In My Heart
DR11 -0.10 dB -14.11 dB 2:41 03-Have A Heart
DR11 -1.03 dB -15.46 dB 2:02 04-My Heart Is An Open Book
DR12 -1.38 dB -16.41 dB 2:03 05-You'll Always Be The One I Love
DR11 -0.35 dB -14.56 dB 2:33 06-Send Me The Pillow You Dream On
DR10 -0.10 dB -13.81 dB 2:35 07-In The Chapel In The Moonlight
DR11 -0.10 dB -14.28 dB 2:40 08-Send Me Some Lovin'
DR10 -0.10 dB -12.63 dB 2:44 09-Wedding Bells
DR11 -0.10 dB -14.82 dB 2:42 10-I'll Be Seeing You
DR12 -0.10 dB -15.69 dB 2:44 11-Houston
DR11 -0.31 dB -14.23 dB 2:12 12-The First Thing Ev'ry Morning (And The Last Thing Ev'ry Night)
DR12 -0.10 dB -15.72 dB 2:26 13-Hammer And Nails
DR11 -0.10 dB -14.17 dB 2:09 14-Little Lovely One
DR11 -0.10 dB -14.26 dB 2:41 15-Love, Love, Love
DR11 -0.21 dB -14.72 dB 2:53 16-Down Home
DR11 -0.10 dB -14.02 dB 2:25 17-I Will
DR12 -0.10 dB -17.27 dB 2:27 18-Snap Your Fingers
DR12 -0.10 dB -14.92 dB 2:14 19-Everybody But Me
DR12 -0.10 dB -15.60 dB 2:22 20-Old Yellow Line
DR11 -0.10 dB -14.22 dB 2:45 21-Detour
DR10 -0.25 dB -13.82 dB 2:15 22-You're The Reason I'm In Love
--------------------------------------------------------------------------------

Number of tracks: 22
Official DR value: DR11

Samplerate: 44100 Hz
Channels: 2
Bits per sample: 16
Bitrate: 821 kbps
Codec: FLAC
================================================================================


Ripped and Scanned from the Stadium Studios Library July 2012
5% WinRar Recovery





_______________________________________________________________________________________________________________




Dean Martin - Somewhere There's A Someone (1966) + The Hit Sound Of Dean Martin (1966) [2002 EMI-Capitol Remaster]
EAC Secure Rip | FLAC (Image + Cue + Log) including Complete Scans (Jpeg 600 dpi) - 403 MB | MP3x2 (CBR320 Kbps) - 186 MB
Pop, Standards, Vocal, Jazz, Country | Collector's Choice | CCM-258-2 | 56:27 minutes | 5% WinRar Recovery | Hosted on: FilePost



EAC Log
Exact Audio Copy V1.0 beta 2 from 29. April 2011

EAC extraction logfile from 24. July 2012, 19:29

Dean Martin / Somewhere There's A Someone + The Hit Sound Of Dean Martin

Used drive : HL-DT-STDVDRAM GH60N Adapter: 0 ID: 1

Read mode : Secure
Utilize accurate stream : Yes
Defeat audio cache : Yes
Make use of C2 pointers : No

Read offset correction : 667
Overread into Lead-In and Lead-Out : No
Fill up missing offset samples with silence : Yes
Delete leading and trailing silent blocks : No
Null samples used in CRC calculations : Yes
Used interface : Native Win32 interface for Win NT & 2000

Used output format : User Defined Encoder
Selected bitrate : 1024 kBit/s
Quality : High
Add ID3 tag : No
Command line compressor : C:\Program Files (x86)\Exact Audio Copy\Flac\flac.exe
Additional command line options : -V -8 -T "artist=%albumartist%" -T "title=%title%" -T "album=%albumtitle%" -T "date=%year%" -T "genre=%genre%" -T "tracknumber=%tracknr%" %source%


TOC of the extracted CD

Track | Start | Length | Start sector | End sector
---------------------------------------------------------
1 | 0:00.00 | 2:15.72 | 0 | 10196
2 | 2:15.72 | 2:22.03 | 10197 | 20849
3 | 4:38.00 | 1:48.20 | 20850 | 28969
4 | 6:26.20 | 2:36.32 | 28970 | 40701
5 | 9:02.52 | 3:04.33 | 40702 | 54534
6 | 12:07.10 | 2:43.20 | 54535 | 66779
7 | 14:50.30 | 2:59.15 | 66780 | 80219
8 | 17:49.45 | 2:58.32 | 80220 | 93601
9 | 20:48.02 | 2:25.20 | 93602 | 104496
10 | 23:13.22 | 2:05.60 | 104497 | 113931
11 | 25:19.07 | 3:00.23 | 113932 | 127454
12 | 28:19.30 | 2:17.37 | 127455 | 137766
13 | 30:36.67 | 2:56.65 | 137767 | 151031
14 | 33:33.57 | 2:06.55 | 151032 | 160536
15 | 35:40.37 | 2:22.08 | 160537 | 171194
16 | 38:02.45 | 2:24.20 | 171195 | 182014
17 | 40:26.65 | 2:40.12 | 182015 | 194026
18 | 43:07.02 | 2:08.73 | 194027 | 203699
19 | 45:16.00 | 2:23.25 | 203700 | 214449
20 | 47:39.25 | 2:03.35 | 214450 | 223709
21 | 49:42.60 | 2:10.67 | 223710 | 233526
22 | 51:53.52 | 2:13.10 | 233527 | 243511
23 | 54:06.62 | 2:18.28 | 243512 | 253889


Range status and errors

Selected range

Filename C:\EAC\Dean Martin - (1966) Somewhere There's A Someone + (1966) The Hits Sound Of Dean Martin\Dean Martin - Somewhere There's A Someone + The Hit Sound Of Dean Martin.wav

Peak level 98.8 %
Extraction speed 2.0 X
Range quality 100.0 %
Test CRC 89D75115
Copy CRC 89D75115
Copy OK

No errors occurred


AccurateRip summary

Track 1 accurately ripped (confidence 1) [13965239] (AR v1)
Track 2 accurately ripped (confidence 1) [0235FA11] (AR v1)
Track 3 accurately ripped (confidence 1) [CC8FE603] (AR v1)
Track 4 accurately ripped (confidence 1) [269083A2] (AR v1)
Track 5 accurately ripped (confidence 1) [74C15771] (AR v1)
Track 6 accurately ripped (confidence 1) [25A9EA7A] (AR v1)
Track 7 accurately ripped (confidence 1) [41B8622E] (AR v1)
Track 8 accurately ripped (confidence 1) [B0DA582B] (AR v1)
Track 9 accurately ripped (confidence 1) [7E61C48C] (AR v1)
Track 10 accurately ripped (confidence 1) [82A9C56A] (AR v1)
Track 11 accurately ripped (confidence 1) [56F96E58] (AR v1)
Track 12 accurately ripped (confidence 1) [FAEE55F6] (AR v1)
Track 13 accurately ripped (confidence 1) [525E8201] (AR v1)
Track 14 accurately ripped (confidence 1) [FEE093FF] (AR v1)
Track 15 accurately ripped (confidence 1) [731699D7] (AR v1)
Track 16 accurately ripped (confidence 1) [81FB933C] (AR v1)
Track 17 accurately ripped (confidence 1) [4C6B4D02] (AR v1)
Track 18 accurately ripped (confidence 1) [0738ADB2] (AR v1)
Track 19 accurately ripped (confidence 1) [015F26F6] (AR v1)
Track 20 accurately ripped (confidence 1) [53DC9DA9] (AR v1)
Track 21 accurately ripped (confidence 1) [511D1881] (AR v1)
Track 22 accurately ripped (confidence 1) [8E434B39] (AR v1)
Track 23 accurately ripped (confidence 1) [8CDDA357] (AR v1)

All tracks accurately ripped

End of status report

==== Log checksum 478C6C4B12E111F860AA02C26621575D2FBCC4E138E2DF5C080DAED862D46309 ====


Somewhere There's A Someone (1966)

01. Somewhere There's A Someone
02. Any Time
03. Blue Blue Day
04. I'm So Lonesome I Could Cry
05. Candy Kisses
06. I Can't Help It
07. That Old Clock On The Wall
08. Bouquet Of Roses
09. I Walk The Line
10. Just A Little Lovin'
11. Room Full Of Roses
12. Second Hand Rose


The Hit Sound Of Dean Martin (1966)

13. A Million And One
14. Don't Let The Blue Make You Red
15. Any Time
16. One Lonely Boy
17. I'm Living In Two Worlds
18. Come Running Back
19. Shades
20. Today Is Not The Day
21. Terrible, Tangled Web
22. Nobody But A Fool (Would Love You)
23. Ain't Gonna Try Anymore


Albums Released: February 1966, August 1966
Collector's Choice Remaster: June 11, 2002


DR Log
foobar2000 1.1.7 / Dynamic Range Meter 1.1.0
log date: 2012-12-26 22:32:48

--------------------------------------------------------------------------------
Analyzed: Dean Martin / Somewhere There's A Someone + The Hit Sound Of Dean Martin
--------------------------------------------------------------------------------

DR Peak RMS Duration Track
--------------------------------------------------------------------------------
DR10 -0.10 dB -12.52 dB 2:16 01-Somewhere There's A Someone
DR10 -0.10 dB -11.93 dB 2:22 02-Any Time
DR12 -0.10 dB -14.02 dB 1:48 03-Blue Blue Day
DR10 -0.10 dB -13.25 dB 2:36 04-I'm So Lonesome I Could Cry
DR11 -0.10 dB -14.61 dB 3:04 05-Candy Kisses
DR10 -0.33 dB -14.29 dB 2:43 06-I Can't Help It
DR10 -0.10 dB -12.72 dB 2:59 07-That Old Clock On The Wall
DR10 -0.24 dB -12.98 dB 2:58 08-Bouquet Of Roses
DR11 -0.10 dB -12.98 dB 2:25 09-I Walk The Line
DR10 -0.10 dB -13.01 dB 2:06 10-Just A Little Lovin'
DR11 -0.10 dB -12.70 dB 3:00 11-Room Full Of Roses
DR11 -0.10 dB -13.59 dB 2:17 12-Second Hand Rose
DR11 -0.16 dB -14.13 dB 2:57 13-A Million And One
DR10 -0.10 dB -14.51 dB 2:07 14-Don't Let The Blue Make You Red
DR12 -0.10 dB -14.24 dB 2:22 15-Any Time
DR11 -0.10 dB -13.02 dB 2:24 16-One Lonely Boy
DR11 -0.10 dB -14.22 dB 2:40 17-I'm Living In Two Worlds
DR11 -0.10 dB -13.65 dB 2:09 18-Come Running Back
DR11 -0.10 dB -14.15 dB 2:23 19-Shades
DR11 -0.10 dB -13.10 dB 2:03 20-Today Is Not The Day
DR10 -0.10 dB -13.69 dB 2:11 21-Terrible, Tangled Web
DR11 -0.10 dB -13.34 dB 2:13 22-Nobody But A Fool (Would Love You)
DR10 -0.10 dB -13.71 dB 2:18 23-Ain't Gonna Try Anymore
--------------------------------------------------------------------------------

Number of tracks: 23
Official DR value: DR11

Samplerate: 44100 Hz
Channels: 2
Bits per sample: 16
Bitrate: 766 kbps
Codec: FLAC
================================================================================


Ripped and Scanned from the Stadium Studios Library July 2012
5% WinRar Recovery





_______________________________________________________________________________________________________________




Dean Martin - The Dean Martin TV Show (1966) + Dean Martin Sings Songs From "The Silencers" (1966) [2001 EMI-Capitol Remaster]
EAC Secure Rip | FLAC (Image + Cue + Log) including Complete Scans (Jpeg 600 dpi) - 391 MB | MP3x2 (CBR320 Kbps) - 178 MB
Pop, Standards, Vocal, Jazz, Country | Collector's Choice | CCM-256-2 | 54:25 minutes | 5% WinRar Recovery | Hosted on: FilePost



EAC Log
Exact Audio Copy V1.0 beta 2 from 29. April 2011

EAC extraction logfile from 24. July 2012, 14:54

Dean Martin / The Dean Martin TV Show/The Silencers

Used drive : HL-DT-STDVDRAM GH60N Adapter: 0 ID: 1

Read mode : Secure
Utilize accurate stream : Yes
Defeat audio cache : Yes
Make use of C2 pointers : No

Read offset correction : 667
Overread into Lead-In and Lead-Out : No
Fill up missing offset samples with silence : Yes
Delete leading and trailing silent blocks : No
Null samples used in CRC calculations : Yes
Used interface : Native Win32 interface for Win NT & 2000

Used output format : User Defined Encoder
Selected bitrate : 1024 kBit/s
Quality : High
Add ID3 tag : No
Command line compressor : C:\Program Files (x86)\Exact Audio Copy\Flac\flac.exe
Additional command line options : -V -8 -T "artist=%albumartist%" -T "title=%title%" -T "album=%albumtitle%" -T "date=%year%" -T "genre=%genre%" -T "tracknumber=%tracknr%" %source%


TOC of the extracted CD

Track | Start | Length | Start sector | End sector
---------------------------------------------------------
1 | 0:00.00 | 2:37.00 | 0 | 11774
2 | 2:37.00 | 2:02.47 | 11775 | 20971
3 | 4:39.47 | 2:15.58 | 20972 | 31154
4 | 6:55.30 | 2:31.37 | 31155 | 42516
5 | 9:26.67 | 2:22.55 | 42517 | 53221
6 | 11:49.47 | 2:09.53 | 53222 | 62949
7 | 13:59.25 | 2:14.40 | 62950 | 73039
8 | 16:13.65 | 2:42.15 | 73040 | 85204
9 | 18:56.05 | 2:44.07 | 85205 | 97511
10 | 21:40.12 | 2:31.38 | 97512 | 108874
11 | 24:11.50 | 2:20.37 | 108875 | 119411
12 | 26:32.12 | 2:22.05 | 119412 | 130066
13 | 28:54.17 | 2:28.35 | 130067 | 141201
14 | 31:22.52 | 3:14.30 | 141202 | 155781
15 | 34:37.07 | 2:33.38 | 155782 | 167294
16 | 37:10.45 | 2:15.07 | 167295 | 177426
17 | 39:25.52 | 2:41.73 | 177427 | 189574
18 | 42:07.50 | 2:38.10 | 189575 | 201434
19 | 44:45.60 | 2:34.55 | 201435 | 213039
20 | 47:20.40 | 2:14.55 | 213040 | 223144
21 | 49:35.20 | 2:34.20 | 223145 | 234714
22 | 52:09.40 | 2:13.50 | 234715 | 244739


Range status and errors

Selected range

Filename C:\EAC\Dean Martin - (1966) The Dean Martin TV Show + (1966) Dean Martin Sings Songs From ''The Silencers''\Dean Martin - The Dean Martin TV Show,The Silencers.wav

Peak level 98.8 %
Extraction speed 2.0 X
Range quality 100.0 %
Test CRC 4F30C5AD
Copy CRC 4F30C5AD
Copy OK

No errors occurred


AccurateRip summary

Track 1 accurately ripped (confidence 1) [ECD099B5] (AR v1)
Track 2 accurately ripped (confidence 1) [6A017118] (AR v1)
Track 3 accurately ripped (confidence 1) [97D9D5AC] (AR v1)
Track 4 accurately ripped (confidence 1) [AD034868] (AR v1)
Track 5 accurately ripped (confidence 1) [51186195] (AR v1)
Track 6 accurately ripped (confidence 1) [CD2306A9] (AR v1)
Track 7 accurately ripped (confidence 1) [128893FC] (AR v1)
Track 8 accurately ripped (confidence 1) [0E9569D4] (AR v1)
Track 9 accurately ripped (confidence 1) [10628C67] (AR v1)
Track 10 accurately ripped (confidence 1) [A989B08C] (AR v1)
Track 11 accurately ripped (confidence 1) [EFCBD2C3] (AR v1)
Track 12 accurately ripped (confidence 1) [65AB89BE] (AR v1)
Track 13 accurately ripped (confidence 1) [AE6BB60B] (AR v1)
Track 14 accurately ripped (confidence 1) [2066E78A] (AR v1)
Track 15 accurately ripped (confidence 1) [144C3C73] (AR v1)
Track 16 accurately ripped (confidence 1) [83C34A44] (AR v1)
Track 17 accurately ripped (confidence 1) [A0DA44A0] (AR v1)
Track 18 accurately ripped (confidence 1) [E2617F27] (AR v1)
Track 19 accurately ripped (confidence 1) [7F2977DF] (AR v1)
Track 20 accurately ripped (confidence 1) [B703E44C] (AR v1)
Track 21 accurately ripped (confidence 1) [300661CA] (AR v1)
Track 22 accurately ripped (confidence 1) [6368795F] (AR v1)

All tracks accurately ripped

End of status report

==== Log checksum E441F148F99D69C7734D2C5547D6DA01978D553E7E3CC77C4661F7ED60FD2EFC ====


The Dean Martin TV Show (1966)

01. If I Had You
02. What Can I Say After I Say I'm Sorry
03. The One I Love (Belongs To Somebody Else)
04. S'posin'
05. It's The Talk Of The Town
06. Baby Won't You Please Come Home
07. I've Grown Accustomed To Her Face
08. Just Friends
09. The Things We Did Last Summer
10. Home


Dean Martin Sings Songs From "The Silencers" (1966)

11. The Glory Of Love
12. Empty Saddles In The Old Corral
13. Lovey Kravezit
14. The Last Round-Up
15. Anniversary Song
16. Side By Side
17. South Of The Border
18. Red Sails In The Sunset
19. Lord, You Made The Night Too Long
20. If You Knew Susie
21. On The Sunny Side Of The Street
22. The Silencers


Albums Released: November 1966, March 1966
Collector's Choice Remaster: October 23, 2001


DR Log
foobar2000 1.1.7 / Dynamic Range Meter 1.1.0
log date: 2013-01-01 22:55:08

--------------------------------------------------------------------------------
Analyzed: Dean Martin / The Dean Martin TV Show/The Silencers
--------------------------------------------------------------------------------

DR Peak RMS Duration Track
--------------------------------------------------------------------------------
DR9 -0.10 dB -12.67 dB 2:37 01-If I Had You
DR9 -0.10 dB -12.02 dB 2:03 02-What Can I Say After I Say I'm Sorry
DR8 -0.10 dB -10.51 dB 2:16 03-The One I Love (Belongs To Somebody Else)
DR10 -0.42 dB -12.95 dB 2:31 04-S'posin'
DR9 -0.10 dB -11.98 dB 2:23 05-It's The Talk Of The Town
DR8 -0.10 dB -11.68 dB 2:10 06-Baby Won't You Please Come Home
DR8 -0.10 dB -11.10 dB 2:15 07-I've Grown Accustomed To Her Face
DR10 -0.79 dB -13.23 dB 2:42 08-Just Friends
DR9 -0.10 dB -11.92 dB 2:44 09-The Things We Did Last Summer
DR9 -0.24 dB -11.75 dB 2:32 10-Home
DR10 -0.10 dB -12.24 dB 2:20 11-The Glory Of Love
DR10 -0.10 dB -12.54 dB 2:22 12-Empty Saddles In The Old Corral
DR10 -0.10 dB -11.89 dB 2:28 13-Lovey Kravezit
DR11 -0.72 dB -13.76 dB 3:14 14-The Last Round-Up
DR10 -0.10 dB -12.72 dB 2:34 15-Anniversary Song
DR11 -0.10 dB -13.81 dB 2:15 16-Side By Side
DR11 -0.70 dB -14.65 dB 2:42 17-South Of The Border
DR10 -0.52 dB -13.30 dB 2:38 18-Red Sails In The Sunset
DR10 -0.10 dB -14.13 dB 2:35 19-Lord, You Made The Night Too Long
DR11 -0.10 dB -13.62 dB 2:15 20-If You Knew Susie
DR11 -0.10 dB -12.88 dB 2:34 21-On The Sunny Side Of The Street
DR11 -0.10 dB -13.42 dB 2:14 22-The Silencers
--------------------------------------------------------------------------------

Number of tracks: 22
Official DR value: DR10

Samplerate: 44100 Hz
Channels: 2
Bits per sample: 16
Bitrate: 765 kbps
Codec: FLAC
================================================================================


Ripped and Scanned from the Stadium Studios Library July 2012
5% WinRar Recovery





_______________________________________________________________________________________________________________




Dean Martin - Happiness Is Dean Martin (1967) + Welcome To My World (1967) [2002 EMI-Capitol Remaster]
EAC Secure Rip | FLAC (Image + Cue + Log) including Complete Scans (Jpeg 600 dpi) - 420 MB | MP3x2 (CBR320 Kbps) - 183 MB
Pop, Standards, Vocal, Jazz, Country | Collector's Choice | CCM-259-2 | 56:21 minutes | 5% WinRar Recovery | Hosted on: FilePost



EAC Log
Exact Audio Copy V1.0 beta 2 from 29. April 2011

EAC extraction logfile from 25. July 2012, 15:54

Dean Martin / Happiness Is Dean Martin + Welcome To My World

Used drive : HL-DT-STDVDRAM GH60N Adapter: 0 ID: 1

Read mode : Secure
Utilize accurate stream : Yes
Defeat audio cache : Yes
Make use of C2 pointers : No

Read offset correction : 667
Overread into Lead-In and Lead-Out : No
Fill up missing offset samples with silence : Yes
Delete leading and trailing silent blocks : No
Null samples used in CRC calculations : Yes
Used interface : Native Win32 interface for Win NT & 2000

Used output format : User Defined Encoder
Selected bitrate : 1024 kBit/s
Quality : High
Add ID3 tag : No
Command line compressor : C:\Program Files (x86)\Exact Audio Copy\Flac\flac.exe
Additional command line options : -V -8 -T "artist=%albumartist%" -T "title=%title%" -T "album=%albumtitle%" -T "date=%year%" -T "genre=%genre%" -T "tracknumber=%tracknr%" %source%


TOC of the extracted CD

Track | Start | Length | Start sector | End sector
---------------------------------------------------------
1 | 0:00.00 | 2:21.12 | 0 | 10586
2 | 2:21.12 | 2:40.60 | 10587 | 22646
3 | 5:01.72 | 2:01.40 | 22647 | 31761
4 | 7:03.37 | 2:45.58 | 31762 | 44194
5 | 9:49.20 | 2:58.20 | 44195 | 57564
6 | 12:47.40 | 3:20.40 | 57565 | 72604
7 | 16:08.05 | 2:49.37 | 72605 | 85316
8 | 18:57.42 | 2:34.45 | 85317 | 96911
9 | 21:32.12 | 2:46.63 | 96912 | 109424
10 | 24:19.00 | 2:58.57 | 109425 | 122831
11 | 27:17.57 | 2:27.15 | 122832 | 133871
12 | 29:44.72 | 2:33.43 | 133872 | 145389
13 | 32:18.40 | 3:12.72 | 145390 | 159861
14 | 35:31.37 | 2:45.50 | 159862 | 172286
15 | 38:17.12 | 2:35.05 | 172287 | 183916
16 | 40:52.17 | 2:09.68 | 183917 | 193659
17 | 43:02.10 | 2:48.57 | 193660 | 206316
18 | 45:50.67 | 3:10.68 | 206317 | 220634
19 | 49:01.60 | 2:21.02 | 220635 | 231211
20 | 51:22.62 | 2:35.63 | 231212 | 242899
21 | 53:58.50 | 2:20.55 | 242900 | 253454


Range status and errors

Selected range

Filename C:\EAC\Dean Martin - (1967) Happiness Is Dean Martin + (1967) Welcome To My World [2001 EMI-Capitol Remaster]\Dean Martin - Happiness Is Dean Martin + Welcome To My World.wav

Peak level 98.9 %
Extraction speed 1.9 X
Range quality 100.0 %
Test CRC 80896BAE
Copy CRC 80896BAE
Copy OK

No errors occurred


AccurateRip summary

Track 1 not present in database
Track 2 not present in database
Track 3 not present in database
Track 4 not present in database
Track 5 not present in database
Track 6 not present in database
Track 7 not present in database
Track 8 not present in database
Track 9 not present in database
Track 10 not present in database
Track 11 not present in database
Track 12 not present in database
Track 13 not present in database
Track 14 not present in database
Track 15 not present in database
Track 16 not present in database
Track 17 not present in database
Track 18 not present in database
Track 19 not present in database
Track 20 not present in database
Track 21 not present in database

None of the tracks are present in the AccurateRip database

End of status report

==== Log checksum 2A70BB5B964D0AE34F0CB58561908D591C282046D48A6E3A303636E0515C89E7 ====


Happiness Is Dean Martin (1967)

01. Lay Some Happiness On Me
02. Think About Me
03. I'm Not The Marrying Kind
04. If I Ever Get Back To Georgia
05. It Just Happened That Way
06. Let The Good Times In
07. You've Still Got A Place In My Heart
08. Sweet Sweet Lovable You
09. He's Got You
10. Thirty More Miles To San Diego
11. Nobody's Baby Again


Welcome To My World (1967)

12. In The Chapel In The Moonlight
13. Release Me And Let Me Love You Again
14. I Can't Help Remembering You
15. Turn To Me
16. Wallpaper Roses
17. Little Ole' Wine Drinker Me
18. The Green Green Grass Of Home
19. A Place In The Shade
20. Pride
21. Welcome To My World


Albums Released: April 1967, July 1967
Collector's Choice Remaster: June 11, 2002


DR Log
foobar2000 1.1.7 / Dynamic Range Meter 1.1.0
log date: 2013-01-01 23:05:14

--------------------------------------------------------------------------------
Analyzed: Dean Martin / Happiness Is Dean Martin + Welcome To My World
--------------------------------------------------------------------------------

DR Peak RMS Duration Track
--------------------------------------------------------------------------------
DR12 -0.10 dB -14.49 dB 2:21 01-Lay Some Happiness On Me
DR12 -0.10 dB -15.60 dB 2:41 02-Think About Me
DR11 -0.10 dB -15.10 dB 2:02 03-I'm Not The Marrying Kind
DR11 -0.10 dB -13.45 dB 2:46 04-If I Ever Get Back To Georgia
DR10 -0.10 dB -12.95 dB 2:58 05-It Just Happened That Way
DR11 -0.10 dB -14.33 dB 3:21 06-Let The Good Times In
DR10 -0.10 dB -12.92 dB 2:49 07-You've Still Got A Place In My Heart
DR11 -0.10 dB -13.78 dB 2:35 08-Sweet Sweet Lovable You
DR12 -0.10 dB -14.78 dB 2:47 09-He's Got You
DR11 -0.10 dB -14.29 dB 2:59 10-Thirty More Miles To San Diego
DR10 -0.10 dB -13.32 dB 2:27 11-Nobody's Baby Again
DR10 -0.10 dB -12.68 dB 2:34 12-In The Chapel In The Moonlight
DR10 -0.10 dB -13.18 dB 3:13 13-Release Me And Let Me Love You Again
DR11 -0.10 dB -13.70 dB 2:46 14-I Can't Help Remembering You
DR11 -0.10 dB -14.12 dB 2:35 15-Turn To Me
DR10 -0.10 dB -13.71 dB 2:10 16-Wallpaper Roses
DR11 -0.10 dB -13.62 dB 2:49 17-Little Ole' Wine Drinker Me
DR11 -0.10 dB -13.93 dB 3:11 18-The Green Green Grass Of Home
DR11 -0.10 dB -12.96 dB 2:21 19-A Place In The Shade
DR11 -0.10 dB -12.85 dB 2:36 20-Pride
DR9 -0.10 dB -12.66 dB 2:21 21-Welcome To My World
--------------------------------------------------------------------------------

Number of tracks: 21
Official DR value: DR11

Samplerate: 44100 Hz
Channels: 2
Bits per sample: 16
Bitrate: 799 kbps
Codec: FLAC
================================================================================


Ripped and Scanned from the Stadium Studios Library July 2012
5% WinRar Recovery





_______________________________________________________________________________________________________________




Dean Martin - Gentle On My Mind (1968) + I Take A Lot Of Pride In What I Am (1969) [2002 EMI-Capitol Remaster]
EAC Secure Rip | FLAC (Image + Cue + Log) including Complete Scans (Jpeg 600 dpi) - 426 MB | MP3x2 (CBR320 Kbps) - 189 MB
Pop, Standards, Vocal, Jazz, Country | Collector's Choice | CCM-260-2 | 60:48 minutes | 5% WinRar Recovery | Hosted on: FilePost



EAC Log
Exact Audio Copy V1.0 beta 2 from 29. April 2011

EAC extraction logfile from 25. July 2012, 18:47

Dean Martin / Gentle On My Mind + I Take A Lot Of Pride In What I Am

Used drive : HL-DT-STDVDRAM GH60N Adapter: 0 ID: 1

Read mode : Secure
Utilize accurate stream : Yes
Defeat audio cache : Yes
Make use of C2 pointers : No

Read offset correction : 667
Overread into Lead-In and Lead-Out : No
Fill up missing offset samples with silence : Yes
Delete leading and trailing silent blocks : No
Null samples used in CRC calculations : Yes
Used interface : Native Win32 interface for Win NT & 2000

Used output format : User Defined Encoder
Selected bitrate : 1024 kBit/s
Quality : High
Add ID3 tag : No
Command line compressor : C:\Program Files (x86)\Exact Audio Copy\Flac\flac.exe
Additional command line options : -V -8 -T "artist=%albumartist%" -T "title=%title%" -T "album=%albumtitle%" -T "date=%year%" -T "genre=%genre%" -T "tracknumber=%tracknr%" %source%


TOC of the extracted CD

Track | Start | Length | Start sector | End sector
---------------------------------------------------------
1 | 0:00.00 | 3:29.20 | 0 | 15694
2 | 3:29.20 | 2:48.05 | 15695 | 28299
3 | 6:17.25 | 4:00.15 | 28300 | 46314
4 | 10:17.40 | 2:25.65 | 46315 | 57254
5 | 12:43.30 | 2:46.42 | 57255 | 69746
6 | 15:29.72 | 2:38.68 | 69747 | 81664
7 | 18:08.65 | 2:40.52 | 81665 | 93716
8 | 20:49.42 | 3:08.03 | 93717 | 107819
9 | 23:57.45 | 2:27.52 | 107820 | 118896
10 | 26:25.22 | 2:53.20 | 118897 | 131891
11 | 29:18.42 | 3:17.20 | 131892 | 146686
12 | 32:35.62 | 3:29.65 | 146687 | 162426
13 | 36:05.52 | 3:03.70 | 162427 | 176221
14 | 39:09.47 | 3:03.25 | 176222 | 189971
15 | 42:12.72 | 2:33.30 | 189972 | 201476
16 | 44:46.27 | 2:44.28 | 201477 | 213804
17 | 47:30.55 | 2:38.70 | 213805 | 225724
18 | 50:09.50 | 2:45.55 | 225725 | 238154
19 | 52:55.30 | 3:18.27 | 238155 | 253031
20 | 56:13.57 | 4:32.33 | 253032 | 273464


Range status and errors

Selected range

Filename C:\EAC\Dean Martin - (1968) Gentle On My Mind + (1969) I Take A Lot Of Pride In What I Am [2001 EMI-Capitol Remaster]\Dean Martin - Gentle On My Mind + I Take A Lot Of Pride In What I Am.wav

Peak level 98.8 %
Extraction speed 1.9 X
Range quality 100.0 %
Test CRC EEA96459
Copy CRC EEA96459
Copy OK

No errors occurred


AccurateRip summary

Track 1 accurately ripped (confidence 1) [D2539A8D] (AR v1)
Track 2 accurately ripped (confidence 1) [46B833F0] (AR v1)
Track 3 accurately ripped (confidence 1) [126D11EA] (AR v1)
Track 4 accurately ripped (confidence 1) [E546D8BF] (AR v1)
Track 5 accurately ripped (confidence 1) [6009690A] (AR v1)
Track 6 accurately ripped (confidence 1) [424C5C5A] (AR v1)
Track 7 accurately ripped (confidence 1) [ADD8D8A0] (AR v1)
Track 8 accurately ripped (confidence 1) [390E8495] (AR v1)
Track 9 accurately ripped (confidence 1) [88314682] (AR v1)
Track 10 accurately ripped (confidence 1) [045EC9E2] (AR v1)
Track 11 accurately ripped (confidence 1) [D766A394] (AR v1)
Track 12 accurately ripped (confidence 1) [3FBD193F] (AR v1)
Track 13 accurately ripped (confidence 1) [99E89AD4] (AR v1)
Track 14 accurately ripped (confidence 1) [B5C4528F] (AR v1)
Track 15 accurately ripped (confidence 1) [98C0FFE5] (AR v1)
Track 16 accurately ripped (confidence 1) [E5A91CB1] (AR v1)
Track 17 accurately ripped (confidence 1) [FC8A3353] (AR v1)
Track 18 accurately ripped (confidence 1) [3D1BFBEC] (AR v1)
Track 19 accurately ripped (confidence 1) [05332B4B] (AR v1)
Track 20 accurately ripped (confidence 1) [38A17AA9] (AR v1)

All tracks accurately ripped

End of status report

==== Log checksum B43DA06FFECB58297A2F2DA09BFDECD4F134724AE91D65B431A21C6396DF1993 ====


Gentle On My Mind (1968)

01. Not Enough Indians
02. That Old Time Feelin'
03. Honey
04. Welcome To My Heart
05. By The Time I Get To Phoenix
06. Gentle On My Mind
07. That's When I See The Blues
08. Rainbows Are Back In Style
09. Drowning In My Tears
10. April Again


I Take A Lot Of Pride In What I Am (1969)

11. I Take A Lot Of Pride In What I Am
12. Make It Rain
13. Where The Blue And Lonely Go
14. If You Ever Get Around To Loving Me
15. Do You Believe This Town
16. One Cup Of Happiness (And One Peace Of Mind)
17. The Sun Is Shinin' (On Everybody But Me)
18. The Sneaky Little Side Of Me
19. Crying Time
20. Little Green Apples


Albums Released: November 1968, August 1969
Collector's Choice Remaster: July 9, 2002


DR Log
foobar2000 1.1.7 / Dynamic Range Meter 1.1.0
log date: 2013-01-01 23:21:53

--------------------------------------------------------------------------------
Analyzed: Dean Martin / Gentle On My Mind + I Take A Lot Of Pride In What I Am
--------------------------------------------------------------------------------

DR Peak RMS Duration Track
--------------------------------------------------------------------------------
DR10 -0.10 dB -12.33 dB 3:29 01-Not Enough Indians
DR10 -0.10 dB -12.94 dB 2:48 02-That Old Time Feelin'
DR9 -0.10 dB -12.43 dB 4:00 03-Honey
DR10 -0.10 dB -12.77 dB 2:26 04-Welcome To My Heart
DR9 -0.10 dB -11.77 dB 2:47 05-By The Time I Get To Phoenix
DR10 -0.10 dB -13.48 dB 2:39 06-Gentle On My Mind
DR9 -0.10 dB -11.30 dB 2:41 07-That's When I See The Blues
DR11 -0.10 dB -12.54 dB 3:08 08-Rainbows Are Back In Style
DR9 -0.10 dB -12.42 dB 2:28 09-Drowning In My Tears
DR10 -0.10 dB -12.31 dB 2:53 10-April Again
DR12 -0.21 dB -14.46 dB 3:17 11-I Take A Lot Of Pride In What I Am
DR12 -0.38 dB -14.08 dB 3:30 12-Make It Rain
DR12 -0.10 dB -14.17 dB 3:04 13-Where The Blue And Lonely Go
DR11 -0.10 dB -14.28 dB 3:03 14-If You Ever Get Around To Loving Me
DR11 -0.26 dB -13.64 dB 2:33 15-Do You Believe This Town
DR11 -0.83 dB -13.97 dB 2:44 16-One Cup Of Happiness (And One Peace Of Mind)
DR12 -0.27 dB -14.88 dB 2:39 17-The Sun Is Shinin' (On Everybody But Me)
DR11 -0.69 dB -14.38 dB 2:46 18-The Sneaky Little Side Of Me
DR12 -0.33 dB -16.37 dB 3:18 19-Crying Time
DR11 -0.26 dB -15.64 dB 4:32 20-Little Green Apples
--------------------------------------------------------------------------------

Number of tracks: 20
Official DR value: DR11

Samplerate: 44100 Hz
Channels: 2
Bits per sample: 16
Bitrate: 763 kbps
Codec: FLAC
================================================================================


Ripped and Scanned from the Stadium Studios Library July 2012
5% WinRar Recovery





_______________________________________________________________________________________________________________




Dean Martin - My Woman, My Woman, My Wife (1970) + For The Good Times (1971) [2002 EMI-Capitol Remaster]
EAC Secure Rip | FLAC (Image + Cue + Log) including Complete Scans (Jpeg 600 dpi) - 406 MB | MP3x2 (CBR320 Kbps) - 178 MB
Pop, Standards, Vocal, Jazz, Country | Collector's Choice | CCM-261-2 | 56:23 minutes | 5% WinRar Recovery | Hosted on: FilePost



EAC Log
Exact Audio Copy V1.0 beta 2 from 29. April 2011

EAC extraction logfile from 27. July 2012, 14:01

Dean Martin / My Woman, My Woman, My Wife + For The Good Times

Used drive : HL-DT-STDVDRAM GH60N Adapter: 0 ID: 1

Read mode : Secure
Utilize accurate stream : Yes
Defeat audio cache : Yes
Make use of C2 pointers : No

Read offset correction : 667
Overread into Lead-In and Lead-Out : No
Fill up missing offset samples with silence : Yes
Delete leading and trailing silent blocks : No
Null samples used in CRC calculations : Yes
Used interface : Native Win32 interface for Win NT & 2000

Used output format : User Defined Encoder
Selected bitrate : 1024 kBit/s
Quality : High
Add ID3 tag : No
Command line compressor : C:\Program Files (x86)\Exact Audio Copy\Flac\flac.exe
Additional command line options : -V -8 -T "artist=%albumartist%" -T "title=%title%" -T "album=%albumtitle%" -T "date=%year%" -T "genre=%genre%" -T "tracknumber=%tracknr%" %source%


TOC of the extracted CD

Track | Start | Length | Start sector | End sector
---------------------------------------------------------
1 | 0:00.00 | 3:30.45 | 0 | 15794
2 | 3:30.45 | 2:44.70 | 15795 | 28164
3 | 6:15.40 | 3:07.47 | 28165 | 42236
4 | 9:23.12 | 2:47.53 | 42237 | 54814
5 | 12:10.65 | 2:28.30 | 54815 | 65944
6 | 14:39.20 | 3:43.10 | 65945 | 82679
7 | 18:22.30 | 2:32.70 | 82680 | 94149
8 | 20:55.25 | 2:44.65 | 94150 | 106514
9 | 23:40.15 | 2:24.22 | 106515 | 117336
10 | 26:04.37 | 2:42.15 | 117337 | 129501
11 | 28:46.52 | 3:52.35 | 129502 | 146936
12 | 32:39.12 | 2:36.28 | 146937 | 158664
13 | 35:15.40 | 3:05.50 | 158665 | 172589
14 | 38:21.15 | 2:12.72 | 172590 | 182561
15 | 40:34.12 | 2:45.58 | 182562 | 194994
16 | 43:19.70 | 2:48.10 | 194995 | 207604
17 | 46:08.05 | 2:39.62 | 207605 | 219591
18 | 48:47.67 | 2:34.50 | 219592 | 231191
19 | 51:22.42 | 2:20.23 | 231192 | 241714
20 | 53:42.65 | 2:40.00 | 241715 | 253714


Range status and errors

Selected range

Filename C:\EAC\Dean Martin - (1970) My Woman, My Woman, My Wife + (1971) For The Good Times [2001 EMI-Capitol Remaster]\Dean Martin - My Woman, My Woman, My Wife + For The Good Times.wav

Suspicious position 0:26:02
Suspicious position 0:48:46
Suspicious position 0:56:22

Peak level 98.9 %
Extraction speed 1.4 X
Range quality 99.8 %
Test CRC 2CE15CF3
Copy CRC A3CC88F0
Copy finished

There were errors


AccurateRip summary

Track 1 accurately ripped (confidence 3) [119FB030] (AR v1)
Track 2 accurately ripped (confidence 3) [54834C40] (AR v1)
Track 3 accurately ripped (confidence 3) [ECAADA4E] (AR v1)
Track 4 accurately ripped (confidence 3) [8474F810] (AR v1)
Track 5 accurately ripped (confidence 3) [916CDAA7] (AR v1)
Track 6 accurately ripped (confidence 3) [D6B4EBCC] (AR v1)
Track 7 accurately ripped (confidence 3) [FE415840] (AR v1)
Track 8 accurately ripped (confidence 3) [AFB4C342] (AR v1)
Track 9 cannot be verified as accurate (confidence 3) [B52E473E], AccurateRip returned [4CB9F3BA] (AR v2)
Track 10 accurately ripped (confidence 3) [897D1237] (AR v1)
Track 11 cannot be verified as accurate (confidence 3) [BB86D805], AccurateRip returned [9AE5BDA1] (AR v2)
Track 12 accurately ripped (confidence 3) [A264F2DD] (AR v1)
Track 13 accurately ripped (confidence 3) [6BD3C85A] (AR v1)
Track 14 accurately ripped (confidence 3) [E13BA317] (AR v1)
Track 15 accurately ripped (confidence 3) [CDAA2378] (AR v1)
Track 16 cannot be verified as accurate (confidence 3) [926BA3D3], AccurateRip returned [701632F4] (AR v2)
Track 17 cannot be verified as accurate (confidence 3) [860305C1], AccurateRip returned [F65F7C1A] (AR v2)
Track 18 accurately ripped (confidence 3) [69B09BD9] (AR v1)
Track 19 cannot be verified as accurate (confidence 3) [4A2C9C0A], AccurateRip returned [0730C9CF] (AR v2)
Track 20 cannot be verified as accurate (confidence 3) [E72954A2], AccurateRip returned [5A4F31F9] (AR v2)

14 track(s) accurately ripped
6 track(s) could not be verified as accurate

Some tracks could not be verified as accurate

End of status report

==== Log checksum 0B2D64C049FC8332CF6B8A4E07964E84EC5D18625C7150F9F6EEE4AD2D23DF4A ====

Note About This Rip
This disc is bad! All of them are bad!! There was some problem with the pressing and they discontinued it and never replaced it. This is by far the very rarest disc in this collection. The rip sounds perfectly fine.


My Woman, My Woman, My Wife (1970)

01. My Woman, My Woman, My Wife
02. Once A Day
03. Here We Go Again
04. Make The World Go Away
05. The Tips Of My Fingers
06. Detroit City
07. Together Again
08. Heart Over Mind
09. Turn The World Around
10. It Keeps On A-Hurtin'


For The Good Times (1971)

11. For The Good Times
12. Marry Me
13. Georgia Sunshine
14. Invisible Tears
15. Raindrops Keep Fallin' On My Head
16. A Perfect Mountain
17. Raining In My Heart
18. She's A Little Bit Country
19. For Once In My Life
20. Sweetheart


Albums Released: July 1970, January 1971
Collector's Choice Remaster: July 9, 2002


DR Log
foobar2000 1.1.7 / Dynamic Range Meter 1.1.0
log date: 2013-01-02 09:32:59

--------------------------------------------------------------------------------
Analyzed: Dean Martin / My Woman, My Woman, My Wife + For The Good Times
--------------------------------------------------------------------------------

DR Peak RMS Duration Track
--------------------------------------------------------------------------------
DR11 -0.10 dB -13.60 dB 3:31 01-My Woman, My Woman, My Wife
DR11 -0.10 dB -14.31 dB 2:45 02-Once A Day
DR10 -0.10 dB -14.84 dB 3:08 03-Here We Go Again
DR10 -0.10 dB -13.17 dB 2:48 04-Make The World Go Away
DR10 -0.10 dB -13.76 dB 2:28 05-The Tips Of My Fingers
DR11 -0.10 dB -14.03 dB 3:43 06-Detroit City
DR10 -0.10 dB -13.16 dB 2:33 07-Together Again
DR10 -0.10 dB -12.86 dB 2:45 08-Heart Over Mind
DR11 -0.10 dB -13.50 dB 2:24 09-Turn The World Around
DR11 -0.11 dB -14.38 dB 2:42 10-It Keeps On A-Hurtin'
DR11 -3.10 dB -17.17 dB 3:52 11-For The Good Times
DR11 -0.98 dB -14.19 dB 2:36 12-Marry Me
DR12 -0.10 dB -14.66 dB 3:06 13-Georgia Sunshine
DR11 -0.10 dB -12.78 dB 2:13 14-Invisible Tears
DR11 -0.10 dB -13.38 dB 2:46 15-Raindrops Keep Fallin' On My Head
DR12 -0.10 dB -14.89 dB 2:48 16-A Perfect Mountain
DR11 -0.10 dB -14.23 dB 2:40 17-Raining In My Heart
DR11 -0.10 dB -13.78 dB 2:35 18-She's A Little Bit Country
DR12 -0.10 dB -14.83 dB 2:20 19-For Once In My Life
DR11 -0.10 dB -13.72 dB 2:40 20-Sweetheart
--------------------------------------------------------------------------------

Number of tracks: 20
Official DR value: DR11

Samplerate: 44100 Hz
Channels: 2
Bits per sample: 16
Bitrate: 773 kbps
Codec: FLAC
================================================================================


Ripped and Scanned from the Stadium Studios Library July 2012
5% WinRar Recovery





_______________________________________________________________________________________________________________




Dean Martin - Dino (1972) + You're The Best Thing That Ever Happened To Me (1973) [2002 EMI-Capitol Remaster]
EAC Secure Rip | FLAC (Image + Cue + Log) including Complete Scans (Jpeg 600 dpi) - 409 MB | MP3x2 (CBR320 Kbps) - 181 MB
Pop, Standards, Vocal, Jazz, Country | Collector's Choice | CCM-262-2 | 57:41 minutes | 5% WinRar Recovery | Hosted on: FilePost



EAC Log
Exact Audio Copy V1.0 beta 2 from 29. April 2011

EAC extraction logfile from 28. July 2012, 21:00

Dean Martin / Dino + You're The Best Thing That Ever Happened To Me

Used drive : HL-DT-STDVDRAM GH60N Adapter: 0 ID: 1

Read mode : Secure
Utilize accurate stream : Yes
Defeat audio cache : Yes
Make use of C2 pointers : No

Read offset correction : 667
Overread into Lead-In and Lead-Out : No
Fill up missing offset samples with silence : Yes
Delete leading and trailing silent blocks : No
Null samples used in CRC calculations : Yes
Used interface : Native Win32 interface for Win NT & 2000

Used output format : User Defined Encoder
Selected bitrate : 1024 kBit/s
Quality : High
Add ID3 tag : No
Command line compressor : C:\Program Files (x86)\Exact Audio Copy\Flac\flac.exe
Additional command line options : -V -8 -T "artist=%albumartist%" -T "title=%title%" -T "album=%albumtitle%" -T "date=%year%" -T "genre=%genre%" -T "tracknumber=%tracknr%" %source%


TOC of the extracted CD

Track | Start | Length | Start sector | End sector
---------------------------------------------------------
1 | 0:00.00 | 3:18.55 | 0 | 14904
2 | 3:18.55 | 3:11.15 | 14905 | 29244
3 | 6:29.70 | 2:21.55 | 29245 | 39874
4 | 8:51.50 | 3:02.50 | 39875 | 53574
5 | 11:54.25 | 2:53.10 | 53575 | 66559
6 | 14:47.35 | 2:53.37 | 66560 | 79571
7 | 17:40.72 | 3:04.63 | 79572 | 93434
8 | 20:45.60 | 2:16.62 | 93435 | 103696
9 | 23:02.47 | 2:30.30 | 103697 | 114976
10 | 25:33.02 | 3:25.05 | 114977 | 130356
11 | 28:58.07 | 2:43.50 | 130357 | 142631
12 | 31:41.57 | 4:01.33 | 142632 | 160739
13 | 35:43.15 | 3:09.10 | 160740 | 174924
14 | 38:52.25 | 2:44.47 | 174925 | 187271
15 | 41:36.72 | 2:24.10 | 187272 | 198081
16 | 44:01.07 | 2:48.13 | 198082 | 210694
17 | 46:49.20 | 2:29.50 | 210695 | 221919
18 | 49:18.70 | 2:54.72 | 221920 | 235041
19 | 52:13.67 | 2:39.35 | 235042 | 247001
20 | 54:53.27 | 2:47.50 | 247002 | 259576


Range status and errors

Selected range

Filename C:\EAC\Dean Martin - (1972) Dino + (1973) You're The Best Thing That Ever Happened To Me [2001 EMI-Capitol Remaster]\Dean Martin - Dino + You're The Best Thing That Ever Happened To Me.wav

Peak level 98.9 %
Extraction speed 1.9 X
Range quality 100.0 %
Test CRC B2D7195E
Copy CRC B2D7195E
Copy OK

No errors occurred


AccurateRip summary

Track 1 accurately ripped (confidence 2) [0A99A3EC] (AR v1)
Track 2 accurately ripped (confidence 2) [6D416E14] (AR v1)
Track 3 accurately ripped (confidence 2) [D671F2D7] (AR v1)
Track 4 accurately ripped (confidence 2) [B11AB08E] (AR v1)
Track 5 accurately ripped (confidence 2) [A1E21C70] (AR v1)
Track 6 accurately ripped (confidence 2) [12F4F2C9] (AR v1)
Track 7 accurately ripped (confidence 2) [68C63DB7] (AR v1)
Track 8 accurately ripped (confidence 2) [8AE03B8A] (AR v1)
Track 9 accurately ripped (confidence 2) [0CDB2037] (AR v1)
Track 10 accurately ripped (confidence 2) [31503DD0] (AR v1)
Track 11 accurately ripped (confidence 2) [AD6AEFD4] (AR v1)
Track 12 accurately ripped (confidence 2) [8317D3E2] (AR v1)
Track 13 accurately ripped (confidence 2) [EA7E8501] (AR v1)
Track 14 accurately ripped (confidence 2) [414C8756] (AR v1)
Track 15 accurately ripped (confidence 2) [9CE99821] (AR v1)
Track 16 accurately ripped (confidence 2) [98B05973] (AR v1)
Track 17 accurately ripped (confidence 2) [1D000920] (AR v1)
Track 18 accurately ripped (confidence 2) [504388FA] (AR v1)
Track 19 accurately ripped (confidence 2) [9B81D61C] (AR v1)
Track 20 accurately ripped (confidence 2) [DCE289EB] (AR v1)

All tracks accurately ripped

End of status report

==== Log checksum B65F696192FC8D0F5D6F07406C4A3C35651231A1F00D71B03DAC8B0240467C91 ====



Dino (1972)

01. What's Yesterday
02. The Small Exception Of Me
03. Just The Other Side Of Nowhere
04. Blue Memories
05. Guess Who
06. Party Dolls And Wine
07. I Don't Know What I'm Doing
08. I Can Give You What You Want Now
09. The Right Kind Of Woman
10. Kiss The World Goodbye


You're The Best Thing That Ever Happened To Me (1973)

11. Free To Carry On
12. You're The Best Thing That Ever Happened To Me
13. I'm Confessin' (That I Love You)
14. Amor Mio
15. You Better Move On
16. Tie A Yellow Ribbon ('Round The Old Oak Tree)
17. Baby Won't You Please Come Home
18. I Don't Know Why
19. Gimme A Little Kiss (Will Ya, Huh!)
20. Get On With Your Livin'


Albums Released: January 1972, November 1973
Collector's Choice Remaster: August 13, 2002


DR Log
foobar2000 1.1.7 / Dynamic Range Meter 1.1.0
log date: 2013-01-02 10:15:13

--------------------------------------------------------------------------------
Analyzed: Dean Martin / Dino + You're The Best Thing That Ever Happened To Me
--------------------------------------------------------------------------------

DR Peak RMS Duration Track
--------------------------------------------------------------------------------
DR13 -0.11 dB -15.65 dB 3:19 01-What's Yesterday
DR12 -0.10 dB -15.16 dB 3:11 02-The Small Exception Of Me
DR12 -0.10 dB -16.38 dB 2:22 03-Just The Other Side Of Nowhere
DR13 -0.10 dB -15.70 dB 3:03 04-Blue Memories
DR12 -0.10 dB -15.76 dB 2:53 05-Guess Who
DR15 -0.10 dB -17.13 dB 2:53 06-Party Dolls And Wine
DR12 -0.10 dB -14.51 dB 3:05 07-I Don't Know What I'm Doing
DR12 -0.10 dB -15.85 dB 2:17 08-I Can Give You What You Want Now
DR12 -0.10 dB -15.73 dB 2:30 09-The Right Kind Of Woman
DR13 -0.10 dB -16.47 dB 3:25 10-Kiss The World Goodbye
DR12 -0.10 dB -16.00 dB 2:44 11-Free To Carry On
DR12 -0.10 dB -15.28 dB 4:01 12-You're The Best Thing That Ever Happened To Me
DR12 -0.10 dB -15.35 dB 3:09 13-I'm Confessin' (That I Love You)
DR11 -0.10 dB -13.72 dB 2:45 14-Amor Mio
DR12 -0.10 dB -15.63 dB 2:24 15-You Better Move On
DR13 -0.10 dB -15.88 dB 2:48 16-Tie A Yellow Ribbon ('Round The Old Oak Tree)
DR11 -0.10 dB -14.17 dB 2:30 17-Baby Won't You Please Come Home
DR13 -0.10 dB -16.25 dB 2:55 18-I Don't Know Why
DR12 -0.10 dB -14.86 dB 2:39 19-Gimme A Little Kiss (Will Ya, Huh!)
DR11 -0.10 dB -14.50 dB 2:48 20-Get On With Your Livin'
--------------------------------------------------------------------------------

Number of tracks: 20
Official DR value: DR12

Samplerate: 44100 Hz
Channels: 2
Bits per sample: 16
Bitrate: 766 kbps
Codec: FLAC
================================================================================


Ripped and Scanned from the Stadium Studios Library July 2012
5% WinRar Recovery





_______________________________________________________________________________________________________________




Dean Martin - Sittin' On Top Of The World (1973) + Once In A While (1978) [2002 EMI-Capitol Remaster]
EAC Secure Rip | FLAC (Image + Cue + Log) including Complete Scans (Jpeg 600 dpi) - 373 MB | MP3x2 (CBR320 Kbps) - 177 MB
Pop, Standards, Vocal, Jazz, Country | Collector's Choice | CCM-257-2 | 53:20 minutes | 5% WinRar Recovery | Hosted on: FilePost



EAC Log
Exact Audio Copy V1.0 beta 2 from 29. April 2011

EAC extraction logfile from 10. August 2012, 15:37

Dean Martin / Sittin' On Top Of The World + Once In A While

Used drive : HL-DT-STDVDRAM GH60N Adapter: 0 ID: 1

Read mode : Secure
Utilize accurate stream : Yes
Defeat audio cache : Yes
Make use of C2 pointers : No

Read offset correction : 667
Overread into Lead-In and Lead-Out : No
Fill up missing offset samples with silence : Yes
Delete leading and trailing silent blocks : No
Null samples used in CRC calculations : Yes
Used interface : Native Win32 interface for Win NT & 2000

Used output format : User Defined Encoder
Selected bitrate : 1024 kBit/s
Quality : High
Add ID3 tag : No
Command line compressor : C:\Program Files (x86)\Exact Audio Copy\Flac\flac.exe
Additional command line options : -V -8 -T "artist=%albumartist%" -T "title=%title%" -T "album=%albumtitle%" -T "date=%year%" -T "genre=%genre%" -T "tracknumber=%tracknr%" %source%


TOC of the extracted CD

Track | Start | Length | Start sector | End sector
---------------------------------------------------------
1 | 0:00.00 | 2:13.12 | 0 | 9986
2 | 2:13.12 | 2:22.38 | 9987 | 20674
3 | 4:35.50 | 2:54.12 | 20675 | 33736
4 | 7:29.62 | 2:14.23 | 33737 | 43809
5 | 9:44.10 | 2:01.20 | 43810 | 52904
6 | 11:45.30 | 2:09.60 | 52905 | 62639
7 | 13:55.15 | 2:40.10 | 62640 | 74649
8 | 16:35.25 | 2:29.05 | 74650 | 85829
9 | 19:04.30 | 2:33.50 | 85830 | 97354
10 | 21:38.05 | 2:23.27 | 97355 | 108106
11 | 24:01.32 | 4:18.38 | 108107 | 127494
12 | 28:19.70 | 2:42.65 | 127495 | 139709
13 | 31:02.60 | 2:50.70 | 139710 | 152529
14 | 33:53.55 | 2:28.42 | 152530 | 163671
15 | 36:22.22 | 2:58.60 | 163672 | 177081
16 | 39:21.07 | 2:27.65 | 177082 | 188171
17 | 41:48.72 | 2:32.28 | 188172 | 199599
18 | 44:21.25 | 3:12.42 | 199600 | 214041
19 | 47:33.67 | 2:55.65 | 214042 | 227231
20 | 50:29.57 | 2:49.28 | 227232 | 239934


Range status and errors

Selected range

Filename C:\EAC\Dean Martin - (1973) Sittin' On Top Of The World + (1978) Once In A While [2001 EMI-Capitol Remaster]\Dean Martin - Sittin' On Top Of The World + Once In A While.wav

Peak level 98.8 %
Extraction speed 1.8 X
Range quality 100.0 %
Test CRC F0331C1A
Copy CRC F0331C1A
Copy OK

No errors occurred


AccurateRip summary

Track 1 accurately ripped (confidence 1) [5E9E436E] (AR v1)
Track 2 accurately ripped (confidence 1) [3968FE80] (AR v1)
Track 3 accurately ripped (confidence 1) [18961116] (AR v1)
Track 4 accurately ripped (confidence 1) [29B28628] (AR v1)
Track 5 accurately ripped (confidence 1) [718F019A] (AR v1)
Track 6 accurately ripped (confidence 1) [09991387] (AR v1)
Track 7 accurately ripped (confidence 1) [0D2931E2] (AR v1)
Track 8 accurately ripped (confidence 1) [4D1BB7CD] (AR v1)
Track 9 accurately ripped (confidence 1) [46D7660D] (AR v1)
Track 10 accurately ripped (confidence 1) [5A0C50CC] (AR v1)
Track 11 accurately ripped (confidence 1) [94E7BB7F] (AR v1)
Track 12 accurately ripped (confidence 1) [AE727527] (AR v1)
Track 13 accurately ripped (confidence 1) [A48A5C14] (AR v1)
Track 14 accurately ripped (confidence 1) [0428D9AB] (AR v1)
Track 15 accurately ripped (confidence 1) [1B525585] (AR v1)
Track 16 accurately ripped (confidence 1) [178512D7] (AR v1)
Track 17 accurately ripped (confidence 1) [A8ECDE16] (AR v1)
Track 18 accurately ripped (confidence 1) [910BCFAD] (AR v1)
Track 19 accurately ripped (confidence 1) [85A1C501] (AR v1)
Track 20 accurately ripped (confidence 1) [D2E01044] (AR v1)

All tracks accurately ripped

End of status report

==== Log checksum 59172CCA581F05B8688B0996C60D744E01C6A7B5F4C4BA53339B4A2A9EED1FBC ====



Sittin' On Top Of The World (1973)

01. I'm Sitting On Top Of The World
02. I Wonder Who's Kissing Her Now
03. Smile
04. Ramblin' Rose
05. Almost Like Being In Love
06. It's A Good Day
07. At Sundown
08. When The Red, Red Robin Comes Bob, Bob, Bobbin' Along
09. You Made Me Love You (I Didn't Want To Do It)
10. I'm Forever Blowing Bubbles


Once In A While (1978)

11. Twilight On The Trail
12. Love Thy Neighbor
13. Without A Word Of Warning
14. That Old Gang Of Mine
15. The Day You Came Along
16. It's Magic
17. If I Had You
18. Only Forever
19. I Cried For You
20. Once In A While


Albums Released: May 1973, August 1978
Collector's Choice Remaster: August 13, 2002


DR Log
foobar2000 1.1.7 / Dynamic Range Meter 1.1.0
log date: 2013-01-05 01:07:41

--------------------------------------------------------------------------------
Analyzed: Dean Martin / Sittin' On Top Of The World + Once In A While
--------------------------------------------------------------------------------

DR Peak RMS Duration Track
--------------------------------------------------------------------------------
DR11 -0.10 dB -12.89 dB 2:13 01-I'm Sitting On Top Of The World
DR11 -0.51 dB -14.03 dB 2:23 02-I Wonder Who's Kissing Her Now
DR10 -0.30 dB -13.30 dB 2:54 03-Smile
DR11 -0.10 dB -13.49 dB 2:14 04-Ramblin' Rose
DR11 -0.36 dB -13.41 dB 2:01 05-Almost Like Being In Love
DR11 -0.19 dB -13.02 dB 2:10 06-It's A Good Day
DR12 -0.40 dB -14.40 dB 2:40 07-At Sundown
DR11 -0.10 dB -12.97 dB 2:29 08-When The Red, Red Robin Comes Bob, Bob, Bobbin' Along
DR12 -0.10 dB -14.61 dB 2:34 09-You Made Me Love You (I Didn't Want To Do It)
DR11 -0.24 dB -13.54 dB 2:23 10-I'm Forever Blowing Bubbles
DR14 -0.10 dB -16.71 dB 4:19 11-Twilight On The Trail
DR13 -0.10 dB -15.27 dB 2:43 12-Love Thy Neighbor
DR13 -0.10 dB -16.00 dB 2:51 13-Without A Word Of Warning
DR14 -0.10 dB -16.39 dB 2:29 14-That Old Gang Of Mine
DR13 -0.10 dB -15.65 dB 2:59 15-The Day You Came Along
DR12 -0.10 dB -15.37 dB 2:28 16-It's Magic
DR14 -0.10 dB -15.80 dB 2:32 17-If I Had You
DR13 -0.10 dB -15.37 dB 3:13 18-Only Forever
DR14 -0.10 dB -15.70 dB 2:56 19-I Cried For You
DR12 -0.11 dB -15.14 dB 2:49 20-Once In A While
--------------------------------------------------------------------------------

Number of tracks: 20
Official DR value: DR12

Samplerate: 44100 Hz
Channels: 2
Bits per sample: 16
Bitrate: 718 kbps
Codec: FLAC
================================================================================


Ripped and Scanned from the Stadium Studios Library August 2012
5% WinRar Recovery


______________________________________________________________________________________________
NOTE FOR DOWNLOADING:
LOSSLESS IS COMPLETE ORIGINAL CD (2 ON 1) PLUS SCANS
LOSSY IS INDIVIDUAL ALBUMS WITH COVER ONLY
PLEASE DO NOT POST THESE LINKS ON OTHER SITES OR THEY WILL DISAPPEAR VERY QUICKLY!
THANK YOU.
______________________________________________________________________________________________










ADVERTISING » Very Fast Download!



« ADVERTISING




Posted By: dipstick Date: 06 Jan 2013 07:51:51
wow! You have been busy! It takes a while to rip, scan, transcode and so on 12 cds. Your rips are always first class. It will take me hours to download this. At least I am getting an early start. Thanks very much!
Posted By: doctor.watson Date: 06 Jan 2013 08:56:40
What a collection, what a great job!
Thank you for sharing.
All the best!
Posted By: ocapex Date: 06 Jan 2013 13:29:34
A une collection comme celle-ci, on ne dit pas non!!!.

De tout coeur un GRAND MERCI.
Posted By: mebe51 Date: 06 Jan 2013 14:09:50
Un POST extraordinaire.
La qualité semble fort bonne aussi.
MERCI MERCI MERCI
;-)
Posted By: zorlac Date: 06 Jan 2013 17:45:19
thank you very much ... is there a great compilation with all his hits on one cd like That's Amore, Sway, etc.
Posted By: flac jacket Date: 06 Jan 2013 18:01:59
Thank you for the comments and encouragement! It is appreciated by me very much.

@dipstick Thanks. I think that preparing the post was more work than anything else!
@doctor.watson Thanks mate!
@ocapex Thank you!
@mebe51 Thank you!

@zorlac I have "Dean Martin - Capitol Collector's Series (1989)" is the very best compilation of all of the capitol hits. I will post that one for you soon! I do not believe there is a very good compilation of the Reprise albums.
Posted By: nunes54 Date: 06 Jan 2013 18:47:07
great collection!
thanks!
Posted By: dipstick Date: 06 Jan 2013 19:52:44
That 20 track Capitol Collector's Series is better than my 1990 CEMA/Capitol issue "Best Of" that only has 12 tracks. Every track on my cd is on yours except "You're Nobody 'Til Somebody Loves You".

Yep, assuming you had everything ready to go (tracklist done, pics organized, so forth) before you started to create this page, I'm guessing it took you 75 minutes. How close did I get?
Posted By: royal_roost Date: 06 Jan 2013 22:48:55
Thank you very much for this great effort.
Posted By: takealove Date: 06 Jan 2013 22:58:26
Excelente postagem. Muito obrigado pela disponibilidade.
Alguém aqui do norte do Brasil.
Posted By: musicfriend Date: 07 Jan 2013 23:22:01
What for a wonderful collection. Thank you so much!
Posted By: jimisk Date: 08 Jan 2013 08:27:31
Thanks for this grate share.
Posted By: arshille Date: 08 Jan 2013 18:10:20
Hello flac jacket
Just a line to say Thank You for Posting these Albums _
used FP
Best Wishes for 2013
arshille
Posted By: arachnidus Date: 08 Jan 2013 20:09:45
Gracias por esta maravillosa musica.
Posted By: ocapex Date: 10 Jan 2013 09:04:10
Pour le partage et en une si bonne qualité, un grand MERCI
Posted By: alsoel Date: 16 Jan 2013 16:13:51
Muchísimas Gracias!!! Es todo un lujo de post. Gran música y un intérprete excelente.
Posted By: torrville Date: 28 Mar 2013 19:34:17
Thank you so much for this posting!
Posted By: Robotron Date: 11 Jul 2013 09:18:59
Mucho gauletto, Senor, gracias, merci, danke, thanks, kitos