Loading...

Aoa - Moya (2013)

Posted By : Mendose | Date : 26 Jul 2013 18:00:31 | Comments : 0 |
|



Aoa - Moya (2013)
Korean | MP4 | *1080p* 1920x1080 | 23.976 fps | AVC 5992 Kbps | AAC 192 Kbps | 4:59 min | 221 MB
Korean Pop


AOA (an acronym for Ace of Angels) is a South Korean idol girl group and band, produced by FNC Entertainment. These groups are constructed of a band with 5 members (Choa, Jimin, Yuna, Youkyoung and Mina), and an idol group consisting of 7 members (all members excluding Youkyoung). The groups debuted on July 30, 2012 with their single album Angel's Story.


MediaInfo
General
Complete name : aoa_-_moya_mv_1080.mp4
Format : MPEG-4
Format profile : Base Media / Version 2
Codec ID : mp42
File size : 221 MiB
Duration : 4mn 59s
Overall bit rate mode : Variable
Overall bit rate : 6 186 Kbps
Encoded date : UTC 2013-07-24 05:46:27
Tagged date : UTC 2013-07-24 05:46:27
gsst : 0
gstd : 299443
gssd : B7DEB11C6MM1374808083538582

Video
ID : 1
Format : AVC
Format/Info : Advanced Video Codec
Format profile : High@L4.0
Format settings, CABAC : Yes
Format settings, ReFrames : 1 frame
Codec ID : avc1
Codec ID/Info : Advanced Video Coding
Duration : 4mn 59s
Bit rate : 5 992 Kbps
Maximum bit rate : 11.3 Mbps
Width : 1 920 pixels
Height : 1 080 pixels
Display aspect ratio : 16:9
Frame rate mode : Constant
Frame rate : 23.976 fps
Color space : YUV
Chroma subsampling : 4:2:0
Bit depth : 8 bits
Scan type : Progressive
Bits/(Pixel*Frame) : 0.121
Stream size : 214 MiB (97%)
Tagged date : UTC 2013-07-24 05:46:52

Audio
ID : 2
Format : AAC
Format/Info : Advanced Audio Codec
Format profile : LC
Codec ID : 40
Duration : 4mn 59s
Bit rate mode : Variable
Bit rate : 192 Kbps
Maximum bit rate : 201 Kbps
Channel(s) : 2 channels
Channel positions : Front: L R
Sampling rate : 44.1 KHz
Compression mode : Lossy
Stream size : 6.85 MiB (3%)
Title : IsoMedia File Produced by Google, 5-11-2011
Encoded date : UTC 2013-07-24 05:46:45
Tagged date : UTC 2013-07-24 05:46:52


Screenshots:










Please send me PM if any of my links is broken.

[ MY BLOG ] | [ RSS Channel ]

ADVERTISING » Very Fast Download!



« ADVERTISING




No comments for the news