Loading...

George Michael & Wham! Discography (1983-2009)

Posted By : SCR09 | Date : 14 Jan 2010 10:57:00 | Comments : 22 |
|




George Michael & Wham! Discography (1983-2009)
FLAC | 4,93 GB | 10 Albums | % 5 Recovery File | Album Covers (Scans)
Pop, Dance, Vocal Jazz | Years Active: 1981-Present
Birth Nam Georgios Kyriacos Panayiotou (Yorgos Kiriakos Panayiotu) Born; 25 June 1963 (47 years old)
Instruments: Vocal, Guitar, Keyboards

George Michael (born Georgios Kyriacos Panayiotou, 25 June 1963) is a two-time Grammy Award winning English singer-songwriter who has had a career as frontman of the duo Wham! as well as a soul-influenced, solo pop musician. Michael has sold over 100 million records worldwide as of 2009, encompassing 6 British #1 singles, 7 British #1 albums, 10 US #1 singles, and 1 US #1 album. His 1987 debut solo album, Faith has sold over 20 million copies worldwide. Four of his five solo studio albums have reached #1 on the UK charts and have become great international successes. According to britishhitsongwriters.com, he is the fortieth most successful songwriter in UK singles chart history based on weeks that his compositions have spent on the chart.





George Michael - Faith (1987)
Pop | FLAC (tracks+.cue) Lossless | 375 MB | 01.01.1987 | Sony music


Track List:

1. Faith
2. Father Figure
3. I Want Your Sex (Parts 1 & 2)
4. One More Try
5. Hard Day
6. Hand To Mouth
7. Look At Your Hands
8. Monkey
9. Kissing A Fool
10. Hard Day (Shep Pettibone Remix)
11. A Last Request (I Want Your Sex, Part 3)

EAC LOG
EAC extraction logfile from 21. June 2008, 23:00 for CD
George Michael / Faith

Used drive : SONY DVD RW AW-G170A Adapter: 1 ID: 1
Read mode : Secure with NO C2, accurate stream, disable cache
Read offset correction : 48
Overread into Lead-In and Lead-Out : No

Used output format : C:\Users\bigsimonwilde\bin\flac.exe (User Defined Encoder)
192 kBit/s
Additional command line options : -V -5 -T "artist=%a" -T "title=%t" -T "album=%g" -T "date=%y" -T "tracknumber=%n" -T "genre=%m" %s

Other options :
Fill up missing offset samples with silence : Yes
Delete leading and trailing silent blocks : No
Installed external ASPI interface


Track 1
Filename C:\1987 George Michael - Faith [FLAC]07. George Michael - Faith (1987) (FLAC)\01 - George Michael - Faith.wav

Pre-gap length 0:00:02.00

Peak level 100.0 %
Track quality 100.0 %
Test CRC 881D521F
Copy CRC 881D521F
Copy OK

Track 2
Filename C:\1987 George Michael - Faith [FLAC]07. George Michael - Faith (1987) (FLAC)\02 - George Michael - Father Figure.wav

Peak level 100.0 %
Track quality 100.0 %
Test CRC 44D97204
Copy CRC 44D97204
Copy OK

Track 3
Filename C:\1987 George Michael - Faith [FLAC]07. George Michael - Faith (1987) (FLAC)\03 - George Michael - I Want Your Sex (Parts 1 & 2).wav

Peak level 100.0 %
Track quality 100.0 %
Test CRC 6CF2F570
Copy CRC 6CF2F570
Copy OK

Track 4
Filename C:\1987 George Michael - Faith [FLAC]07. George Michael - Faith (1987) (FLAC)\04 - George Michael - One More Try.wav

Pre-gap length 0:00:01.30

Peak level 96.6 %
Track quality 100.0 %
Test CRC DA107252
Copy CRC DA107252
Copy OK

Track 5
Filename C:\1987 George Michael - Faith [FLAC]07. George Michael - Faith (1987) (FLAC)\05 - George Michael - Hard Day.wav

Peak level 100.0 %
Track quality 100.0 %
Test CRC 6B27EDB2
Copy CRC 6B27EDB2
Copy OK

Track 6
Filename C:\1987 George Michael - Faith [FLAC]07. George Michael - Faith (1987) (FLAC)\06 - George Michael - Hand To Mouth.wav

Peak level 100.0 %
Track quality 100.0 %
Test CRC 095CE26A
Copy CRC 095CE26A
Copy OK

Track 7
Filename C:\1987 George Michael - Faith [FLAC]07. George Michael - Faith (1987) (FLAC)\07 - George Michael - Look At Your Hands.wav

Peak level 98.7 %
Track quality 100.0 %
Test CRC ECA0FF39
Copy CRC ECA0FF39
Copy OK

Track 8
Filename C:\1987 George Michael - Faith [FLAC]07. George Michael - Faith (1987) (FLAC)\08 - George Michael - Monkey.wav

Peak level 100.0 %
Track quality 100.0 %
Test CRC B2965732
Copy CRC B2965732
Copy OK

Track 9
Filename C:\1987 George Michael - Faith [FLAC]07. George Michael - Faith (1987) (FLAC)\09 - George Michael - Kissing A Fool.wav

Peak level 100.0 %
Track quality 100.0 %
Test CRC 066894DC
Copy CRC 066894DC
Copy OK

Track 10
Filename C:\1987 George Michael - Faith [FLAC]07. George Michael - Faith (1987) (FLAC)\10 - George Michael - Hard Day (Shep Pettibone Remix).wav

Peak level 100.0 %
Track quality 100.0 %
Test CRC 5E6A8C82
Copy CRC 5E6A8C82
Copy OK

Track 11
Filename C:\1987 George Michael - Faith [FLAC]07. George Michael - Faith (1987) (FLAC)\11 - George Michael - A Last Request (I Want Your Sex Part 3).wav

Peak level 100.0 %
Track quality 100.0 %
Test CRC 41EE8F7A
Copy CRC 41EE8F7A
Copy OK

No errors occured


End of status report


http://rapidshare.com/files/330096232/GM87.FL.SCR.TBMC.part1.rar
http://rapidshare.com/files/330112567/GM87.FL.SCR.TBMC.part2.rar




George Michael - Listen Without Prejudice (1990)
Pop | FLAC (tracks+.cue) Lossless | 329 MB | 11.09.1990 | Columbia/CBS/Sony BMG


Track List:

1. Praying for Time
2. Freedom! '90
3. They Won't Go When I Go
4. Something To Save
5. Cowboys And Angels
6. Waiting For That Day
7. Mother's Pride
8. Heal the Pain
9. Soul Free
10. Waiting (Reprise)

EAC LOG
EAC extraction logfile from 22. June 2008, 1:48 for CD
George Michael / Listen Without Prejudice (Vol. 1)

Used drive : SONY DVD RW AW-G170A Adapter: 1 ID: 1
Read mode : Secure with NO C2, accurate stream, disable cache
Read offset correction : 48
Overread into Lead-In and Lead-Out : No

Used output format : C:\Users\bigsimonwilde\bin\flac.exe (User Defined Encoder)
192 kBit/s
Additional command line options : -V -5 -T "artist=%a" -T "title=%t" -T "album=%g" -T "date=%y" -T "tracknumber=%n" -T "genre=%m" %s

Other options :
Fill up missing offset samples with silence : Yes
Delete leading and trailing silent blocks : No
Installed external ASPI interface


Track 1
Filename C:\1990 George Michael - Listen Without Prejudice Vol 1 [FLAC]\08. George Michael - Listen Without Prejudice Vol 1 (1990) (FLAC)\01 - George Michael - Praying for Time.wav

Pre-gap length 0:00:02.00

Peak level 100.0 %
Track quality 100.0 %
Test CRC B5AFAC17
Copy CRC B5AFAC17
Copy OK

Track 2
Filename C:\1990 George Michael - Listen Without Prejudice Vol 1 [FLAC]\08. George Michael - Listen Without Prejudice Vol 1 (1990) (FLAC)\02 - George Michael - Freedom 90.wav

Peak level 79.2 %
Track quality 100.0 %
Test CRC D4A609E1
Copy CRC D4A609E1
Copy OK

Track 3
Filename C:\1990 George Michael - Listen Without Prejudice Vol 1 [FLAC]\08. George Michael - Listen Without Prejudice Vol 1 (1990) (FLAC)\03 - George Michael - They Won't Go When I Go.wav

Peak level 67.4 %
Track quality 100.0 %
Test CRC 4FEF8213
Copy CRC 4FEF8213
Copy OK

Track 4
Filename C:\1990 George Michael - Listen Without Prejudice Vol 1 [FLAC]\08. George Michael - Listen Without Prejudice Vol 1 (1990) (FLAC)\04 - George Michael - Something To Save.wav

Peak level 99.4 %
Track quality 100.0 %
Test CRC D21FE3E9
Copy CRC D21FE3E9
Copy OK

Track 5
Filename C:\1990 George Michael - Listen Without Prejudice Vol 1 [FLAC]\08. George Michael - Listen Without Prejudice Vol 1 (1990) (FLAC)\05 - George Michael - Cowboys And Angels.wav

Peak level 76.6 %
Track quality 98.3 %
Test CRC C9122E52
Copy CRC C9122E52
Copy OK

Track 6
Filename C:\1990 George Michael - Listen Without Prejudice Vol 1 [FLAC]\08. George Michael - Listen Without Prejudice Vol 1 (1990) (FLAC)\06 - George Michael - Waiting For That Day.wav

Peak level 78.9 %
Track quality 100.0 %
Test CRC 5B3EFC7E
Copy CRC 5B3EFC7E
Copy OK

Track 7
Filename C:\1990 George Michael - Listen Without Prejudice Vol 1 [FLAC]\08. George Michael - Listen Without Prejudice Vol 1 (1990) (FLAC)\07 - George Michael - Mothers Pride.wav

Peak level 59.2 %
Track quality 99.9 %
Test CRC C6BB57BE
Copy CRC C6BB57BE
Copy OK

Track 8
Filename C:\1990 George Michael - Listen Without Prejudice Vol 1 [FLAC]\08. George Michael - Listen Without Prejudice Vol 1 (1990) (FLAC)\08 - George Michael - Heal The Pain.wav

Peak level 100.0 %
Track quality 100.0 %
Test CRC 772C4F0D
Copy CRC 772C4F0D
Copy OK

Track 9
Filename C:\1990 George Michael - Listen Without Prejudice Vol 1 [FLAC]\08. George Michael - Listen Without Prejudice Vol 1 (1990) (FLAC)\09 - George Michael - Soul Free.wav

Peak level 89.5 %
Track quality 100.0 %
Test CRC 2BD628F8
Copy CRC 2BD628F8
Copy OK

Track 10
Filename C:\1990 George Michael - Listen Without Prejudice Vol 1 [FLAC]\08. George Michael - Listen Without Prejudice Vol 1 (1990) (FLAC)\10 - George Michael - Waiting (Reprise).wav

Pre-gap length 0:00:01.00

Peak level 76.1 %
Track quality 100.0 %
Test CRC BD6CA46D
Copy CRC BD6CA46D
Copy OK

No errors occured


End of status report


http://rapidshare.com/files/330127614/GM90.FL.SCR.TBMC.part1.rar
http://rapidshare.com/files/330140020/GM90.FL.SCR.TBMC.part2.rar




George Michael And Queen With Lisa Stansfield - Five Live - EP (1993)
Pop, Rock | mp3 | 320 kbps | 65 MB | 20.04.1993 | Parlophone


Track List:

1. Somebody to Love (Live)
2. Killer (Live)
3. Papa Was a Rolling Stone (Live)
4. These Are the Days of Our Lives (Live) - George Michael, Queen, Lisa Stansfield
5. Calling You (Live)
6. Dear Friends - Queen

http://rapidshare.com/files/331612465/GMQ5Live.SCR.TBMC.rar




George Michael - Older (1996)
Pop | FLAC (tracks+.cue) Lossless | 420 MB | 14.06.1996 | Sony Legacy


Track List:

1. Jesus to a Child
2. Older
3. Fastlove
4. Older
5. Spinning the Wheel
6. It Doesn't Really Matter
7. The Strangest Thing
8. To Be Forgiven
9. Move On
10. Star People
11. You Have Been Loved
12. Free

EAC LOG
EAC extraction logfile from 22. June 2008, 4:15 for CD
George Michael / Older

Used drive : SONY DVD RW AW-G170A Adapter: 1 ID: 1
Read mode : Secure with NO C2, accurate stream, disable cache
Read offset correction : 48
Overread into Lead-In and Lead-Out : No

Used output format : C:\flac.exe (User Defined Encoder)
192 kBit/s
Additional command line options : -V -5 -T "artist=%a" -T "title=%t" -T "album=%g" -T "date=%y" -T "tracknumber=%n" -T "genre=%m" %s

Other options :
Fill up missing offset samples with silence : Yes
Delete leading and trailing silent blocks : No
Installed external ASPI interface


Track 1
Filename C:\1996 George Michael - Older [FLAC]\02. George Michael - Albums\09. George Michael - Older (1996) (FLAC)\01 - George Michael - Jesus To A Child.wav

Pre-gap length 0:00:02.00

Peak level 99.6 %
Track quality 99.9 %
Test CRC 32F74FEB
Copy CRC 32F74FEB
Copy OK

Track 2
Filename C:\1996 George Michael - Older [FLAC]\02. George Michael - Albums\09. George Michael - Older (1996) (FLAC)\02 - George Michael - Fastlove.wav

Pre-gap length 0:00:00.04

Peak level 99.6 %
Track quality 100.0 %
Test CRC ED5F2FE8
Copy CRC ED5F2FE8
Copy OK

Track 3
Filename C:\1996 George Michael - Older [FLAC]\02. George Michael - Albums\09. George Michael - Older (1996) (FLAC)\03 - George Michael - Older.wav

Pre-gap length 0:00:00.33

Peak level 99.5 %
Track quality 100.0 %
Test CRC 301F5FF4
Copy CRC 301F5FF4
Copy OK

Track 4
Filename C:\1996 George Michael - Older [FLAC]\02. George Michael - Albums\09. George Michael - Older (1996) (FLAC)\04 - George Michael - Spinning The Wheel.wav

Pre-gap length 0:00:00.22

Peak level 99.1 %
Track quality 100.0 %
Test CRC EC58D1B0
Copy CRC EC58D1B0
Copy OK

Track 5
Filename C:\1996 George Michael - Older [FLAC]\02. George Michael - Albums\09. George Michael - Older (1996) (FLAC)\05 - George Michael - It Doesn't Really Matter.wav

Pre-gap length 0:00:00.04

Peak level 90.2 %
Track quality 100.0 %
Test CRC 04909CD7
Copy CRC 04909CD7
Copy OK

Track 6
Filename C:\1996 George Michael - Older [FLAC]\02. George Michael - Albums\09. George Michael - Older (1996) (FLAC)\06 - George Michael - The Strangest Thing.wav

Pre-gap length 0:00:00.17

Peak level 95.6 %
Track quality 99.9 %
Test CRC 3B516873
Copy CRC 3B516873
Copy OK

Track 7
Filename C:\1996 George Michael - Older [FLAC]\02. George Michael - Albums\09. George Michael - Older (1996) (FLAC)\07 - George Michael - To Be Forgiven.wav

Pre-gap length 0:00:00.89

Peak level 99.6 %
Track quality 99.9 %
Test CRC C12ED66F
Copy CRC C12ED66F
Copy OK

Track 8
Filename C:\1996 George Michael - Older [FLAC]\02. George Michael - Albums\09. George Michael - Older (1996) (FLAC)\08 - George Michael - Move On.wav

Pre-gap length 0:00:00.02

Peak level 92.8 %
Track quality 100.0 %
Test CRC 28D901B1
Copy CRC 28D901B1
Copy OK

Track 9
Filename C:\1996 George Michael - Older [FLAC]\02. George Michael - Albums\09. George Michael - Older (1996) (FLAC)\09 - George Michael - Star People.wav

Pre-gap length 0:00:00.04

Peak level 99.4 %
Track quality 100.0 %
Test CRC 82BE3966
Copy CRC 82BE3966
Copy OK

Track 10
Filename C:\1996 George Michael - Older [FLAC]\02. George Michael - Albums\09. George Michael - Older (1996) (FLAC)\10 - George Michael - You Have Been Loved.wav

Pre-gap length 0:00:00.93

Peak level 92.8 %
Track quality 100.0 %
Test CRC EEFE5DDC
Copy CRC EEFE5DDC
Copy OK

Track 11
Filename C:\1996 George Michael - Older [FLAC]\02. George Michael - Albums\09. George Michael - Older (1996) (FLAC)\11 - George Michael - Free.wav

Pre-gap length 0:00:02.70

Peak level 99.3 %
Track quality 100.0 %
Test CRC B61B1D49
Copy CRC B61B1D49
Copy OK

No errors occured


End of status report


http://rapidshare.com/files/330159538/GM96.FL.SCR.TBMC.part1.rar
http://rapidshare.com/files/330161021/GM96.FL.SCR.TBMC.part2.rar




George Michael - Ladies & Gentlemen (2CD)(1998)
Pop | FLAC (tracks+.cue) Lossless | 1,34 GB | 01.12.1998 | Epic/Sony BMG


CD 1:
1. Jesus to a Child
2. Father Figure
3. Careless Whisper
4. Don't Let the Sun Go Down on Me
5. You Have Been Loved
6. Kissing a Fool
7. I Can't Make You Love Me
8. Heal the Pain
9. Moment With You
10. Desafinado
11. Cowboys And Angels
12. Praying for Time
13. One More Try
14. A Different Corner

EAC LOG
EAC extraction logfile from 22. June 2008, 15:02 for CD
George Michael / Ladies And Gentlemen, The Best Of George Michael \ Cd 1

Used drive : _NEC DVD_RW ND-2510A Adapter: 1 ID: 0
Read mode : Secure with NO C2, accurate stream, disable cache
Read offset correction : 48
Overread into Lead-In and Lead-Out : No

Used output format : C:\Program Files\FLAC\flac.exe (User Defined Encoder)
192 kBit/s
Additional command line options : -8 -A tukey(0.25) -A gauss(0.1875) -b 4096 -V -T "artist=%a" -T "title=%t" -T "album=%g" -T "date=%y" -T "tracknumber=%n" -T "genre=%m" %s --sector-align

Other options :
Fill up missing offset samples with silence : Yes
Delete leading and trailing silent blocks : No
Installed external ASPI interface


Track 1
Filename C:\Ladies & Gentlemen - (Disc 1) (FLAC)\01 - George Michael - Jesus To A Child .wav

Pre-gap length 0:00:02.00

Peak level 99.6 %
Track quality 99.9 %
Test CRC B219C257
Copy CRC B219C257
Copy OK

Track 2
Filename C:\Ladies & Gentlemen - (Disc 1) (FLAC)\02 - George Michael - Father Figure .wav

Pre-gap length 0:00:01.13

Peak level 98.2 %
Track quality 99.9 %
Test CRC 8E6D8ED8
Copy CRC 8E6D8ED8
Copy OK

Track 3
Filename C:\Ladies & Gentlemen - (Disc 1) (FLAC)\03 - George Michael - Careless Whisper .wav

Pre-gap length 0:00:01.00

Peak level 99.6 %
Track quality 100.0 %
Test CRC C7AA2A1A
Copy CRC C7AA2A1A
Copy OK

Track 4
Filename C:\Ladies & Gentlemen - (Disc 1) (FLAC)\04 - George Michael - Don't Let The Sun Go Down On Me .wav

Peak level 97.1 %
Track quality 99.9 %
Test CRC 0A42BD26
Copy CRC 0A42BD26
Copy OK

Track 5
Filename C:\Ladies & Gentlemen - (Disc 1) (FLAC)\05 - George Michael - You Have Been Loved .wav

Pre-gap length 0:00:01.70

Peak level 81.0 %
Track quality 100.0 %
Test CRC 51555D79
Copy CRC 51555D79
Copy OK

Track 6
Filename C:\Ladies & Gentlemen - (Disc 1) (FLAC)\06 - George Michael - Kissing A Fool .wav

Pre-gap length 0:00:01.40

Peak level 100.0 %
Track quality 100.0 %
Test CRC 7A40CD62
Copy CRC 7A40CD62
Copy OK

Track 7
Filename C:\Ladies & Gentlemen - (Disc 1) (FLAC)\07 - George Michael - I Can't Make You Love Me .wav

Peak level 95.1 %
Track quality 100.0 %
Test CRC 7044B005
Copy CRC 7044B005
Copy OK

Track 8
Filename C:\Ladies & Gentlemen - (Disc 1) (FLAC)\08 - George Michael - Heal The Pain .wav

Pre-gap length 0:00:01.33

Peak level 88.9 %
Track quality 99.9 %
Test CRC 6C726892
Copy CRC 6C726892
Copy OK

Track 9
Filename C:\Ladies & Gentlemen - (Disc 1) (FLAC)\09 - George Michael - A Moment With You .wav

Pre-gap length 0:00:01.33

Peak level 95.1 %
Track quality 99.9 %
Test CRC AA093E33
Copy CRC AA093E33
Copy OK

Track 10
Filename C:\Ladies & Gentlemen - (Disc 1) (FLAC)\10 - George Michael - Desafinado .wav

Peak level 93.2 %
Track quality 100.0 %
Test CRC 3B416265
Copy CRC 3B416265
Copy OK

Track 11
Filename C:\Ladies & Gentlemen - (Disc 1) (FLAC)\11 - George Michael - Cowboys And Angels .wav

Pre-gap length 0:00:01.64

Peak level 95.1 %
Track quality 100.0 %
Test CRC 8E9DBEF8
Copy CRC 8E9DBEF8
Copy OK

Track 12
Filename C:\Ladies & Gentlemen - (Disc 1) (FLAC)\12 - George Michael - Praying For Time .wav

Peak level 97.1 %
Track quality 100.0 %
Test CRC 01FC8EEC
Copy CRC 01FC8EEC
Copy OK

Track 13
Filename C:\Ladies & Gentlemen - (Disc 1) (FLAC)\13 - George Michael - One More Try .wav

Pre-gap length 0:00:02.73

Peak level 97.1 %
Track quality 100.0 %
Test CRC 9FB10152
Copy CRC 9FB10152
Copy OK

Track 14
Filename C:\Ladies & Gentlemen - (Disc 1) (FLAC)\14 - George Michael - A Different Corner .wav

Pre-gap length 0:00:00.50

Peak level 97.0 %
Track quality 100.0 %
Test CRC 41B783AD
Copy CRC 41B783AD
Copy OK

No errors occured


End of status report


http://rapidshare.com/files/330193993/GM98.CD1.FL.SCR.TBMC.part1.rar
http://rapidshare.com/files/330196417/GM98.CD1.FL.SCR.TBMC.part2.rar
http://rapidshare.com/files/330230303/GM98.CD1.FL.SCR.TBMC.part3.rar

CD 2:
1. Outside
2. Fastlove
3. Too Funky
4. Freedom '90
5. Star People '97
6. Killer/Papa Was a Rollin' Stone
7. I Want Your Sex, Pt. 2
8. Monkey
9. Spinning the Wheel
10. Waiting for That Day
11. I Knew You Were Waiting (For Me)
12. Hard Day
13. Faith
14. Somebody To Love

EAC LOG
EAC extraction logfile from 22. June 2008, 12:51 for CD
George Michael / Ladies & Gentlemen - The Best Of George Michael - For The Feet

Used drive : _NEC DVD_RW ND-2510A Adapter: 1 ID: 0
Read mode : Secure with NO C2, accurate stream, disable cache
Read offset correction : 48
Overread into Lead-In and Lead-Out : No

Used output format : C:\Program Files\FLAC\flac.exe (User Defined Encoder)
192 kBit/s
Additional command line options : -8 -A tukey(0.25) -A gauss(0.1875) -b 4096 -V -T "artist=%a" -T "title=%t" -T "album=%g" -T "date=%y" -T "tracknumber=%n" -T "genre=%m" %s --sector-align

Other options :
Fill up missing offset samples with silence : Yes
Delete leading and trailing silent blocks : No
Installed external ASPI interface


Track 1
Filename C:\Ladies & Gentlemen - (Disc 2) (FLAC)\01 - George Michael - Outside .wav

Pre-gap length 0:00:02.00

Peak level 98.7 %
Track quality 100.0 %
Test CRC 810E19F8
Copy CRC 810E19F8
Copy OK

Track 2
Filename C:\Ladies & Gentlemen - (Disc 2) (FLAC)\02 - George Michael - As (With Mary J. Blige) .wav

Peak level 86.5 %
Track quality 100.0 %
Test CRC FE180F8B
Copy CRC FE180F8B
Copy OK

Track 3
Filename C:\Ladies & Gentlemen - (Disc 2) (FLAC)\03 - George Michael - Fastlove .wav

Peak level 95.1 %
Track quality 100.0 %
Test CRC 66319A01
Copy CRC 66319A01
Copy OK

Track 4
Filename C:\Ladies & Gentlemen - (Disc 2) (FLAC)\04 - George Michael - Too Funky .wav

Peak level 95.1 %
Track quality 100.0 %
Test CRC 4B64099A
Copy CRC 4B64099A
Copy OK

Track 5
Filename C:\Ladies & Gentlemen - (Disc 2) (FLAC)\05 - George Michael - Freedom 90 .wav

Peak level 94.5 %
Track quality 100.0 %
Test CRC 7F106D2D
Copy CRC 7F106D2D
Copy OK

Track 6
Filename C:\Ladies & Gentlemen - (Disc 2) (FLAC)\06 - George Michael - Star People 97 .wav

Peak level 95.1 %
Track quality 100.0 %
Test CRC A20E4EA8
Copy CRC A20E4EA8
Copy OK

Track 7
Filename C:\Ladies & Gentlemen - (Disc 2) (FLAC)\07 - George Michael - Killer - Papa Was A Rollin' Stone .wav

Peak level 100.0 %
Track quality 100.0 %
Test CRC A357D9CF
Copy CRC A357D9CF
Copy OK

Track 8
Filename C:\Ladies & Gentlemen - (Disc 2) (FLAC)\08 - George Michael - I Want Your Sex (Part II) .wav

Peak level 97.1 %
Track quality 100.0 %
Test CRC D69A9C8D
Copy CRC D69A9C8D
Copy OK

Track 9
Filename C:\Ladies & Gentlemen - (Disc 2) (FLAC)\09 - George Michael - The Strangest Thing 97 .wav

Peak level 88.7 %
Track quality 100.0 %
Test CRC F43E7DDC
Copy CRC F43E7DDC
Copy OK

Track 10
Filename C:\Ladies & Gentlemen - (Disc 2) (FLAC)\10 - George Michael - Fantasy .wav

Peak level 98.6 %
Track quality 100.0 %
Test CRC 901F45C8
Copy CRC 901F45C8
Copy OK

Track 11
Filename C:\Ladies & Gentlemen - (Disc 2) (FLAC)\11 - George Michael - Spinning The Wheel .wav

Peak level 88.7 %
Track quality 100.0 %
Test CRC 00F877AE
Copy CRC 00F877AE
Copy OK

Track 12
Filename C:\Ladies & Gentlemen - (Disc 2) (FLAC)\12 - George Michael - Waiting For That Day .wav

Peak level 88.7 %
Track quality 100.0 %
Test CRC D5618582
Copy CRC D5618582
Copy OK

Track 13
Filename C:\Ladies & Gentlemen - (Disc 2) (FLAC)\13 - George Michael - I Knew You Were Waiting (For Me) (With Aretha Franklin) .wav

Peak level 93.1 %
Track quality 100.0 %
Test CRC 42F88E00
Copy CRC 42F88E00
Copy OK

Track 14
Filename C:\Ladies & Gentlemen - (Disc 2) (FLAC)\14 - George Michael - Faith .wav

Peak level 100.0 %
Track quality 100.0 %
Test CRC EA80BCEF
Copy CRC EA80BCEF
Copy OK

Track 15
Filename C:\Ladies & Gentlemen - (Disc 2) (FLAC)\15 - George Michael - Somebody To Love (With Queen) .wav

Peak level 97.0 %
Track quality 100.0 %
Test CRC DA9EFF16
Copy CRC DA9EFF16
Copy OK

No errors occured


End of status report


http://rapidshare.com/files/330232463/GM98.CD2.FL.SCR.TBMC.part1.rar
http://rapidshare.com/files/330253806/GM98.CD2.FL.SCR.TBMC.part2.rar
http://rapidshare.com/files/330270000/GM98.CD2.FL.SCR.TBMC.part3.rar



George Michael - Songs From The Last Century (1999)
Pop, Vocal Jazz | FLAC (tracks+.cue) Lossless | 270 MB | 14.12.1999 | Virgin Records Us


Track List:

1. Brother Can You Spare A Dime
2. Roxanne
3. You've Changed
4. My Baby Just Cares For Me
5. The First Time Ever I Saw Your Face
6. Miss Sarajevo
7. I Remember You
8. Secret Love
9. Wild Is The Wind

EAC LOG
EAC extraction logfile from 22. June 2008, 17:55 for CD
George Michael / Songs from the Last Century

Used drive : _NEC DVD_RW ND-2510A Adapter: 1 ID: 0
Read mode : Secure with NO C2, accurate stream, disable cache
Read offset correction : 48
Overread into Lead-In and Lead-Out : No

Used output format : C:\Program Files\FLAC\flac.exe (User Defined Encoder)
192 kBit/s
Additional command line options : -8 -A tukey(0.25) -A gauss(0.1875) -b 4096 -V -T "artist=%a" -T "title=%t" -T "album=%g" -T "date=%y" -T "tracknumber=%n" -T "genre=%m" %s --sector-align

Other options :
Fill up missing offset samples with silence : Yes
Delete leading and trailing silent blocks : No
Installed external ASPI interface


Track 1
Filename C:\01 - George Michael - Brother Can You Spare a Dime .wav

Pre-gap length 0:00:02.00

Peak level 99.8 %
Track quality 100.0 %
Test CRC 7691BFBE
Copy CRC 7691BFBE
Copy OK

Track 2
Filename C:\02 - George Michael - Roxanne .wav

Peak level 99.8 %
Track quality 100.0 %
Test CRC 713C2AA0
Copy CRC 713C2AA0
Copy OK

Track 3
Filename C:\03 - George Michael - You've Changed .wav

Peak level 99.8 %
Track quality 100.0 %
Test CRC 1653F4CC
Copy CRC 1653F4CC
Copy OK

Track 4
Filename C:\04 - George Michael - My Baby Just Cares for Me .wav

Peak level 99.8 %
Track quality 100.0 %
Test CRC 026EEFBD
Copy CRC 026EEFBD
Copy OK

Track 5
Filename C:\05 - George Michael - The First Time Ever I Saw Your Face .wav

Peak level 99.8 %
Track quality 100.0 %
Test CRC 127550F8
Copy CRC 127550F8
Copy OK

Track 6
Filename C:\06 - George Michael - Miss Sarajevo .wav

Peak level 99.8 %
Track quality 100.0 %
Test CRC 1083140C
Copy CRC 1083140C
Copy OK

Track 7
Filename C:\07 - George Michael - I Remember You .wav

Peak level 99.8 %
Track quality 100.0 %
Test CRC EE003C7A
Copy CRC EE003C7A
Copy OK

Track 8
Filename C:\08 - George Michael - Secret Love .wav

Peak level 99.8 %
Track quality 99.9 %
Test CRC A5E9EDB4
Copy CRC A5E9EDB4
Copy OK

Track 9
Filename C:\09 - George Michael - Wild Is the Wind .wav

Peak level 97.1 %
Track quality 99.9 %
Test CRC C57B2DC9
Copy CRC 55B28F3B
Copy OK

Track 10
Filename C:\10 - George Michael - Where or When,It's Alright with Me .wav

Peak level 99.8 %
Track quality 99.9 %
Test CRC 564F45A9
Copy CRC 564F45A9
Copy OK

No errors occured


End of status report


http://rapidshare.com/files/330289931/GM99.FL.SCR.TBMC.part1.rar
http://rapidshare.com/files/330290043/GM99.FL.SCR.TBMC.part2.rar




George Michael - Patience (2004)
Pop | FLAC (tracks+.cue) Lossless | 506 MB | 18.05.2004 | Epic/Sony BMG


Track List:

1. Patience
2. Amazing
3. John And Elvis Are Dead
4. Cars and Trains
5. Round Here
6. My Mother Had A Brother
7. Flawless (Go to the City)
8. American Angel
9. Precious Box
10. Please Send Me Someone (Anselmo's Song)
11. Freeek! '04
12. Through

EAC LOG
EAC extraction logfile from 21. June 2008, 21:05 for CD
Michael, George / Patience

Used drive : _NEC DVD_RW ND-2510A Adapter: 1 ID: 0
Read mode : Secure with NO C2, accurate stream, disable cache
Read offset correction : 48
Overread into Lead-In and Lead-Out : No

Used output format : C:\Program Files\FLAC\flac.exe (User Defined Encoder)
192 kBit/s
Additional command line options : -8 -A tukey(0.25) -A gauss(0.1875) -b 4096 -V -T "artist=%a" -T "title=%t" -T "album=%g" -T "date=%y" -T "tracknumber=%n" -T "genre=%m" %s --sector-align

Other options :
Fill up missing offset samples with silence : Yes
Delete leading and trailing silent blocks : No
Installed external ASPI interface


Track 1
Filename C:\2004 George Michael - Patience [FLAC]\01 - Michael, George - Patience (Album Version) .wav

Pre-gap length 0:00:02.00

Peak level 84.1 %
Track quality 100.0 %
Test CRC 85825ABE
Copy CRC 85825ABE
Copy OK

Track 2
Filename C:\2004 George Michael - Patience [FLAC]\02 - Michael, George - Amazing (Album Version) .wav

Peak level 99.8 %
Track quality 100.0 %
Test CRC 2AF5B9B1
Copy CRC 2AF5B9B1
Copy OK

Track 3
Filename C:\2004 George Michael - Patience [FLAC]\03 - Michael, George - John And Elvis Are Dead (Album Version) .wav

Peak level 98.8 %
Track quality 100.0 %
Test CRC DF15BCC9
Copy CRC DF15BCC9
Copy OK

Track 4
Filename C:\2004 George Michael - Patience [FLAC]\04 - Michael, George - Cars And Trains (Album Version) .wav

Peak level 88.1 %
Track quality 100.0 %
Test CRC C3B8FBEB
Copy CRC C3B8FBEB
Copy OK

Track 5
Filename C:\2004 George Michael - Patience [FLAC]\05 - Michael, George - Round Here (Album Version) .wav

Peak level 92.2 %
Track quality 100.0 %
Test CRC CD12563C
Copy CRC CD12563C
Copy OK

Track 6
Filename C:\2004 George Michael - Patience [FLAC]\06 - Michael, George - Shoot The Dog (Album Version) .wav

Peak level 98.8 %
Track quality 100.0 %
Test CRC 6BC67997
Copy CRC 6BC67997
Copy OK

Track 7
Filename C:\2004 George Michael - Patience [FLAC]\07 - Michael, George - My Mother Had A Brother (Album Version) .wav

Peak level 95.5 %
Track quality 100.0 %
Test CRC 932DFDAB
Copy CRC 932DFDAB
Copy OK

Track 8
Filename C:\2004 George Michael - Patience [FLAC]\08 - Michael, George - Flawless (Go To The City) (Album Version) .wav

Peak level 98.8 %
Track quality 100.0 %
Test CRC 0FC17150
Copy CRC 0FC17150
Copy OK

Track 9
Filename C:\2004 George Michael - Patience [FLAC]\09 - Michael, George - American Angel (Album Version) .wav

Peak level 98.8 %
Track quality 100.0 %
Test CRC 50F66D44
Copy CRC 50F66D44
Copy OK

Track 10
Filename C:\2004 George Michael - Patience [FLAC]\10 - Michael, George - Precious Box (Album Version) .wav

Peak level 96.3 %
Track quality 100.0 %
Test CRC 61AECF66
Copy CRC 61AECF66
Copy OK

Track 11
Filename C:\2004 George Michael - Patience [FLAC]\11 - Michael, George - Please Send Me Someone (Anselmo's Song) (Album Version) .wav

Peak level 88.1 %
Track quality 100.0 %
Test CRC D0DCF7A1
Copy CRC D0DCF7A1
Copy OK

Track 12
Filename C:\2004 George Michael - Patience [FLAC]\12 - Michael, George - Freeek! '04 (Album Version) .wav

Peak level 98.8 %
Track quality 100.0 %
Test CRC 958568A2
Copy CRC 958568A2
Copy OK

Track 13
Filename C:\2004 George Michael - Patience [FLAC]\13 - Michael, George - Through (Album Version) .wav

Peak level 94.3 %
Track quality 100.0 %
Test CRC FFEB4A5E
Copy CRC FFEB4A5E
Copy OK

Track 14
Filename C:\2004 George Michael - Patience [FLAC]\14 - Michael, George - Patience (Pt.2) .wav

Peak level 68.5 %
Track quality 100.0 %
Test CRC FE9074AA
Copy CRC FE9074AA
Copy OK

No errors occured


End of status report


http://rapidshare.com/files/330068463/GM04.FL.SCR.TBMC.part1.rar
http://rapidshare.com/files/330068464/GM04.FL.SCR.TBMC.part2.rar
http://rapidshare.com/files/330096106/GM04.FL.SCR.TBMC.part3.rar



George Michael - Twenty Five (2CD)(2006)
Pop | FLAC (tracks+.cue) Lossless | 1,3 GB | 20.11.2006 | Sony


CD 1:
01.Everything She Wants - Wham!
02.Wake Me Up Before You Go-Go - Wham!
03.Freedom - Wham!
04.Faith
05.Too Funky
06.Fastlove
07.Freedom! '90
08.Spinnng the Wheel
09.Outside
10.As (with Mary J. Blige)
11.Freeek!
12.Shoot the Dog
13.Amazing
14.Flawless (Go to the City)
15.An Easier Affair

EAC LOG
EAC extraction logfile from 23. June 2008, 1:31 for CD
George Michael / Twentyfive (CD 1 - For Living)

Used drive : _NEC DVD_RW ND-2510A Adapter: 1 ID: 0
Read mode : Secure with NO C2, accurate stream, disable cache
Read offset correction : 48
Overread into Lead-In and Lead-Out : No

Used output format : C:\Program Files\FLAC\flac.exe (User Defined Encoder)
192 kBit/s
Additional command line options : -8 -A tukey(0.25) -A gauss(0.1875) -b 4096 -V -T "artist=%a" -T "title=%t" -T "album=%g" -T "date=%y" -T "tracknumber=%n" -T "genre=%m" %s --sector-align

Other options :
Fill up missing offset samples with silence : Yes
Delete leading and trailing silent blocks : No
Installed external ASPI interface


Track 1
Filename C:\01 - George Michael - Everything She Wants - Wham! .wav

Pre-gap length 0:00:02.00

Peak level 99.3 %
Track quality 100.0 %
Test CRC D603861E
Copy CRC D603861E
Copy OK

Track 2
Filename C:\02 - George Michael - Wake Me Up Before You Go-Go - Wham! .wav

Pre-gap length 0:00:00.90

Peak level 95.1 %
Track quality 99.9 %
Test CRC F423996B
Copy CRC F423996B
Copy OK

Track 3
Filename C:\03 - George Michael - Freedom - Wham! .wav

Pre-gap length 0:00:00.12

Peak level 99.3 %
Track quality 100.0 %
Test CRC 1A96EA9B
Copy CRC 1A96EA9B
Copy OK

Track 4
Filename C:\04 - George Michael - Faith .wav

Peak level 99.4 %
Track quality 100.0 %
Test CRC ABC2FE53
Copy CRC ABC2FE53
Copy OK

Track 5
Filename C:\05 - George Michael - Too Funky .wav

Peak level 90.8 %
Track quality 100.0 %
Test CRC 771B2812
Copy CRC 771B2812
Copy OK

Track 6
Filename C:\06 - George Michael - Fastlove .wav

Peak level 99.6 %
Track quality 100.0 %
Test CRC 1D24339F
Copy CRC 1D24339F
Copy OK

Track 7
Filename C:\07 - George Michael - Freedom! '90 .wav

Peak level 94.5 %
Track quality 99.9 %
Test CRC 83256C1C
Copy CRC 83256C1C
Copy OK

Track 8
Filename C:\08 - George Michael - Spinnng the Wheel .wav

Pre-gap length 0:00:01.30

Peak level 95.1 %
Track quality 100.0 %
Test CRC F7E8EC69
Copy CRC F7E8EC69
Copy OK

Track 9
Filename C:\09 - George Michael - Outside .wav

Pre-gap length 0:00:00.04

Peak level 100.0 %
Track quality 99.9 %
Test CRC 63D5C24D
Copy CRC 63D5C24D
Copy OK

Track 10
Filename C:\10 - George Michael - As (with Mary J. Blige) .wav

Peak level 99.3 %
Track quality 100.0 %
Test CRC 566411FD
Copy CRC 566411FD
Copy OK

Track 11
Filename C:\11 - George Michael - Freeek! .wav

Pre-gap length 0:00:00.58

Peak level 88.7 %
Track quality 100.0 %
Test CRC 6F5A1AC1
Copy CRC 6F5A1AC1
Copy OK

Track 12
Filename C:\12 - George Michael - Shoot the Dog .wav

Peak level 92.2 %
Track quality 99.9 %
Test CRC 7861B20D
Copy CRC 7861B20D
Copy OK

Track 13
Filename C:\13 - George Michael - Amazing .wav

Peak level 86.0 %
Track quality 100.0 %
Test CRC 6165D39A
Copy CRC 6165D39A
Copy OK

Track 14
Filename C:\14 - George Michael - Flawless (Go to the City) .wav

Peak level 83.2 %
Track quality 100.0 %
Test CRC AE7E804B
Copy CRC AE7E804B
Copy OK

Track 15
Filename C:\15 - George Michael - An Easier Affair .wav

Peak level 87.8 %
Track quality 100.0 %
Test CRC 437753DA
Copy CRC 437753DA
Copy OK

No errors occured


End of status report


http://rapidshare.com/files/330302601/GM06.CD1.FL.SCR.TBMC.part1.rar
http://rapidshare.com/files/330326292/GM06.CD1.FL.SCR.TBMC.part2.rar
http://rapidshare.com/files/330338548/GM06.CD1.FL.SCR.TBMC.part3.rar

CD 2:
01.Careless Whisper
02.Last Christmas - Wham!
03.A Different Corner
04.Father Figure
05.One More Try
06.Praying for Time
07.Heal the Pain (with Paul McCartney)
08.Don't Let the Sun Go Down on Me (with Elton John)
09.Jesus to a Child
10.Older
11.Round Here
12.You Have Been Loved
13.John And Elvis Are Dead
14.This Is Not Real Love (with Mutya)

EAC LOG
EAC extraction logfile from 24. June 2008, 7:17 for CD
George Michael / Twentyfive (CD 2 - For Loving)

Used drive : _NEC DVD_RW ND-2510A Adapter: 1 ID: 0
Read mode : Secure with NO C2, accurate stream, disable cache
Read offset correction : 48
Overread into Lead-In and Lead-Out : No

Used output format : C:\Program Files\FLAC\flac.exe (User Defined Encoder)
192 kBit/s
Additional command line options : -8 -A tukey(0.25) -A gauss(0.1875) -b 4096 -V -T "artist=%a" -T "title=%t" -T "album=%g" -T "date=%y" -T "tracknumber=%n" -T "genre=%m" %s --sector-align

Other options :
Fill up missing offset samples with silence : Yes
Delete leading and trailing silent blocks : No
Installed external ASPI interface


Track 1
Filename C:\01 - George Michael - Careless Whisper .wav

Pre-gap length 0:00:02.00

Peak level 99.6 %
Track quality 99.9 %
Test CRC 6C8C2C86
Copy CRC 6C8C2C86
Copy OK

Track 2
Filename C:\02 - George Michael - Last Christmas - Wham! .wav

Pre-gap length 0:00:01.04

Peak level 99.4 %
Track quality 100.0 %
Test CRC 847C7B29
Copy CRC 847C7B29
Copy OK

Track 3
Filename C:\03 - George Michael - A Different Corner .wav

Peak level 97.0 %
Track quality 100.0 %
Test CRC C42D1601
Copy CRC C42D1601
Copy OK

Track 4
Filename C:\04 - George Michael - Father Figure .wav

Pre-gap length 0:00:01.41

Peak level 99.4 %
Track quality 99.9 %
Test CRC E62779F8
Copy CRC E62779F8
Copy OK

Track 5
Filename C:\05 - George Michael - One More Try .wav

Peak level 99.3 %
Track quality 100.0 %
Test CRC 413312EE
Copy CRC 413312EE
Copy OK

Track 6
Filename C:\06 - George Michael - Praying for Time .wav

Peak level 99.4 %
Track quality 99.9 %
Test CRC BF769F58
Copy CRC BF769F58
Copy OK

Track 7
Filename C:\07 - George Michael - Heal the Pain (with Paul McCartney) .wav

Peak level 86.7 %
Track quality 100.0 %
Test CRC A08C252D
Copy CRC A08C252D
Copy OK

Track 8
Filename C:\08 - George Michael - Don't Let the Sun Go Down on Me (with Elton John) .wav

Pre-gap length 0:00:00.48

Peak level 99.3 %
Track quality 100.0 %
Test CRC 4F2824E5
Copy CRC 4F2824E5
Copy OK

Track 9
Filename C:\09 - George Michael - Jesus to a Child .wav

Pre-gap length 0:00:00.61

Peak level 99.6 %
Track quality 100.0 %
Test CRC 812D1CE3
Copy CRC 812D1CE3
Copy OK

Track 10
Filename C:\10 - George Michael - Older .wav

Peak level 92.0 %
Track quality 100.0 %
Test CRC A9F77662
Copy CRC A9F77662
Copy OK

Track 11
Filename C:\11 - George Michael - Round Here .wav

Pre-gap length 0:00:01.93

Peak level 82.2 %
Track quality 100.0 %
Test CRC F32DB5D2
Copy CRC F32DB5D2
Copy OK

Track 12
Filename C:\12 - George Michael - You Have Been Loved .wav

Pre-gap length 0:00:00.50

Peak level 81.0 %
Track quality 99.5 %
Test CRC 4468292D
Copy CRC 4468292D
Copy OK

Track 13
Filename C:\13 - George Michael - John And Elvis Are Dead .wav

Pre-gap length 0:00:00.13

Peak level 88.1 %
Track quality 100.0 %
Test CRC 8E91E161
Copy CRC 8E91E161
Copy OK

Track 14
Filename C:\14 - George Michael - This Is Not Real Love (with Mutya) .wav

Peak level 89.0 %
Track quality 99.9 %
Test CRC 99B31F3E
Copy CRC 99B31F3E
Copy OK

No errors occured


End of status report


http://rapidshare.com/files/330358610/GM06.CD2.FL.SCR.TBMC.part1.rar
http://rapidshare.com/files/330362785/GM06.CD2.FL.SCR.TBMC.part2.rar
http://rapidshare.com/files/330391023/GM06.CD2.FL.SCR.TBMC.part3.rar




George Michael - Live in London (2009)
Pop |mp3 | VBR 192 kbps | 213 MB | 07.12.2009 | Sony


Track List:

01. Waiting (reprise) (02:47)
02. Fastlove (05:38)
03. I’m your man (06:07)
04. Flawless (go to the city) (05:11)
05. Father figure (06:12)
06. You have been loved (05:37)
07. An easier affair (04:53)
08. Everything she wants (06:56)
09. One more try (05:10)
10. A different corner (04:08)
11. Too funky (04:27)
12. Shoot the dog (03:05)
13. John and elvis are dead (04:17)
14. Faith (03:22)
15. Spinning the wheel (10:12)
16. Feeling good (04:00)
17. Roxanne (04:37)
18. My mother had a brother (07:05)
19. Amazing (06:14)
20. Fantasy (05:24)
21. Outside (05:53)
22. Careless whispers (07:37)
23. Freedom (08:46)
24. Freedom reprise (12:48)
25. End

http://rapidshare.com/files/317990532/GM-Live.London.SCR.TBMC.part1.rar
http://rapidshare.com/files/317990527/GM-Live.London.SCR.TBMC.part2.rar





George Michael - December Song (I Dreamed Of Christmas) (EP-2009)
Pop, Christmas Music | FLAC (tracks+.cue) Lossless | 120 Mb | 15:49 Min.


Track List:

01. December Song (I Dreamed Of Christmas)
02. Jingle (A Musical Interlewd)
03. Edith & The King Pin (Live at Abbey Road )
04. Praying For Time (Live at Abbey Road )

EAC LOG
Exact Audio Copy V0.99 prebeta 4 from 23. January 2008

Îò÷¸ò EAC îá èçâëå÷åíèè, âûïîëíåííîì 4. ÿíâàğÿ 2010, 15:35

George Michael / December Song (I Dreamed Of Christmas)

Äèñêîâîä: ATAPI DVD DW 8X16X8X16 Adapter: 0 ID: 2

Ğåæèì ÷òåíèÿ : Äîñòîâåğíîñòü
Èñïîëüçîâàíèå òî÷íîãî ïîòîêà : Äà
Îòêëş÷åíèå êıøà àóäèî : Äà
Èñïîëüçîâàíèå óêàçàòåëåé C2 : Íåò

Êîğğåêöèÿ ñìåùåíèÿ ïğè ÷òåíèè : 618
Ñïîñîáíîñòü ÷èòàòü îáëàñòè Lead-in è Lead-out : Íåò
Çàïîëíåíèå ïğîïóùåííûõ ñıìïëîâ òèøèíîé : Äà
Óäàëåíèå áëîêîâ ñ òèøèíîé â íà÷àëå è êîíöå : Íåò
Ïğè âû÷èñëåíèÿõ CRC èñïîëüçîâàëèñü íóëåâûå ñıìïëû : Äà
Èíòåğôåéñ : Âñòğîåííûé Win32-èíòåğôåéñ äëÿ Win NT/2000

Âûõîäíîé ôîğìàò : Âíóòğåííèå WAV-îïåğàöèè
Ôîğìàò ñıìïëîâ : 44.100 Ãö; 16 áèò; ñòåğåî


TOC èçâëå÷¸ííîãî CD

Òğåê | Ñòàğò | Äëèòåëüíîñòü | Íà÷àëüíûé ñåêòîğ | Êîíå÷íûé ñåêòîğ
---------------------------------------------------------------------
1 | 0:00.00 | 3:35.31 | 0 | 16155
2 | 3:35.31 | 3:30.44 | 16156 | 31949
3 | 7:06.00 | 3:45.74 | 31950 | 48898
4 | 10:51.74 | 4:57.37 | 48899 | 71210


Õàğàêòåğèñòèêè äèàïàçîíà èçâëå÷åíèÿ è ñîîáùåíèÿ îá îøèáêàõ

Âûáğàííûé äèàïàçîí

Èìÿ ôàéëà C:\George Michael - December Song.wav

Ïèêîâûé óğîâåíü 97.7 %
Êà÷åñòâî äèàïàçîíà 100.0 %
CRC êîïèè DF1D32D1
Êîïèğîâàíèå... OK

Îøèáîê íå ïğîèçîøëî


AccurateRip: ñâîäêà

Òğåê 1 íåò â áàçå äàííûõ
Òğåê 2 íåò â áàçå äàííûõ
Òğåê 3 íåò â áàçå äàííûõ
Òğåê 4 íåò â áàçå äàííûõ

Íè îäíîãî òğåêà íåò â áàçå AccurateRip

Êîíåö îò÷¸òà


http://rapidshare.com/files/331584219/GM10Dec.Song.FL.SCR.TBMC.rar




Pop, Disco | Years Active: 1981-1986
FLAC | 2,20 GB | 6 Albums | % 5 Recovery File | Album Covers (Scans)
Also Known as; Wham! UK Origin; London. England
Former Members:George Michael, Andrew Ridgeley, Pepsi & Shirlie, Dee C. Lee


Wham! (often written WHAM!) was a British duo formed in 1981 by George Michael and Andrew Ridgeley. They were briefly known in the United States as Wham! UK because of a naming conflict with another band. Wham! sold 25 million certified albums from 1982 to 1986. Andrew and George met at Bushey Meads School in Bushey near Watford, England, UK. At first, they performed in a short-lived ska band called The Executive, alongside two of their former school friends Paul Atkey and Mike Murphy. When this group split, Michael and Ridgeley formed a duo called Wham! and went on to sign with Innervision Records. The duo later sued Innervision to be released from their contract. The group then signed with CBS, Columbia Records in the United States and Canada and Epic Records for the rest of the world. Michael took on the majority of roles and responsibilities within the band— composer, singer, producer, and occasional instrumentalist— but the contribution of Ridgeley as the group's image specialist and spokesman was crucial to the band's initial success . Ridgeley convinced a reluctant George Michael that Wham! needed to change their image and sound frequently, from the leather-clad moody singers of "Bad Boys" and "Young Guns (Go For It!)" to the more fashionable pop superstars of "Wake Me Up Before You Go Go." Still teenagers, they promoted themselves as hedonistic youngsters, proud to live a carefree life without work or commitment. This was reflected in their earliest singles which, part-parody, part-social comment, briefly earned Wham! a reputation as a dance protest group .
The debut record to be released by the band was "Wham Rap!" in June 1982. It was one of the first ever singles by a British group to include rapping and was a double-A side with a Social Mix and Anti-Social Mix. The record was not playlisted by BBC Radio 1 in the UK, partly because of the profanity in the Anti-Social Mix. Subsequently the reissued UK release replaced the controversial lines in the first verse "B1, B2, make a claim sign your name’s all you have to do" and the opening two phrases of the second verse citing "Mr. Average". Additionally two videos were recorded for each set of lyrics. In 1983 on the UK pop show, Channel 4's The Tube, Wham! performed live the original song in full complete with the B1,B2 lines. This version was considered far better and was later released in the UK as the U.S Remix. Wham! Rap did not chart for the group but in October 1982, their song "Young Guns (Go For It!)" was issued. The song was an appeal from one youthful lad to his friend to not throw his life away so early on marriage. It also stalled outside the UK Top 40 but then Wham! got lucky when Top of the Pops scheduled them. An important weekly BBC chart show on television, it had to look outside the Top 40 to fill a gap created by an act which had pulled out of recording. Nearest to the 40 mark and still climbing, Wham! was summoned, and a phenomenon immediately began. The Top of the Pops performance of Young Guns is still considered a great moment in the group's history - critical acclaim is given for the 'nightclub' feel of the dance routine by all four of the group.




Wham - Fantastic (1983)
Pop | FLAC (tracks+.cue) Lossless | 373 MB | 1983 | Epic


Track List:

01. Bad Boys
02. A Ray Of Sunshine
03. Love Machine
04. Wham Rap! (Enjoy What You Do )
05. A Ray Of Sunshine (Instrumental Remix)
06. Love Machine (Instrumental Remix)
07. Club Tropicana
08. Nothing Looks The Same In The Light
09. Come On!
10. Young Guns (Go For It!)
11. Nothing Looks The Same In The Light (Instrumental Remix)

EAC LOG
EAC extraction logfile from 21. June 2008, 3:32 for CD
Wham! / Fantastic

Used drive : SONY DVD RW AW-G170A Adapter: 1 ID: 1
Read mode : Secure with NO C2, accurate stream, disable cache
Read offset correction : 48
Overread into Lead-In and Lead-Out : No

Used output format : C:\bin\flac.exe (User Defined Encoder)
192 kBit/s
Additional command line options : -V -5 -T "artist=%a" -T "title=%t" -T "album=%g" -T "date=%y" -T "tracknumber=%n" -T "genre=%m" %s

Other options :
Fill up missing offset samples with silence : Yes
Delete leading and trailing silent blocks : No
Installed external ASPI interface


Track 1
Filename C:\Wham - Fantastic (1983) (FLAC)\01 - Wham! - Bad Boys.wav

Pre-gap length 0:00:02.00

Peak level 92.2 %
Track quality 100.0 %
Test CRC 2EEC5D5A
Copy CRC 2EEC5D5A
Copy OK

Track 2
Filename C:\Wham - Fantastic (1983) (FLAC)\02 - Wham! - A Ray Of Sunshine.wav

Peak level 92.2 %
Track quality 100.0 %
Test CRC F2126411
Copy CRC F2126411
Copy OK

Track 3
Filename C:\Wham - Fantastic (1983) (FLAC)\03 - Wham! - Love Machine.wav

Peak level 92.2 %
Track quality 100.0 %
Test CRC 63ED1237
Copy CRC 63ED1237
Copy OK

Track 4
Filename C:\Wham - Fantastic (1983) (FLAC)\04 - Wham! - Wham Rap! (Enjoy What You Do ).wav

Peak level 92.2 %
Track quality 99.9 %
Test CRC DF909F05
Copy CRC DF909F05
Copy OK

Track 5
Filename C:\Wham - Fantastic (1983) (FLAC)\05 - Wham! - A Ray Of Sunshine (Instrumental Remix).wav

Peak level 92.2 %
Track quality 100.0 %
Test CRC 3E0A147B
Copy CRC 3E0A147B
Copy OK

Track 6
Filename C:\Wham - Fantastic (1983) (FLAC)\06 - Wham! - Love Machine (Instrumental Remix).wav

Peak level 92.2 %
Track quality 100.0 %
Test CRC 2E8CA405
Copy CRC 2E8CA405
Copy OK

Track 7
Filename C:\Wham - Fantastic (1983) (FLAC)\07 - Wham! - Club Tropicana.wav

Peak level 92.2 %
Track quality 99.9 %
Test CRC E0A72EDF
Copy CRC E0A72EDF
Copy OK

Track 8
Filename C:\Wham - Fantastic (1983) (FLAC)\08 - Wham! - Nothing Looks The Same In The Light.wav

Peak level 92.2 %
Track quality 100.0 %
Test CRC 4478B7A9
Copy CRC 4478B7A9
Copy OK

Track 9
Filename C:\Wham - Fantastic (1983) (FLAC)\09 - Wham! - Come On!.wav

Peak level 92.2 %
Track quality 100.0 %
Test CRC 4DC8D9BB
Copy CRC 4DC8D9BB
Copy OK

Track 10
Filename C:\Wham - Fantastic (1983) (FLAC)\10 - Wham! - Young Guns (Go For It!).wav

Peak level 92.2 %
Track quality 100.0 %
Test CRC 6BD82D2C
Copy CRC 6BD82D2C
Copy OK

Track 11
Filename C:\Wham - Fantastic (1983) (FLAC)\11 - Wham! - Nothing Looks The Same In The Light (Instrumental Remix).wav

Peak level 92.2 %
Track quality 99.9 %
Test CRC 381E4A0C
Copy CRC 381E4A0C
Copy OK

No errors occured


End of status report


http://rapidshare.com/files/330394525/Wham-Fantastic.1983.FL.SCR.TBMC.part1.rar
http://rapidshare.com/files/330402927/Wham-Fantastic.1983.FL.SCR.TBMC.part2.rar



Wham - Make It Big (1984)
Pop | FLAC (tracks+.cue) Lossless | 259 MB | 1984 | Epic


Track List:

01. Wake Me Up Before You Go-Go
02. Everything She Wants
03. Heartbeat
04. Like A Baby
05. Freedom
06. If You Were There
07. Credit Card Baby
08. Careless Whisper

EAC LOG
EAC extraction logfile from 21. June 2008, 4:06 for CD
Wham! / Make It Big

Used drive : SONY DVD RW AW-G170A Adapter: 1 ID: 1
Read mode : Secure with NO C2, accurate stream, disable cache
Read offset correction : 48
Overread into Lead-In and Lead-Out : No

Used output format : C:\Users\bigsimonwilde\bin\flac.exe (User Defined Encoder)
192 kBit/s
Additional command line options : -V -5 -T "artist=%a" -T "title=%t" -T "album=%g" -T "date=%y" -T "tracknumber=%n" -T "genre=%m" %s

Other options :
Fill up missing offset samples with silence : Yes
Delete leading and trailing silent blocks : No
Installed external ASPI interface


Track 1
Filename C:\Wham - Make It Big (1984)(FLAC)\01 - Wham! - Wake Me Up Before You Go-Go.wav

Pre-gap length 0:00:02.00

Peak level 94.4 %
Track quality 100.0 %
Test CRC 709433C4
Copy CRC 709433C4
Copy OK

Track 2
Filename C:\Wham - Make It Big (1984)(FLAC)\02 - Wham! - Everything She Wants.wav

Peak level 94.4 %
Track quality 100.0 %
Test CRC A83D4213
Copy CRC A83D4213
Copy OK

Track 3
Filename C:\Wham - Make It Big (1984)(FLAC)\03 - Wham! - Heartbeat.wav

Peak level 94.4 %
Track quality 100.0 %
Test CRC 925CF166
Copy CRC 925CF166
Copy OK

Track 4
Filename C:\Wham - Make It Big (1984)(FLAC)\04 - Wham! - Like A Baby.wav

Peak level 100.0 %
Track quality 100.0 %
Test CRC 8C307839
Copy CRC 8C307839
Copy OK

Track 5
Filename C:\Wham - Make It Big (1984)(FLAC)\05 - Wham! - Freedom.wav

Peak level 94.4 %
Track quality 100.0 %
Test CRC 37FF674B
Copy CRC 37FF674B
Copy OK

Track 6
Filename C:\Wham - Make It Big (1984)(FLAC)\06 - Wham! - If You Were There.wav

Peak level 94.4 %
Track quality 100.0 %
Test CRC 1096C68C
Copy CRC 1096C68C
Copy OK

Track 7
Filename C:\Wham - Make It Big (1984)(FLAC)\07 - Wham! - Credit Card Baby.wav

Peak level 94.4 %
Track quality 100.0 %
Test CRC 06DBD371
Copy CRC 06DBD371
Copy OK

Track 8
Filename C:\Wham - Make It Big (1984)(FLAC)\08 - Wham! - Careless Whisper.wav

Peak level 94.4 %
Track quality 100.0 %
Test CRC A2BC14D8
Copy CRC A2BC14D8
Copy OK

No errors occured


End of status report


http://rapidshare.com/files/333526061/Wham-Make.It.BigFL.SCR.TBMC.part1.rar
http://rapidshare.com/files/333526077/Wham-Make.It.BigFL.SCR.TBMC.part2.rar




Wham - Music From The Edge Of Heaven (1986)
Pop | FLAC (tracks+.cue) Lossless | 284 MB | 1996 | Epic


Track List:

01. The Edge Of Heaven
02. Battlestations
03. I'm Your Man
04. Wham! Rap '86
05. A Different Corner
06. Blue (Live In China)
07. Where Did Your Heart Go
08. Last Christmas

EAC LOG
EAC extraction logfile from 21. June 2008, 5:41 for CD
Wham / Music From The Edge Of Heaven

Used drive : SONY DVD RW AW-G170A Adapter: 1 ID: 1
Read mode : Secure with NO C2, accurate stream, disable cache
Read offset correction : 48
Overread into Lead-In and Lead-Out : No

Used output format : C:\Users\bigsimonwilde\bin\flac.exe (User Defined Encoder)
192 kBit/s
Additional command line options : -V -5 -T "artist=%a" -T "title=%t" -T "album=%g" -T "date=%y" -T "tracknumber=%n" -T "genre=%m" %s

Other options :
Fill up missing offset samples with silence : Yes
Delete leading and trailing silent blocks : No
Installed external ASPI interface


Track 1
Filename C:\Wham - Music From The Edge Of Heaven (1986) (FLAC)\01 - Wham - The Edge Of Heaven.wav

Pre-gap length 0:00:02.00

Peak level 79.6 %
Track quality 99.6 %
Test CRC 95B6AE3D
Copy CRC 95B6AE3D
Copy OK

Track 2
Filename C:\Wham - Music From The Edge Of Heaven (1986) (FLAC)\02 - Wham - Battlestations.wav

Peak level 100.0 %
Track quality 100.0 %
Test CRC D6FA6C93
Copy CRC D6FA6C93
Copy OK

Track 3
Filename C:\Wham - Music From The Edge Of Heaven (1986) (FLAC)\03 - Wham - I'm Your Man.wav

Peak level 73.2 %
Track quality 100.0 %
Test CRC B19E7EBC
Copy CRC B19E7EBC
Copy OK

Track 4
Filename C:\Wham - Music From The Edge Of Heaven (1986) (FLAC)\04 - Wham - Wham! Rap '86.wav

Peak level 72.0 %
Track quality 99.9 %
Test CRC 01076D0A
Copy CRC 01076D0A
Copy OK

Track 5
Filename C:\Wham - Music From The Edge Of Heaven (1986) (FLAC)\05 - Wham - A Different Corner.wav

Pre-gap length 0:00:04.80

Peak level 52.1 %
Track quality 100.0 %
Test CRC AB9D4DAB
Copy CRC AB9D4DAB
Copy OK

Track 6
Filename C:\Wham - Music From The Edge Of Heaven (1986) (FLAC)\06 - Wham - Blue (Live In China).wav

Pre-gap length 0:00:01.22

Peak level 58.6 %
Track quality 100.0 %
Test CRC D208918B
Copy CRC D208918B
Copy OK

Track 7
Filename C:\Wham - Music From The Edge Of Heaven (1986) (FLAC)\07 - Wham - Where Did Your Heart Go .wav

Peak level 73.9 %
Track quality 100.0 %
Test CRC 9C9E1924
Copy CRC 9C9E1924
Copy OK

Track 8
Filename C:\Wham - Music From The Edge Of Heaven (1986) (FLAC)\08 - Wham - Last Christmas.wav

Peak level 60.7 %
Track quality 100.0 %
Test CRC B4EBDD2B
Copy CRC B4EBDD2B
Copy OK

No errors occured


End of status report


http://rapidshare.com/files/330450944/Wham-Music.From.The.Edge.Of.Heaven.1986.FL.SCR.TBMC.part1.rar
http://rapidshare.com/files/330469115/Wham-Music.From.The.Edge.Of.Heaven.1986.FL.SCR.TBMC.part2.rar



Wham - The Final (1986)
Pop | FLAC (tracks+.cue) Lossless | 513 MB | 1986 | Epic


Track List:
01. Wham Rap! (Enjoy What You Do )
02. Young Guns (Go For It!)
03. Bad Boys
04. Club Tropicana
05. Wake Me Up Before You Go Go
06. Careless Whisper
07. Freedom
08. Last Christmas (Pudding Mix)
09. Everything She Wants
10. I'm Your Man
11. A Different Corner
12. Battlestations
13. Where Did Your Heart Go
14. The Edge Of Heaven

EAC LOG
EAC extraction logfile from 21. June 2008, 5:00 for CD
Wham / The Final

Used drive : SONY DVD RW AW-G170A Adapter: 1 ID: 1
Read mode : Secure with NO C2, accurate stream, disable cache
Read offset correction : 48
Overread into Lead-In and Lead-Out : No

Used output format : C:\Users\bigsimonwilde\bin\flac.exe (User Defined Encoder)
192 kBit/s
Additional command line options : -V -5 -T "artist=%a" -T "title=%t" -T "album=%g" -T "date=%y" -T "tracknumber=%n" -T "genre=%m" %s

Other options :
Fill up missing offset samples with silence : Yes
Delete leading and trailing silent blocks : No
Installed external ASPI interface


Track 1
Filename C:\Wham - The Final (1986) (FLAC)\01 - Wham - Wham Rap! (Enjoy What You Do ).wav

Pre-gap length 0:00:02.00

Peak level 100.0 %
Track quality 99.9 %
Test CRC 6FA7D77C
Copy CRC 6FA7D77C
Copy OK

Track 2
Filename C:\Wham - The Final (1986) (FLAC)\02 - Wham - Young Guns (Go For It!).wav

Peak level 100.0 %
Track quality 100.0 %
Test CRC D66A407B
Copy CRC D66A407B
Copy OK

Track 3
Filename C:\Wham - The Final (1986) (FLAC)\03 - Wham - Bad Boys.wav

Peak level 100.0 %
Track quality 100.0 %
Test CRC ECCF69A8
Copy CRC ECCF69A8
Copy OK

Track 4
Filename C:\Wham - The Final (1986) (FLAC)\04 - Wham - Club Tropicana.wav

Peak level 100.0 %
Track quality 100.0 %
Test CRC 81C0F116
Copy CRC 81C0F116
Copy OK

Track 5
Filename C:\Wham - The Final (1986) (FLAC)\05 - Wham - Wake Me Up Before You Go Go.wav

Peak level 100.0 %
Track quality 100.0 %
Test CRC 65CB07A7
Copy CRC 65CB07A7
Copy OK

Track 6
Filename C:\Wham - The Final (1986) (FLAC)\06 - Wham - Careless Whisper.wav

Peak level 100.0 %
Track quality 100.0 %
Test CRC E11ED1F7
Copy CRC E11ED1F7
Copy OK

Track 7
Filename C:\Wham - The Final (1986) (FLAC)\07 - Wham - Freedom.wav

Peak level 100.0 %
Track quality 100.0 %
Test CRC 7E685217
Copy CRC 7E685217
Copy OK

Track 8
Filename C:\Wham - The Final (1986) (FLAC)\08 - Wham - Last Christmas (Pudding Mix).wav

Peak level 100.0 %
Track quality 100.0 %
Test CRC D743D3F4
Copy CRC D743D3F4
Copy OK

Track 9
Filename C:\Wham - The Final (1986) (FLAC)\09 - Wham - Everything She Wants.wav

Peak level 100.0 %
Track quality 100.0 %
Test CRC 6AF5B0D5
Copy CRC 6AF5B0D5
Copy OK

Track 10
Filename C:\Wham - The Final (1986) (FLAC)\10 - Wham - I'm Your Man.wav

Peak level 100.0 %
Track quality 99.9 %
Test CRC 8B34B819
Copy CRC 8B34B819
Copy OK

Track 11
Filename C:\Wham - The Final (1986) (FLAC)\11 - Wham - A Different Corner.wav

Peak level 100.0 %
Track quality 100.0 %
Test CRC 2A5A3463
Copy CRC 2A5A3463
Copy OK

Track 12
Filename C:\Wham - The Final (1986) (FLAC)\12 - Wham - Battlestations.wav

Peak level 100.0 %
Track quality 100.0 %
Test CRC F6E925D7
Copy CRC F6E925D7
Copy OK

Track 13
Filename C:\Wham - The Final (1986) (FLAC)\13 - Wham - Where Did Your Heart Go.wav

Peak level 100.0 %
Track quality 100.0 %
Test CRC C967B29F
Copy CRC C967B29F
Copy OK

Track 14
Filename C:\Wham - The Final (1986) (FLAC)\14 - Wham - The Edge Of Heaven.wav

Peak level 100.0 %
Track quality 100.0 %
Test CRC 4509B20E
Copy CRC 4509B20E
Copy OK

No errors occured


End of status report


http://rapidshare.com/files/330477247/Wham-The.Final.1986.FL.SCR.TBMC.part1.rar
http://rapidshare.com/files/330479802/Wham-The.Final.1986.FL.SCR.TBMC.part2.rar
http://rapidshare.com/files/330501694/Wham-The.Final.1986.FL.SCR.TBMC.part3.rar



Wham - Twelve Inch Mixes (1992)
Pop | FLAC (tracks+.cue) Lossless | 239 MB | 1992 | Epic


Track List:

01. Wham Rap! (Enjoy What You Do) (Unsocial Mix)
02. Young Guns (Go For It)
03. Freedom (Long Mix)
04. Everything She Wants (Remix)
05. I'm Your Man (Extended Stimulation

EAC LOG
EAC extraction logfile from 21. June 2008, 16:43 for CD
Wham! / Twelve Inch Mixes

Used drive : SONY DVD RW AW-G170A Adapter: 1 ID: 1
Read mode : Secure with NO C2, accurate stream, disable cache
Read offset correction : 48
Overread into Lead-In and Lead-Out : No

Used output format : C:\Users\bigsimonwilde\bin\flac.exe (User Defined Encoder)
192 kBit/s
Additional command line options : -V -5 -T "artist=%a" -T "title=%t" -T "album=%g" -T "date=%y" -T "tracknumber=%n" -T "genre=%m" %s

Other options :
Fill up missing offset samples with silence : Yes
Delete leading and trailing silent blocks : No
Installed external ASPI interface


Track 1
Filename C:\Wham - Twelve Inch Mixes (1992) (FLAC)\01 - Wham! - Wham Rap! (Enjoy What You Do) (Unsocial Mix).wav

Pre-gap length 0:00:02.00

Peak level 93.7 %
Track quality 99.9 %
Test CRC 813686DC
Copy CRC 813686DC
Copy OK

Track 2
Filename C:\Wham - Twelve Inch Mixes (1992) (FLAC)\02 - Wham! - Young Guns (Go For It).wav

Pre-gap length 0:00:00.33

Peak level 81.7 %
Track quality 100.0 %
Test CRC 31106598
Copy CRC 31106598
Copy OK

Track 3
Filename C:\Wham - Twelve Inch Mixes (1992) (FLAC)\03 - Wham! - Freedom (Long Mix).wav

Pre-gap length 0:00:00.33

Peak level 100.0 %
Track quality 100.0 %
Test CRC 5E1E6E26
Copy CRC 5E1E6E26
Copy OK

Track 4
Filename C:\Wham - Twelve Inch Mixes (1992) (FLAC)\04 - Wham! - Everything She Wants (Remix).wav

Pre-gap length 0:00:00.33

Peak level 100.0 %
Track quality 100.0 %
Test CRC 9072DF77
Copy CRC 9072DF77
Copy OK

Track 5
Filename C:\Wham - Twelve Inch Mixes (1992) (FLAC)\05 - Wham! - I'm Your Man (Extended Stimulation).wav

Pre-gap length 0:00:00.33

Peak level 94.3 %
Track quality 100.0 %
Test CRC BB7042EE
Copy CRC BB7042EE
Copy OK

No errors occured


End of status report


http://rapidshare.com/files/330504203/Wham-Twelve.Inch.Mixes.1992.FL.SCR.TBMC.part1.rar
http://rapidshare.com/files/330515406/Wham-Twelve.Inch.Mixes.1992.FL.SCR.TBMC.part2.rar



Wham - If You Were There (The Best Of Wham) (1997)
Pop | FLAC (tracks+.cue) Lossless | 538 MB | 1997 | Epic


Track List:
01. If You Were There
02. I'm Your Man
03. Everything She Wants
04. Club Tropicana
05. Wake Me Up Before You Go-Go
06. Like A Baby
07. Freedom
08. The Edge Of Heaven
09. Wham Rap! (Enjoy What You Do)
10. Young Gunes (Gor For It)
11. Last Christmas
12. Where Did Your Heart Go
13. Everything She Wants '97
14. I'm Your Man '96

EAC LOG
EAC extraction logfile from 21. June 2008, 21:44 for CD
Wham! / If You Were There (The Best Of Wham!)

Used drive : SONY DVD RW AW-G170A Adapter: 1 ID: 1
Read mode : Secure with NO C2, accurate stream, disable cache
Read offset correction : 48
Overread into Lead-In and Lead-Out : No

Used output format : C:\Users\bigsimonwilde\bin\flac.exe (User Defined Encoder)
192 kBit/s
Additional command line options : -V -5 -T "artist=%a" -T "title=%t" -T "album=%g" -T "date=%y" -T "tracknumber=%n" -T "genre=%m" %s

Other options :
Fill up missing offset samples with silence : Yes
Delete leading and trailing silent blocks : No
Installed external ASPI interface


Track 1
Filename C:\1997 Wham - If You Were There (The Best Of Wham) (1997) [FLAC]\01 - Wham! - If You Were There.wav

Pre-gap length 0:00:02.00

Peak level 95.1 %
Track quality 99.9 %
Test CRC E9129AC6
Copy CRC E9129AC6
Copy OK

Track 2
Filename C:\1997 Wham - If You Were There (The Best Of Wham) (1997) [FLAC]\02 - Wham! - I'm Your Man.wav

Peak level 95.1 %
Track quality 100.0 %
Test CRC 1A31831B
Copy CRC 1A31831B
Copy OK

Track 3
Filename C:\1997 Wham - If You Were There (The Best Of Wham) (1997) [FLAC]\03 - Wham! - Everything She Wants.wav

Peak level 95.1 %
Track quality 100.0 %
Test CRC 9D3A1193
Copy CRC 9D3A1193
Copy OK

Track 4
Filename C:\1997 Wham - If You Were There (The Best Of Wham) (1997) [FLAC]\04 - Wham! - Club Tropicana.wav

Peak level 97.0 %
Track quality 100.0 %
Test CRC 9387FF24
Copy CRC 9387FF24
Copy OK

Track 5
Filename C:\1997 Wham - If You Were There (The Best Of Wham) (1997) [FLAC]\05 - Wham! - Wake Me Up Before You Go-Go.wav

Peak level 95.1 %
Track quality 99.9 %
Test CRC 187727F7
Copy CRC 187727F7
Copy OK

Track 6
Filename C:\1997 Wham - If You Were There (The Best Of Wham) (1997) [FLAC]\06 - Wham! - Like A Baby.wav

Peak level 98.6 %
Track quality 99.9 %
Test CRC 17A99DC9
Copy CRC 17A99DC9
Copy OK

Track 7
Filename C:\1997 Wham - If You Were There (The Best Of Wham) (1997) [FLAC]\07 - Wham! - Freedom.wav

Peak level 95.1 %
Track quality 100.0 %
Test CRC 624D3E50
Copy CRC 624D3E50
Copy OK

Track 8
Filename C:\1997 Wham - If You Were There (The Best Of Wham) (1997) [FLAC]\08 - Wham! - The Edge Of Heaven.wav

Peak level 95.1 %
Track quality 99.9 %
Test CRC CB65ADD9
Copy CRC CB65ADD9
Copy OK

Track 9
Filename C:\1997 Wham - If You Were There (The Best Of Wham) (1997) [FLAC]\09 - Wham! - Wham Rap! (Enjoy What You Do).wav

Peak level 97.0 %
Track quality 100.0 %
Test CRC 5016A543
Copy CRC 5016A543
Copy OK

Track 10
Filename C:\1997 Wham - If You Were There (The Best Of Wham) (1997) [FLAC]\10 - Wham! - Young Gunes (Gor For It).wav

Peak level 95.1 %
Track quality 100.0 %
Test CRC BC7C6814
Copy CRC BC7C6814
Copy OK

Track 11
Filename C:\1997 Wham - If You Were There (The Best Of Wham) (1997) [FLAC]\11 - Wham! - Last Christmas.wav

Peak level 97.0 %
Track quality 100.0 %
Test CRC 37BB8763
Copy CRC 37BB8763
Copy OK

Track 12
Filename C:\1997 Wham - If You Were There (The Best Of Wham) (1997) [FLAC]\12 - Wham! - Where Did Your Heart Go.wav

Peak level 97.0 %
Track quality 100.0 %
Test CRC 3B750AF1
Copy CRC 3B750AF1
Copy OK

Track 13
Filename C:\1997 Wham - If You Were There (The Best Of Wham) (1997) [FLAC]\13 - Wham! - Everything She Wants '97.wav

Peak level 95.1 %
Track quality 99.9 %
Test CRC A8BA8EE3
Copy CRC A8BA8EE3
Copy OK

Track 14
Filename C:\1997 Wham - If You Were There (The Best Of Wham) (1997) [FLAC]\14 - Wham! - I'm Your Man '96.wav

Peak level 95.1 %
Track quality 100.0 %
Test CRC 576A00C6
Copy CRC 576A00C6
Copy OK

No errors occured


End of status report


http://rapidshare.com/files/330424046/Wham-If.You.Were.There.1997.FL.SCR.TBMC.part1.rar
http://rapidshare.com/files/330427358/Wham-If.You.Were.There.1997.FL.SCR.TBMC.part2.rar
http://rapidshare.com/files/330450493/Wham-If.You.Were.There.1997.FL.SCR.TBMC.part3.rar

Please, NO MIRRORS!!!

Visit my blog!

ADVERTISING » Very Fast Download!



« ADVERTISING




Posted By: worstfilms Date: 14 Jan 2010 12:59:47
Thank you, thank you, thank you for George Michael. Long overdue in lossless.

FYI: It would appear that the link for Part 3 of the "Older" album is not listed. Can you check please.
Posted By: SCR09 Date: 14 Jan 2010 14:05:55
Thank you for your comments.

Sorry, i forgot to add part3, please finde below,

http://rapidshare.com/files/330192704/GM96.FL.SCR.TBMC.part3.rar
Posted By: KokOtazO Date: 14 Jan 2010 16:24:37
Thx my friend
Posted By: jebac Date: 14 Jan 2010 17:53:14
Wow. Great post. Thank you for your effort.
Posted By: retan Date: 14 Jan 2010 18:14:17
Saying simply "thank you" seems too little for your work! But I do not know how to express my gratitude!!!
Posted By: akiskotsavax Date: 14 Jan 2010 21:24:14
GREATS POST THANK YOU FOR THE LOSSLESS!!!!!!!!!!!!!!
Posted By: LivinLarge Date: 15 Jan 2010 01:50:52
Thanks for the great post....nice job!
Posted By: SCR09 Date: 15 Jan 2010 14:10:10
This is full discography of GM.
Posted By: nhh4484 Date: 16 Jan 2010 18:37:56
There are two missing tracks, hope you'll reup them

Track 13
Filename C:\Ladies & Gentlemen - (Disc 2) (FLAC)\13 - George Michael - I Knew You Were Waiting (For Me) (With Aretha Franklin) .wav

Peak level 93.1 %
Track quality 100.0 %
Test CRC 42F88E00
Copy CRC 42F88E00
Copy OK

Track 8
Filename C:\08 - George Michael - Don't Let the Sun Go Down on Me (with Elton John) .wav

Pre-gap length 0:00:00.48

Peak level 99.3 %
Track quality 100.0 %
Test CRC 4F2824E5
Copy CRC 4F2824E5
Copy OK
Posted By: gonzalo76 Date: 22 Jan 2010 13:29:15
Original post:

George Michael + Wham - The Collection
Posted By : Marsha | Date : 12 Nov 2009 04:45:00 | Comments : 2

http://avaxhome.ws/music/rock/george_michael_and_wham_the_collection.html

P.S: Compare EAC logs for more proves.
Posted By: Pico1965 Date: 26 Jan 2010 16:48:01
And the same tracks lost !!!
Posted By: Charlysoft Date: 30 Jun 2010 23:10:43
please repost... thanks!!!
Posted By: jagoro Date: 19 Oct 2010 17:19:19
Some links is dead, please reup!!!

http://rapidshare.com/files/330402927/Wham-Fantastic.1983.FL.SCR.TBMC.part2.rar
http://rapidshare.com/files/330469115/Wham-Music.From.The.Edge.Of.Heaven.1986.FL.SCR.TBMC.part2.rar
http://rapidshare.com/files/330479802/Wham-The.Final.1986.FL.SCR.TBMC.part2.rar
Posted By: misterphilgood Date: 11 Nov 2010 10:25:57
BIG BIG BIG Thanks !

But the link of this albums is dead :
- George Michael - Live in London (2009)
- George Michael And Queen With Lisa Stansfield - Five Live - EP (1993)
- Wham - Fantastic (1983) Part2
- Wham - Make It Big (1984) Part2
- Wham - Music From The Edge Of Heaven (1986) Part2
- Wham - The Final (1986) Part2

Please reupload.
Many thanks
Posted By: tbmusic Date: 28 Dec 2010 14:39:41
thank you
Posted By: doxoffice Date: 02 Feb 2011 01:30:54
Thanks a lot!!!!!!!
Posted By: dear1957 Date: 01 Mar 2011 00:15:16
Some links is dead, please reup!!!

http://rapidshare.com/files/330402927/Wham-Fantastic.1983.FL.SCR.TBMC.part2.rar
http://rapidshare.com/files/330469115/Wham-Music.From.The.Edge.Of.Heaven.1986.FL.SCR.TBMC.part2.rar
http://rapidshare.com/files/330479802/Wham-The.Final.1986.FL.SCR.TBMC.part2.rar
Posted By: zeus2zeus Date: 01 Mar 2011 07:24:46
Great post! :) Thanks for all your efforts. Cheers!
Posted By: pedrozet45 Date: 26 Mar 2011 16:09:45
Thanks a lot from Spain, for me is one of the best COMPOSERS/PERFORMERS of the last three decades last century. People come and people go, and like me, next to the fifties, the needing, the necessities and the situation of yoy whole life ant the the world around you change. 49 y/o but since 2001, and the shock of the sep 11 nothing is watched the same, at least for me. First, at the end, the AIDS, and for beginning the XXI (no catastrophe for computers!), the attacks, the wars, and now the crisis. I thought I never see another, but...
Well, Michael, Be as happy as you can with your partner, the thirty-somethings and the forti- fifties will keep on listening your record and from now on, give us a tour to say that essentially life is the same. If I can't go , We always have the BD or DVD.
Meanwhile, because Columbia/CBS was as it was, no reissue, no remaster, no Japan edition with outtakes, so if something's is missing there's always places like avax and people like 5Cr09... even in Spain iTunes doesn't have all the catalog----.
Well, misters, The people of the Middle East are fighting themselves for the rights, support and the greatest luck, and the people of Japan are suffering... That's why all we listen in the relax times George.
Have a Good W-E.
Pedro, Madrid, Spain. (Sorry if I've said something that disturbs someone).
Posted By: riki100 Date: 23 Sep 2011 14:38:59
new link
- Wham - Fantastic (1983)
http://www.filesonic.com/file/1014752514/1
http://www.fileserve.com/file/79UepTx/1

- Wham - Make It Big (1984)
http://www.filesonic.com/file/1014745074/2
http://www.fileserve.com/file/hctXCdV/2

- Wham - The Final (1986)
http://www.filesonic.com/file/1014756754/3
http://www.fileserve.com/file/KvZTnBe/3

- Wham - Music From The Edge Of Heaven (1986)
http://www.filesonic.com/file/1014745334/4
http://www.fileserve.com/file/BRrFXF9/4

-George Michael And Queen With Lisa Stansfield - Five Live
http://www.filesonic.com/file/324726244

Posted By: Anishtain_DM Date: 08 Jan 2012 11:51:29
Wooooooooooooowwwwww I can just say woooooooow

thank you SCR09
Posted By: Anne14 Date: 21 Jun 2012 03:49:21
Hello there,

The third link that you had posted for the George Michael's "Older" FLAC album doesn't exit/work.

I was wondering if you could reupload the rapidshare link again.

I would be very grateful.

Cheers

Anne