Loading...

Earth, Wind & Fire - Avatar (1996) [Japan only Release]

Posted By : Justin | Date : 14 Sep 2011 16:04:36 | Comments : 5 |
|



Earth, Wind & Fire - Avatar (1996) [Japanese Edition]
EAC-FLAC with CUE & LOG - 408 MB | Full Scans - 491 MB | MP3 CBR 320 Kbps - 127 MB
R&B / Funk / Soul | 56:27 minutes | Label: Avex Trax, Japan | Cat. # AVCD-11465

Earth, Wind & Fire is an American R&B and funk band formed in Chicago, Illinois, in 1969. Also known as EWF, the band has won six Grammy Awards and four American Music Awards. Avatar is Japan only pre-release of the following year later "In the Name of Love" album. It has a different tracklisting and some additional tracks.


Earth, Wind & Fire's return to Warner Bros. with 1993's Millennium proved to be short-lived -- the album failed to meet the company's expectations commercially. Four years later, EWF ended up on the independent, Miami-based Pyramid label with the surprisingly retro In the Name of Love. More personnel changes had taken place, but thankfully, Maurice and Verdine White and Philip Bailey were still on board for what was EWF's most live-sounding, least high-tech offering since 1983's Powerlight. (However, EWF had been touring without Maurice since 1994). Live horns and real instruments abound, and everything from the ballads "Cruising," "When Love Goes Wrong" and "Right Time" to the punchy funk ditty "Rock It" sounds like it could have been recorded in the 1970s. One very pleasant surprise is a remake of "Love of Life," which the pre-Bailey EWF embraced on its self-titled debut album of 1971. Bailey's son, Sir James Bailey, raps on the sociopolitical "Revolution," but on the whole, this excellent CD is unapologetically retro.

-- Review for In the Name of Love by Alex Henderson, allmusic.com


Tracklist:

01. Keep It Real
02. The Right Time
03. Feel U Up
04. Avatar (Interlude)
05. Cruising
06. Revolution (Just Evolution)
07. Round And Round
08. Change Your Mind
09. Love Is Life
10. In The Name Of Love
11. Take You To Heaven
12. Rock It
13. Bahia (Interlude)

Produced by Maurice White.

Thanks to BVstudio!

EAC-LOG
Exact Audio Copy V1.0 beta 1 from 15. November 2010

EAC extraction logfile from 24. January 2011, 21:57

Earth, Wind & Fire / Avatar

Used drive : PIONEER DVD-RW DVR-112D Adapter: 2 ID: 0

Read mode : Secure
Utilize accurate stream : Yes
Defeat audio cache : Yes
Make use of C2 pointers : No

Read offset correction : 48
Overread into Lead-In and Lead-Out : No
Fill up missing offset samples with silence : Yes
Delete leading and trailing silent blocks : No
Null samples used in CRC calculations : Yes
Used interface : Installed external ASPI interface

Used output format : User Defined Encoder
Selected bitrate : 1024 kBit/s
Quality : High
Add ID3 tag : No
Command line compressor : C:\Program Files (x86)\Exact Audio Copy\Flac\flac.exe
Additional command line options : -5 -V -T "ARTIST=%a" -T "TITLE=%t" -T "ALBUM=%g" -T "DATE=%y" -T "TRACKNUMBER=%n" -T "GENRE=%m" -T "COMMENT=EAC FLAC -5" %s


TOC of the extracted CD

Track | Start | Length | Start sector | End sector
---------------------------------------------------------
1 | 0:00.00 | 4:52.27 | 0 | 21926
2 | 4:52.27 | 4:14.60 | 21927 | 41036
3 | 9:07.12 | 4:05.68 | 41037 | 59479
4 | 13:13.05 | 1:49.35 | 59480 | 67689
5 | 15:02.40 | 5:42.05 | 67690 | 93344
6 | 20:44.45 | 5:08.52 | 93345 | 116496
7 | 25:53.22 | 4:00.58 | 116497 | 134554
8 | 29:54.05 | 5:31.32 | 134555 | 159411
9 | 35:25.37 | 5:01.28 | 159412 | 182014
10 | 40:26.65 | 5:08.15 | 182015 | 205129
11 | 45:35.05 | 4:34.00 | 205130 | 225679
12 | 50:09.05 | 4:27.02 | 225680 | 245706
13 | 54:36.07 | 1:50.50 | 245707 | 254006


Range status and errors

Selected range

Filename F:\Earth, Wind & Fire - Avatar - 1996 (Japan)\Earth, Wind & Fire - Avatar.wav

Peak level 100.0 %
Extraction speed 0.2 X
Range quality 100.0 %
Test CRC 9BE015FD
Copy CRC 9BE015FD
Copy OK

No errors occurred


AccurateRip summary

Track 1 not present in database
Track 2 not present in database
Track 3 not present in database
Track 4 not present in database
Track 5 not present in database
Track 6 not present in database
Track 7 not present in database
Track 8 not present in database
Track 9 not present in database
Track 10 not present in database
Track 11 not present in database
Track 12 not present in database
Track 13 not present in database

None of the tracks are present in the AccurateRip database

End of status report





Download

ADVERTISING » Very Fast Download!



« ADVERTISING




Posted By: Jota10 Date: 15 Sep 2011 19:39:43
The three elements dominating the time of arrest.
Very good post;
Thank you.
Floripa, SC, Brasil
Posted By: Tuckertje Date: 17 Sep 2011 18:13:03
Thanks from Holland!
Posted By: RunawayTrane Date: 18 Sep 2011 09:01:16
can't get this in Brooklyn, much thanks to you!
Posted By: AudioTiger Date: 21 Sep 2011 07:07:53
AudioThanXXX!
Posted By: Marce03 Date: 16 Jan 2012 05:01:19
Muchas gracias!!!