Loading...

George Harrison with Eric Clapton and His Band - Fourth Night Revisited (1992)

Posted By : v3122 | Date : 23 May 2013 11:54:13 | Comments : 3 |
|


George Harrison with Eric Clapton and His Band - Fourth Night Revisited (1992) front

George Harrison with Eric Clapton and His Band - Fourth Night Revisited (1992)
EAC | Flac(Image) + Cue + Log & iPod M4A(Tracks) & MP3 CBR 320Kbps
2CD | 2003 | Russia | Bootleg | ~ 851 or 858 or 314 Mb | Scans Included
Rock / Classic Rock

1991-12-05 Nagoya (Fourth Night Live)

There's not much live Harrison stuff, and of what there is this is one of the best. It's a DAT recording in stereo, although the balance is a little lop-sided in the cans, it sounds great through the speakers. Not exactly soundboard, but very good for an audience recording, although you may want to mess around with your graphic. As for the music, it's great. An exciting gig with George, Clapton and his band breathing new life into some old songs. Really excellent in fact. For me, the only problem with this double CD is that it contains Clapton doing `Wonderful tonight', a track that I just cannot hack - but he does do a good version of badge. Still, that's only a small corner of the whole - it's mainly George's gig and a very good one at that.

by Raz, Ralph.Sandland, bootlegzone

George Harrison with Eric Clapton and His Band - Fourth Night Revisited (1992)

George Harrison with Eric Clapton and His Band - Fourth Night Revisited (1992):

George Harrison with Eric Clapton and His Band - Fourth Night Revisited (1992) cd1

Tracklist CD1:

01. I Want To Tell You
02. Old Brown Shoe
03. Taxman
04. Give Me Love (Give Me Peace On Earth)
05. If I Needed Someone
06. Something
07. What Is Life
08. Dark Horse
09. Piggies
10. Pretending
11. Old Love
12. Badge
13. Wonderful Tonight

EAC Log
Exact Audio Copy V0.99 prebeta 4 from 23. January 2008

EAC extraction logfile from 10. October 2011, 23:26

George Harrisson & Eric Clapton / Rock Legend Japan Tour '91: Fourth Night Live (Disc 1)

Used drive : PIONEER DVD-RW DVR-110D Adapter: 1 ID: 1

Read mode : Secure
Utilize accurate stream : Yes
Defeat audio cache : Yes
Make use of C2 pointers : No

Read offset correction : 48
Overread into Lead-In and Lead-Out : No
Fill up missing offset samples with silence : Yes
Delete leading and trailing silent blocks : No
Null samples used in CRC calculations : Yes
Used interface : Native Win32 interface for Win NT & 2000

Used output format : User Defined Encoder
Selected bitrate : 1024 kBit/s
Quality : High
Add ID3 tag : No
Command line compressor : C:\Program Files\FLAC\flac.exe
Additional command line options : -8 -V %s


TOC of the extracted CD

Track | Start | Length | Start sector | End sector
---------------------------------------------------------
1 | 0:00.00 | 4:29.68 | 0 | 20242
2 | 4:29.68 | 3:51.32 | 20243 | 37599
3 | 8:21.25 | 4:17.48 | 37600 | 56922
4 | 12:38.73 | 3:37.52 | 56923 | 73249
5 | 16:16.50 | 4:06.38 | 73250 | 91737
6 | 20:23.13 | 5:07.47 | 91738 | 114809
7 | 25:30.60 | 4:44.20 | 114810 | 136129
8 | 30:15.05 | 4:17.73 | 136130 | 155477
9 | 34:33.03 | 2:58.22 | 155478 | 168849
10 | 37:31.25 | 7:12.13 | 168850 | 201262
11 | 44:43.38 | 10:45.47 | 201263 | 249684
12 | 55:29.10 | 6:08.25 | 249685 | 277309
13 | 61:37.35 | 8:16.08 | 277310 | 314517


Range status and errors

Selected range

Filename D:\George Harrison\Rock Legends - George Harrison with Eric Clapton and His Band (2 CD)\CD 1\George Harrisson & Eric Clapton - Rock Legend Japan Tour '91 Fourth Night Live (Disc 1).wav

Peak level 100.0 %
Range quality 100.0 %
Test CRC 163F3AB7
Copy CRC 163F3AB7
Copy OK

No errors occurred


AccurateRip summary

Track 1 cannot be verified as accurate (confidence 1) [EC550E25], AccurateRip returned [7DC353AE]
Track 2 cannot be verified as accurate (confidence 1) [0C7978A3], AccurateRip returned [6FB8C0BA]
Track 3 cannot be verified as accurate (confidence 1) [4F370664], AccurateRip returned [5E7251A5]
Track 4 cannot be verified as accurate (confidence 1) [EE841AB7], AccurateRip returned [D6415F89]
Track 5 not present in database
Track 6 cannot be verified as accurate (confidence 1) [E7D50D75], AccurateRip returned [A7AD2FC2]
Track 7 cannot be verified as accurate (confidence 1) [E6BD6D4A], AccurateRip returned [5BF53A66]
Track 8 cannot be verified as accurate (confidence 1) [81B3C56A], AccurateRip returned [43C298AC]
Track 9 cannot be verified as accurate (confidence 1) [D3F8C682], AccurateRip returned [C37D132D]
Track 10 not present in database
Track 11 not present in database
Track 12 not present in database
Track 13 cannot be verified as accurate (confidence 1) [BBCD9CA5], AccurateRip returned [48B95995]

9 track(s) could not be verified as accurate
4 track(s) not present in the AccurateRip database

No tracks could be verified as accurate
You may have a different pressing from the one(s) in the database

End of status report

DR Log
foobar2000 1.2.4 / Dynamic Range Meter 1.1.1
log date: 2013-05-23 14:21:39

--------------------------------------------------------------------------------
Analyzed: George Harrisson & Eric Clapton / Rock Legend Japan Tour '91: Fourth Night Live (Disc 1)
--------------------------------------------------------------------------------

DR Peak RMS Duration Track
--------------------------------------------------------------------------------
DR12 0.00 dB -13.18 dB 4:30 01-I Want To Tell You
DR11 -0.13 dB -12.42 dB 3:51 02-Old Brown Shoe
DR12 -0.04 dB -13.59 dB 4:18 03-Taxman
DR13 -0.18 dB -14.58 dB 3:38 04-Give Me Love (Give Me Peace On Earth)
DR12 0.00 dB -13.73 dB 4:07 05-If I Needed Someone
DR12 -0.01 dB -14.48 dB 5:08 06-Something
DR12 -0.05 dB -13.89 dB 4:44 07-What Is Life
DR12 0.00 dB -14.16 dB 4:18 08-Dark Horse
DR12 -0.01 dB -15.01 dB 2:58 09-Piggies
DR12 0.00 dB -13.01 dB 7:12 10-Pretending
DR12 0.00 dB -15.26 dB 10:46 11-Old Love
DR11 0.00 dB -12.20 dB 6:08 12-Badge
DR13 0.00 dB -16.50 dB 8:16 13-Wonderful Tonight
--------------------------------------------------------------------------------

Number of tracks: 13
Official DR value: DR12

Samplerate: 44100 Hz
Channels: 2
Bits per sample: 16
Bitrate: 891 kbps
Codec: FLAC

George Harrison with Eric Clapton and His Band - Fourth Night Revisited (1992) cd2

Tracklist CD2:

01. Got My Mind Set On You
02. Cloud Nine
03. Here Comes The Sun
04. My Sweet Lord
05. All Those Years Ago
06. Cheer Down
07. Devil's Radio
08. Isn't It A Pity
09. While My Guitar Gently Weeps
10. Roll Over Beethoven
11. Drum/Percussion Solo...
12. Roll Over Beethoven (Reprise)

EAC Log
Exact Audio Copy V0.99 prebeta 4 from 23. January 2008

EAC extraction logfile from 10. October 2011, 19:08

George Harrisson & Eric Clapton / Rock Legend Japan Tour '91: Fourth Night Live (Disc 2)

Used drive : PIONEER DVD-RW DVR-110D Adapter: 1 ID: 1

Read mode : Secure
Utilize accurate stream : Yes
Defeat audio cache : Yes
Make use of C2 pointers : No

Read offset correction : 48
Overread into Lead-In and Lead-Out : No
Fill up missing offset samples with silence : Yes
Delete leading and trailing silent blocks : No
Null samples used in CRC calculations : Yes
Used interface : Native Win32 interface for Win NT & 2000

Used output format : User Defined Encoder
Selected bitrate : 1024 kBit/s
Quality : High
Add ID3 tag : No
Command line compressor : C:\Program Files\FLAC\flac.exe
Additional command line options : -8 -V %s


TOC of the extracted CD

Track | Start | Length | Start sector | End sector
---------------------------------------------------------
1 | 0:00.00 | 4:29.30 | 0 | 20204
2 | 4:29.30 | 4:32.25 | 20205 | 40629
3 | 9:01.55 | 3:25.50 | 40630 | 56054
4 | 12:27.30 | 5:28.05 | 56055 | 80659
5 | 17:55.35 | 4:57.72 | 80660 | 103006
6 | 22:53.32 | 4:18.68 | 103007 | 122424
7 | 27:12.25 | 4:36.62 | 122425 | 143186
8 | 31:49.12 | 6:51.40 | 143187 | 174051
9 | 38:40.52 | 7:12.13 | 174052 | 206464
10 | 45:52.65 | 3:31.55 | 206465 | 222344
11 | 49:24.45 | 7:42.52 | 222345 | 257046
12 | 57:07.22 | 2:22.35 | 257047 | 267731


Range status and errors

Selected range

Filename D:\George Harrison\Rock Legends - George Harrison with Eric Clapton and His Band (2 CD)\CD 2\George Harrisson & Eric Clapton - Rock Legend Japan Tour '91 Fourth Night Live (Disc 2).wav

Peak level 100.0 %
Range quality 100.0 %
Test CRC B54AE063
Copy CRC B54AE063
Copy OK

No errors occurred


AccurateRip summary

Track 1 cannot be verified as accurate (confidence 2) [D503C349], AccurateRip returned [0346C881]
Track 2 cannot be verified as accurate (confidence 2) [83A8416F], AccurateRip returned [AC9F571F]
Track 3 cannot be verified as accurate (confidence 2) [7482CD45], AccurateRip returned [75E042D8]
Track 4 cannot be verified as accurate (confidence 2) [8D170CC3], AccurateRip returned [C6D644F8]
Track 5 cannot be verified as accurate (confidence 2) [564DB499], AccurateRip returned [8D102FED]
Track 6 cannot be verified as accurate (confidence 2) [C1ED32A5], AccurateRip returned [B243CF5C]
Track 7 cannot be verified as accurate (confidence 2) [C4E58898], AccurateRip returned [6FAEF543]
Track 8 cannot be verified as accurate (confidence 2) [68DE2C06], AccurateRip returned [96A09029]
Track 9 cannot be verified as accurate (confidence 2) [9C24963C], AccurateRip returned [4A73C64C]
Track 10 cannot be verified as accurate (confidence 2) [4247599F], AccurateRip returned [BC8DA0EF]
Track 11 cannot be verified as accurate (confidence 2) [AD422D05], AccurateRip returned [36B3745F]
Track 12 cannot be verified as accurate (confidence 2) [74A088FD], AccurateRip returned [00E7E776]

No tracks could be verified as accurate
You may have a different pressing from the one(s) in the database

End of status report

DR Log
foobar2000 1.2.4 / Dynamic Range Meter 1.1.1
log date: 2013-05-23 14:21:59

--------------------------------------------------------------------------------
Analyzed: George Harrisson & Eric Clapton / Rock Legend Japan Tour '91: Fourth Night Live (Disc 2)
--------------------------------------------------------------------------------

DR Peak RMS Duration Track
--------------------------------------------------------------------------------
DR11 0.00 dB -12.49 dB 4:29 01-Got My Mind Set On You (Live)
DR12 0.00 dB -13.90 dB 4:32 02-Cloud Nine (Live)
DR12 -0.01 dB -13.48 dB 3:26 03-Here Comes The Sun (Live)
DR13 -0.11 dB -14.51 dB 5:28 04-My Sweet Lord (Live)
DR12 -0.02 dB -13.69 dB 4:58 05-All Those Years Ago (Live)
DR12 0.00 dB -13.59 dB 4:19 06-Cheer Down (Live)
DR10 -0.01 dB -12.13 dB 4:37 07-Devil's Radio (Live)
DR9 -0.23 dB -12.18 dB 6:52 08-Isn't It A Pity (Live)
DR10 -0.08 dB -11.68 dB 7:12 09-While My Guitar Gently Weeps (Live)
DR9 0.00 dB -10.12 dB 3:32 10-Roll Over Beethoven (Live)
DR11 0.00 dB -14.09 dB 7:43 11-Drum/Percussion Solo... (Live)
DR8 0.00 dB -9.33 dB 2:22 12-Roll Over Beethoven (Reprise) (Live)
--------------------------------------------------------------------------------

Number of tracks: 12
Official DR value: DR11

Samplerate: 44100 Hz
Channels: 2
Bits per sample: 16
Bitrate: 857 kbps
Codec: FLAC

George Harrison with Eric Clapton and His Band - Fourth Night Revisited (1992) back

All thanks go to zhconst

Download George Harrison with Eric Clapton and His Band - Fourth Night Revisited (1992):

ADVERTISING » Very Fast Download!



« ADVERTISING




Posted By: juanhunoz Date: 23 May 2013 22:11:07
Muchas gracias, dude!
Posted By: diddlycrap Date: 24 May 2013 09:43:20
Thanks a lot..
Posted By: Caramel-fr Date: 24 May 2013 19:26:53
Many thanks v3122 !
George was my favourite Beatle.