Loading...

Ray Wilson - Propaganda Man (2008)

Posted By : gribovar | Date : 08 Jan 2012 22:46:59 | Comments : 3 |
|



Ray Wilson - Propaganda Man (2008)
EAC Rip | APE (image+.cue+log) - 333 MB | MP3 CBR 330 kbps (LAME 3.93) - 146 MB | Covers included
Genre: Rock | RAR 3% Rec. | Label: SoulFood/EMI Music Poland (5099969889028)

Former Genesis (1996-1998) and Stiltskin singer Ray Wilson is an unpredictable artist you never know what to expect from, his previous albums has been everything from singer/songwriter rock to progrock and folkrock to classic hardrock. On this solo album "Propaganda Man", Ray gives us 11 songs in the vein of David Gilmour and Camel, this man has a voice that can lift any song and some of the songs could even be featured on a 70´s Pink Floyd album.

Tracklist:
01. Bless Me
02. Lately
03. The Brakes are Gone
04. Razorlite
05. Propaganda Man
06. Frequency
07. Modern Day Miracle
08. Cosmic Baby
09. Things Don't Stop
10. More Propaganda
11. On the Other Side

Total time: 44:39

EAC log
Exact Audio Copy V0.99 prebeta 4 from 23. January 2008

EAC extraction logfile from 4. January 2012, 14:43

Ray Wilson / Propaganda Man

Used drive : ATAPI iHAS120 6 Adapter: 0 ID: 2

Read mode : Secure
Utilize accurate stream : Yes
Defeat audio cache : Yes
Make use of C2 pointers : No

Read offset correction : 6
Overread into Lead-In and Lead-Out : No
Fill up missing offset samples with silence : Yes
Delete leading and trailing silent blocks : No
Null samples used in CRC calculations : Yes
Used interface : Native Win32 interface for Win NT & 2000

Used output format : Internal WAV Routines
Sample format : 44.100 Hz; 16 Bit; Stereo


TOC of the extracted CD

Track | Start | Length | Start sector | End sector
---------------------------------------------------------
1 | 0:00.00 | 6:23.59 | 0 | 28783
2 | 6:23.59 | 3:33.19 | 28784 | 44777
3 | 9:57.03 | 4:08.61 | 44778 | 63438
4 | 14:05.64 | 3:11.71 | 63439 | 77834
5 | 17:17.60 | 3:56.49 | 77835 | 95583
6 | 21:14.34 | 5:22.72 | 95584 | 119805
7 | 26:37.31 | 2:55.48 | 119806 | 132978
8 | 29:33.04 | 4:24.09 | 132979 | 152787
9 | 33:57.13 | 4:55.35 | 152788 | 174947
10 | 38:52.48 | 2:24.69 | 174948 | 185816
11 | 41:17.42 | 3:21.56 | 185817 | 200947


Range status and errors

Selected range

Filename E:\1\Ray Wilson - Propaganda Man.wav

Peak level 97.7 %
Range quality 100.0 %
Copy CRC AEC6BA68
Copy OK

No errors occurred


AccurateRip summary

Track 1 accurately ripped (confidence 5) [3FC53F98]
Track 2 accurately ripped (confidence 5) [F8A431FC]
Track 3 accurately ripped (confidence 5) [25DBCE66]
Track 4 accurately ripped (confidence 5) [3E76BEEC]
Track 5 accurately ripped (confidence 5) [1B9F2905]
Track 6 accurately ripped (confidence 5) [AE735781]
Track 7 accurately ripped (confidence 5) [A4065A8D]
Track 8 accurately ripped (confidence 5) [BD85B656]
Track 9 accurately ripped (confidence 5) [A0809B26]
Track 10 accurately ripped (confidence 5) [014109EC]
Track 11 accurately ripped (confidence 5) [57D76BBA]

All tracks accurately ripped

End of status report

Thanks to GIL1961

LOSSLESS:

Filepost.com
________________

MP3 320 kbps:

Filepost.com
ADVERTISING » Very Fast Download!



« ADVERTISING




Posted By: mcemsi Date: 09 Jan 2012 17:41:06
Great thanks ,been looking for this in lossless for years :-)

Posted By: tystnu Date: 09 Jan 2012 18:24:09
oool, read the description and it sounds like my taste! thanks
Posted By: ProgWizard Date: 10 Jan 2012 07:09:34
Just great, thank you very much.