Loading...

The Who - Live At Leeds (40th Anniversary Super-Deluxe Collector's Edition) (2010)

Posted By : havrancek | Date : 14 Dec 2010 15:07:39 | Comments : 17 |
|



The Who - Live At Leeds (40th Anniversary Super-Deluxe Collector's Edition) (2010)
EAC Rip | FLAC(tracks + cue + log) | 4 CDs | 1.43 GB (RAR 3% Rec) | Full covers
Genre: Rock | Label: Universal Music | Cat No. 2750072

One of the most critically acclaimed concert albums in rock history, from one of the greatest live bands of all time, just got even better--with the revelatory rediscovery of the recording of the following night's performance. The Who's Live At Leeds - 40th Anniversary Super-Deluxe Collectors' Edition (MCA/UMe), released November 16, 2010, brings together not only the iconic band's concert of February 14, 1970 in Leeds but also the following night's previously unreleased concert in Hull, each with an entire performance of the "Tommy" rock opera. Hailed by Nik Cohn in his 1970 album review in The New York Times as "the best live rock album ever made," Live At Leeds has since been ranked by Rolling Stone among its "500 Greatest Albums Of All Time." Yet the original idea was for The Who's first live album to be a compilation of the best performances from the Leeds show and the February 15th concert in Hull. The band members reportedly preferred the Hull recordings over those at Leeds because of the better acoustics of the more spacious venue. But supposedly there were technical problems, notably that the bass guitar had not been recorded on some songs. Recently, however, an associate of the band returned to the vaults to listen to the Hull recordings and was surprised to discover that the set was wholly intact--band, bass and audience! Because of the belief that those recordings had not been complete, the album had become Live At Leeds. Yet as now heard for the first time on Live At Leeds - 40th Anniversary Super-Deluxe Collectors' Edition, the Hull show was equally incendiary.


Tracklist:

CD 01 – Leeds

01. Heaven and Hell (Entwistle) – 5:09
02. I Can't Explain (Townshend) – 2:26
03. Fortune Teller (Neville and Spellman) – 3:22
04. Tattoo (Townshend) – 3:00
05. Young Man Blues (Allison) – 5:56
06. Substitute (Townshend) – 3:04
07. Happy Jack (Townshend) – 2:13
08. I'm a Boy (Townshend) – 2:45
09. A Quick One, While He's Away (Townshend) – 8:51
10. Summertime Blues (Capehart and Cochran) – 3:34
11. Shakin' All Over (Kidd) – 4:34
12. My Generation (Townshend) – 15:24
13. Magic Bus - 8:21

EAC LOG
Exact Audio Copy V0.99 prebeta 5 from 4. May 2009

EAC extraction logfile from 24. November 2010, 21:39

The Who / Live At Leeds (Live At Leeds 40th Anniversary Edition) Disc 1

Used drive : Optiarc DVD RW AD-7240S Adapter: 1 ID: 0

Read mode : Secure
Utilize accurate stream : Yes
Defeat audio cache : Yes
Make use of C2 pointers : No

Read offset correction : 48
Overread into Lead-In and Lead-Out : No
Fill up missing offset samples with silence : Yes
Delete leading and trailing silent blocks : No
Null samples used in CRC calculations : Yes
Used interface : Native Win32 interface for Win NT & 2000
Gap handling : Appended to previous track

Used output format : User Defined Encoder
Selected bitrate : 192 kBit/s
Quality : High
Add ID3 tag : No
Command line compressor : C:\Program Files\Exact Audio Copy\Flac\flac.exe
Additional command line options : -8 -T "artist=%a" -T "title=%t" -T "album=%g" -T "date=%y" -T "tracknumber=%n" -T "genre=%m" %s


TOC of the extracted CD

Track | Start | Length | Start sector | End sector
---------------------------------------------------------
1 | 0:00.00 | 5:12.29 | 0 | 23428
2 | 5:12.29 | 2:38.24 | 23429 | 35302
3 | 7:50.53 | 3:12.68 | 35303 | 49770
4 | 11:03.46 | 3:00.35 | 49771 | 63305
5 | 14:04.06 | 5:56.12 | 63306 | 90017
6 | 20:00.18 | 3:04.64 | 90018 | 103881
7 | 23:05.07 | 2:13.44 | 103882 | 113900
8 | 25:18.51 | 2:45.23 | 113901 | 126298
9 | 28:03.74 | 13:43.49 | 126299 | 188072
10 | 41:47.48 | 3:35.15 | 188073 | 204212
11 | 45:22.63 | 4:34.52 | 204213 | 224814
12 | 49:57.40 | 15:25.60 | 224815 | 294249
13 | 65:23.25 | 8:20.51 | 294250 | 331800


Track 1

Filename C:\Documents and Settings\music\My Documents\Live at Leeds\CD 01\01 - Heaven & Hell.wav

Pre-gap length 0:00:02.00

Peak level 99.8 %
Track quality 100.0 %
Test CRC 52B457CB
Copy CRC 52B457CB
Track not present in AccurateRip database
Copy OK

Track 2

Filename C:\Documents and Settings\music\My Documents\Live at Leeds\CD 01\02 - I Can't Explain.wav

Peak level 98.7 %
Track quality 100.0 %
Test CRC 86150F13
Copy CRC 86150F13
Track not present in AccurateRip database
Copy OK

Track 3

Filename C:\Documents and Settings\music\My Documents\Live at Leeds\CD 01\03 - Fortune Teller.wav

Peak level 98.7 %
Track quality 99.9 %
Test CRC C12A6246
Copy CRC C12A6246
Track not present in AccurateRip database
Copy OK

Track 4

Filename C:\Documents and Settings\music\My Documents\Live at Leeds\CD 01\04 - Tattoo.wav

Peak level 98.7 %
Track quality 100.0 %
Test CRC 8633B8B4
Copy CRC 8633B8B4
Track not present in AccurateRip database
Copy OK

Track 5

Filename C:\Documents and Settings\music\My Documents\Live at Leeds\CD 01\05 - Young Man Blues.wav

Peak level 98.7 %
Track quality 100.0 %
Test CRC ECB62682
Copy CRC ECB62682
Track not present in AccurateRip database
Copy OK

Track 6

Filename C:\Documents and Settings\music\My Documents\Live at Leeds\CD 01\06 - Substitute.wav

Peak level 98.7 %
Track quality 100.0 %
Test CRC EB3E3AFE
Copy CRC EB3E3AFE
Track not present in AccurateRip database
Copy OK

Track 7

Filename C:\Documents and Settings\music\My Documents\Live at Leeds\CD 01\07 - Happy Jack.wav

Peak level 99.8 %
Track quality 100.0 %
Test CRC 8EA20B13
Copy CRC 8EA20B13
Track not present in AccurateRip database
Copy OK

Track 8

Filename C:\Documents and Settings\music\My Documents\Live at Leeds\CD 01\08 - I'm A Boy.wav

Peak level 99.8 %
Track quality 100.0 %
Test CRC E14BE768
Copy CRC E14BE768
Track not present in AccurateRip database
Copy OK

Track 9

Filename C:\Documents and Settings\music\My Documents\Live at Leeds\CD 01\09 - A Quick One.wav

Peak level 99.8 %
Track quality 100.0 %
Test CRC B488285B
Copy CRC B488285B
Track not present in AccurateRip database
Copy OK

Track 10

Filename C:\Documents and Settings\music\My Documents\Live at Leeds\CD 01\10 - Summertime Blues.wav

Peak level 98.7 %
Track quality 99.9 %
Test CRC 989C2D7E
Copy CRC 989C2D7E
Track not present in AccurateRip database
Copy OK

Track 11

Filename C:\Documents and Settings\music\My Documents\Live at Leeds\CD 01\11 - Shakin' All Over.wav

Peak level 99.8 %
Track quality 100.0 %
Test CRC 0FE2ADC6
Copy CRC 0FE2ADC6
Track not present in AccurateRip database
Copy OK

Track 12

Filename C:\Documents and Settings\music\My Documents\Live at Leeds\CD 01\12 - My Generation.wav

Peak level 99.8 %
Track quality 99.9 %
Test CRC 1CA59C14
Copy CRC 1CA59C14
Track not present in AccurateRip database
Copy OK

Track 13

Filename C:\Documents and Settings\music\My Documents\Live at Leeds\CD 01\13 - Magic Bus.wav

Peak level 99.7 %
Track quality 100.0 %
Test CRC B46D5A61
Copy CRC B46D5A61
Track not present in AccurateRip database
Copy OK


None of the tracks are present in the AccurateRip database

No errors occurred

End of status report


CD 02 – Leeds ‘Tommy’

01. Overture (Townshend) – 6:53
02. It's a Boy (Townshend) – 0:31
03. 1921 (Townshend) – 2:26
04. Amazing Journey (Townshend) – 3:18
05. Sparks (Townshend) – 4:23
06. Eyesight to the Blind a.k.a. "Born Blind" (Sonny Boy Williamson) – 1:58
07. Christmas (Townshend) – 3:19
08. The Acid Queen (Townshend) – 3:35
09. Pinball Wizard (Townshend) – 2:25
10. Do You Think It's Alright? (Townshend) – 0:22
11. Fiddle About (Entwistle) – 1:13
12. Tommy, Can You Hear Me? (Townshend) – 0:55
13. There's a Doctor (Townshend) – 0:23
14. Go to the Mirror! (Townshend) – 3:24
15. Smash The Mirror (Townshend) – 1:19
16. Miracle Cure (Townshend) – 0:13
17. Sally Simpson (Townshend) – 4:01
18. I'm Free (Townshend) – 2:39
19. Tommy's Holiday Camp (Keith Moon) – 1:00
20. We're Not Gonna Take It (Townshend) – 8:48

EAC LOG
Exact Audio Copy V0.99 prebeta 5 from 4. May 2009

EAC extraction logfile from 24. November 2010, 23:33

The Who / Live At Leeds (Live At Leeds 40th Anniversary Edition) Disc 2

Used drive : Optiarc DVD RW AD-7240S Adapter: 1 ID: 0

Read mode : Secure
Utilize accurate stream : Yes
Defeat audio cache : Yes
Make use of C2 pointers : No

Read offset correction : 48
Overread into Lead-In and Lead-Out : No
Fill up missing offset samples with silence : Yes
Delete leading and trailing silent blocks : No
Null samples used in CRC calculations : Yes
Used interface : Native Win32 interface for Win NT & 2000
Gap handling : Appended to previous track

Used output format : User Defined Encoder
Selected bitrate : 192 kBit/s
Quality : High
Add ID3 tag : No
Command line compressor : C:\Program Files\Exact Audio Copy\Flac\flac.exe
Additional command line options : -8 -T "artist=%a" -T "title=%t" -T "album=%g" -T "date=%y" -T "tracknumber=%n" -T "genre=%m" %s


TOC of the extracted CD

Track | Start | Length | Start sector | End sector
---------------------------------------------------------
1 | 0:00.00 | 6:48.52 | 0 | 30651
2 | 6:48.52 | 0:35.27 | 30652 | 33303
3 | 7:24.04 | 2:25.68 | 33304 | 44246
4 | 9:49.72 | 3:17.68 | 44247 | 59089
5 | 13:07.65 | 4:22.19 | 59090 | 78758
6 | 17:30.09 | 1:58.46 | 78759 | 87654
7 | 19:28.55 | 3:18.33 | 87655 | 102537
8 | 22:47.13 | 3:32.37 | 102538 | 118474
9 | 26:19.50 | 2:52.10 | 118475 | 131384
10 | 29:11.60 | 0:22.13 | 131385 | 133047
11 | 29:33.73 | 1:13.26 | 133048 | 138548
12 | 30:47.24 | 0:55.35 | 138549 | 142708
13 | 31:42.59 | 0:23.16 | 142709 | 144449
14 | 32:06.00 | 3:24.45 | 144450 | 159794
15 | 35:30.45 | 1:18.44 | 159795 | 165688
16 | 36:49.14 | 0:12.71 | 165689 | 166659
17 | 37:02.10 | 4:00.41 | 166660 | 184700
18 | 41:02.51 | 2:38.68 | 184701 | 196618
19 | 43:41.44 | 1:00.30 | 196619 | 201148
20 | 44:41.74 | 8:49.28 | 201149 | 240851


Track 1

Filename C:\Documents and Settings\music\My Documents\Live at Leeds\CD 02\01 - Overture.wav

Pre-gap length 0:00:02.00

Peak level 99.8 %
Track quality 100.0 %
Test CRC F413A0F2
Copy CRC F413A0F2
Track not present in AccurateRip database
Copy OK

Track 2

Filename C:\Documents and Settings\music\My Documents\Live at Leeds\CD 02\02 - It's a Boy.wav

Peak level 99.8 %
Track quality 100.0 %
Test CRC 91763C64
Copy CRC 91763C64
Track not present in AccurateRip database
Copy OK

Track 3

Filename C:\Documents and Settings\music\My Documents\Live at Leeds\CD 02\03 - 1921.wav

Peak level 99.8 %
Track quality 100.0 %
Test CRC 11D0D655
Copy CRC 11D0D655
Track not present in AccurateRip database
Copy OK

Track 4

Filename C:\Documents and Settings\music\My Documents\Live at Leeds\CD 02\04 - Amazing Journey.wav

Peak level 98.7 %
Track quality 99.9 %
Test CRC AFBF436A
Copy CRC AFBF436A
Track not present in AccurateRip database
Copy OK

Track 5

Filename C:\Documents and Settings\music\My Documents\Live at Leeds\CD 02\05 - Sparks.wav

Peak level 98.7 %
Track quality 100.0 %
Test CRC F073DA0E
Copy CRC F073DA0E
Track not present in AccurateRip database
Copy OK

Track 6

Filename C:\Documents and Settings\music\My Documents\Live at Leeds\CD 02\06 - Eyesight to the Blind (The Hawker).wav

Peak level 99.9 %
Track quality 100.0 %
Test CRC C015625B
Copy CRC C015625B
Track not present in AccurateRip database
Copy OK

Track 7

Filename C:\Documents and Settings\music\My Documents\Live at Leeds\CD 02\07 - Christmas.wav

Peak level 99.8 %
Track quality 100.0 %
Test CRC C9159267
Copy CRC C9159267
Track not present in AccurateRip database
Copy OK

Track 8

Filename C:\Documents and Settings\music\My Documents\Live at Leeds\CD 02\08 - The Acid Queen.wav

Peak level 99.8 %
Track quality 99.9 %
Test CRC FABF48A2
Copy CRC FABF48A2
Track not present in AccurateRip database
Copy OK

Track 9

Filename C:\Documents and Settings\music\My Documents\Live at Leeds\CD 02\09 - Pinball Wizard.wav

Peak level 99.8 %
Track quality 100.0 %
Test CRC 443596ED
Copy CRC 443596ED
Track not present in AccurateRip database
Copy OK

Track 10

Filename C:\Documents and Settings\music\My Documents\Live at Leeds\CD 02\10 - Do You Think It's Alright .wav

Peak level 99.8 %
Track quality 100.0 %
Test CRC D02EC4D5
Copy CRC D02EC4D5
Track not present in AccurateRip database
Copy OK

Track 11

Filename C:\Documents and Settings\music\My Documents\Live at Leeds\CD 02\11 - Fiddle About.wav

Peak level 99.8 %
Track quality 100.0 %
Test CRC EF39DEC4
Copy CRC EF39DEC4
Track not present in AccurateRip database
Copy OK

Track 12

Filename C:\Documents and Settings\music\My Documents\Live at Leeds\CD 02\12 - Tommy Can You Hear Me .wav

Peak level 99.8 %
Track quality 99.8 %
Test CRC 330CC032
Copy CRC 330CC032
Track not present in AccurateRip database
Copy OK

Track 13

Filename C:\Documents and Settings\music\My Documents\Live at Leeds\CD 02\13 - There's A Doctor.wav

Peak level 99.8 %
Track quality 99.5 %
Test CRC BC15B11C
Copy CRC BC15B11C
Track not present in AccurateRip database
Copy OK

Track 14

Filename C:\Documents and Settings\music\My Documents\Live at Leeds\CD 02\14 - Go to the Mirror.wav

Peak level 99.8 %
Track quality 100.0 %
Test CRC 9E4E4439
Copy CRC 9E4E4439
Track not present in AccurateRip database
Copy OK

Track 15

Filename C:\Documents and Settings\music\My Documents\Live at Leeds\CD 02\15 - Smash the Mirror.wav

Peak level 99.9 %
Track quality 100.0 %
Test CRC C7E41639
Copy CRC C7E41639
Track not present in AccurateRip database
Copy OK

Track 16

Filename C:\Documents and Settings\music\My Documents\Live at Leeds\CD 02\16 - Miracle Cure.wav

Peak level 99.8 %
Track quality 99.1 %
Test CRC A5C5BF94
Copy CRC A5C5BF94
Track not present in AccurateRip database
Copy OK

Track 17

Filename C:\Documents and Settings\music\My Documents\Live at Leeds\CD 02\17 - Sally Simpson.wav

Peak level 99.8 %
Track quality 100.0 %
Test CRC 2B8BA41D
Copy CRC 2B8BA41D
Track not present in AccurateRip database
Copy OK

Track 18

Filename C:\Documents and Settings\music\My Documents\Live at Leeds\CD 02\18 - I'm Free.wav

Peak level 99.8 %
Track quality 100.0 %
Test CRC 3657010A
Copy CRC 3657010A
Track not present in AccurateRip database
Copy OK

Track 19

Filename C:\Documents and Settings\music\My Documents\Live at Leeds\CD 02\19 - Tommy's Holiday Camp.wav

Peak level 99.9 %
Track quality 100.0 %
Test CRC D0F7B9CB
Copy CRC D0F7B9CB
Track not present in AccurateRip database
Copy OK

Track 20

Filename C:\Documents and Settings\music\My Documents\Live at Leeds\CD 02\20 - We're Not Gonna Take It.wav

Peak level 99.9 %
Track quality 100.0 %
Test CRC 5BB9BD19
Copy CRC 5BB9BD19
Track not present in AccurateRip database
Copy OK


None of the tracks are present in the AccurateRip database

No errors occurred

End of status report


CD 03 - Hull

01. Heaven and Hell (Entwistle) – 5:09
02. I Can't Explain (Townshend) – 2:26
03. Fortune Teller (Neville and Spellman) – 3:22
04. Tattoo (Townshend) – 3:00
05. Young Man Blues (Allison) – 5:56
06. Substitute (Townshend) – 3:04
07. Happy Jack (Townshend) – 2:13
08. I'm a Boy (Townshend) – 2:45
09. A Quick One, While He's Away (Townshend) – 8:51
10. Summertime Blues (Capehart and Cochran) – 3:34
11. Shakin' All Over (Kidd) – 4:34
12. My Generation (Townshend) – 15:24

EAC LOG
Exact Audio Copy V0.99 prebeta 5 from 4. May 2009

EAC extraction logfile from 24. November 2010, 18:34

The Who / Live At Hull (Live At Leeds 40th Anniversary Edition) Disc 3

Used drive : Optiarc DVD RW AD-7240S Adapter: 1 ID: 0

Read mode : Secure
Utilize accurate stream : Yes
Defeat audio cache : Yes
Make use of C2 pointers : No

Read offset correction : 48
Overread into Lead-In and Lead-Out : No
Fill up missing offset samples with silence : Yes
Delete leading and trailing silent blocks : No
Null samples used in CRC calculations : Yes
Used interface : Native Win32 interface for Win NT & 2000
Gap handling : Appended to previous track

Used output format : User Defined Encoder
Selected bitrate : 192 kBit/s
Quality : High
Add ID3 tag : No
Command line compressor : C:\Program Files\Exact Audio Copy\Flac\flac.exe
Additional command line options : -8 -T "artist=%a" -T "title=%t" -T "album=%g" -T "date=%y" -T "tracknumber=%n" -T "genre=%m" %s


TOC of the extracted CD

Track | Start | Length | Start sector | End sector
---------------------------------------------------------
1 | 0:00.00 | 4:04.36 | 0 | 18335
2 | 4:04.36 | 2:50.67 | 18336 | 31152
3 | 6:55.28 | 2:35.04 | 31153 | 42781
4 | 9:30.32 | 3:01.71 | 42782 | 56427
5 | 12:32.28 | 5:41.41 | 56428 | 82043
6 | 18:13.69 | 2:07.48 | 82044 | 91616
7 | 20:21.42 | 2:12.49 | 91617 | 101565
8 | 22:34.16 | 2:47.71 | 101566 | 114161
9 | 25:22.12 | 9:50.42 | 114162 | 158453
10 | 35:12.54 | 3:42.63 | 158454 | 175166
11 | 38:55.42 | 5:08.64 | 175167 | 198330
12 | 44:04.31 | 15:57.56 | 198331 | 270161


Track 1

Filename C:\Documents and Settings\music\My Documents\Live at Hull\CD 01\01 - Heaven And Hell.wav

Pre-gap length 0:00:02.00

Peak level 100.0 %
Track quality 100.0 %
Test CRC C4872EAE
Copy CRC C4872EAE
Track not present in AccurateRip database
Copy OK

Track 2

Filename C:\Documents and Settings\music\My Documents\Live at Hull\CD 01\02 - I Can't Explain.wav

Peak level 98.1 %
Track quality 100.0 %
Test CRC 31F7E2C1
Copy CRC 31F7E2C1
Track not present in AccurateRip database
Copy OK

Track 3

Filename C:\Documents and Settings\music\My Documents\Live at Hull\CD 01\03 - Fortune Teller.wav

Peak level 100.0 %
Track quality 99.9 %
Test CRC CEA90803
Copy CRC CEA90803
Track not present in AccurateRip database
Copy OK

Track 4

Filename C:\Documents and Settings\music\My Documents\Live at Hull\CD 01\04 - Tattoo.wav

Peak level 99.9 %
Track quality 99.9 %
Test CRC 5F77E84A
Copy CRC 5F77E84A
Track not present in AccurateRip database
Copy OK

Track 5

Filename C:\Documents and Settings\music\My Documents\Live at Hull\CD 01\05 - Young Man Blues.wav

Peak level 97.3 %
Track quality 100.0 %
Test CRC 3D9436B3
Copy CRC 3D9436B3
Track not present in AccurateRip database
Copy OK

Track 6

Filename C:\Documents and Settings\music\My Documents\Live at Hull\CD 01\06 - Substitute.wav

Peak level 98.8 %
Track quality 100.0 %
Test CRC F67C45B2
Copy CRC F67C45B2
Track not present in AccurateRip database
Copy OK

Track 7

Filename C:\Documents and Settings\music\My Documents\Live at Hull\CD 01\07 - Happy Jack.wav

Peak level 99.9 %
Track quality 100.0 %
Test CRC 7A01D2CA
Copy CRC 7A01D2CA
Track not present in AccurateRip database
Copy OK

Track 8

Filename C:\Documents and Settings\music\My Documents\Live at Hull\CD 01\08 - I'm A Boy.wav

Peak level 99.0 %
Track quality 100.0 %
Test CRC 3780DF45
Copy CRC 3780DF45
Track not present in AccurateRip database
Copy OK

Track 9

Filename C:\Documents and Settings\music\My Documents\Live at Hull\CD 01\09 - A Quick One, While He's Away.wav

Peak level 98.5 %
Track quality 100.0 %
Test CRC 57465EC7
Copy CRC 57465EC7
Track not present in AccurateRip database
Copy OK

Track 10

Filename C:\Documents and Settings\music\My Documents\Live at Hull\CD 01\10 - Summertime Blues.wav

Peak level 99.1 %
Track quality 99.9 %
Test CRC 76EEA9EB
Copy CRC 76EEA9EB
Track not present in AccurateRip database
Copy OK

Track 11

Filename C:\Documents and Settings\music\My Documents\Live at Hull\CD 01\11 - Shakin' All Over.wav

Peak level 98.1 %
Track quality 100.0 %
Test CRC 648828AC
Copy CRC 648828AC
Track not present in AccurateRip database
Copy OK

Track 12

Filename C:\Documents and Settings\music\My Documents\Live at Hull\CD 01\12 - My Generation.wav

Peak level 100.0 %
Track quality 100.0 %
Test CRC 1190E0A4
Copy CRC 1190E0A4
Track not present in AccurateRip database
Copy OK


None of the tracks are present in the AccurateRip database

No errors occurred

End of status report


CD 04 - Hull ‘Tommy’

01. Overture (Townshend) – 6:53
02. It's a Boy (Townshend) – 0:31
03. 1921 (Townshend) – 2:26
04. Amazing Journey (Townshend) – 3:18
05. Sparks (Townshend) – 4:23
06. Eyesight to the Blind a.k.a. "Born Blind" (Sonny Boy Williamson) – 1:58
07. Christmas (Townshend) – 3:19
08. The Acid Queen (Townshend) – 3:35
09. Pinball Wizard (Townshend) – 2:25
10. Do You Think It's Alright? (Townshend) – 0:22
11. Fiddle About (Entwistle) – 1:13
12. Tommy, Can You Hear Me? (Townshend) – 0:55
13. There's a Doctor (Townshend) – 0:23
14. Go to the Mirror! (Townshend) – 3:24
15. Smash The Mirror (Townshend) – 1:19
16. Miracle Cure (Townshend) – 0:13
17. Sally Simpson (Townshend) – 4:01
18. I'm Free (Townshend) – 2:39
19. Tommy's Holiday Camp (Keith Moon) – 1:00
20. We're Not Gonna Take It (Townshend) – 8:48

EAC LOG
Exact Audio Copy V0.99 prebeta 5 from 4. May 2009

EAC extraction logfile from 24. November 2010, 19:20

The Who / Live At Hull (Live At Leeds 40th Anniversary Edition) Disc 4

Used drive : Optiarc DVD RW AD-7240S Adapter: 1 ID: 0

Read mode : Secure
Utilize accurate stream : Yes
Defeat audio cache : Yes
Make use of C2 pointers : No

Read offset correction : 48
Overread into Lead-In and Lead-Out : No
Fill up missing offset samples with silence : Yes
Delete leading and trailing silent blocks : No
Null samples used in CRC calculations : Yes
Used interface : Native Win32 interface for Win NT & 2000
Gap handling : Appended to previous track

Used output format : User Defined Encoder
Selected bitrate : 192 kBit/s
Quality : High
Add ID3 tag : No
Command line compressor : C:\Program Files\Exact Audio Copy\Flac\flac.exe
Additional command line options : -8 -T "artist=%a" -T "title=%t" -T "album=%g" -T "date=%y" -T "tracknumber=%n" -T "genre=%m" %s


TOC of the extracted CD

Track | Start | Length | Start sector | End sector
---------------------------------------------------------
1 | 0:00.00 | 5:30.02 | 0 | 24751
2 | 5:30.02 | 0:43.00 | 24752 | 27976
3 | 6:13.02 | 2:28.25 | 27977 | 39101
4 | 8:41.27 | 3:18.44 | 39102 | 53995
5 | 11:59.71 | 4:14.28 | 53996 | 73073
6 | 16:14.24 | 1:56.24 | 73074 | 81797
7 | 18:10.48 | 3:18.31 | 81798 | 96678
8 | 21:29.04 | 3:33.06 | 96679 | 112659
9 | 25:02.10 | 2:47.53 | 112660 | 125237
10 | 27:49.63 | 0:22.68 | 125238 | 126955
11 | 28:12.56 | 1:14.20 | 126956 | 132525
12 | 29:27.01 | 0:56.71 | 132526 | 136796
13 | 30:23.72 | 0:22.43 | 136797 | 138489
14 | 30:46.40 | 3:32.31 | 138490 | 154420
15 | 34:18.71 | 1:22.14 | 154421 | 160584
16 | 35:41.10 | 0:12.71 | 160585 | 161555
17 | 35:54.06 | 4:08.23 | 161556 | 180178
18 | 40:02.29 | 2:24.28 | 180179 | 191006
19 | 42:26.57 | 0:59.70 | 191007 | 195501
20 | 43:26.52 | 8:18.46 | 195502 | 232897


Track 1

Filename C:\Documents and Settings\music\My Documents\Live at Hull\CD 02\01 - Overture.wav

Pre-gap length 0:00:02.00

Peak level 98.1 %
Track quality 100.0 %
Test CRC D623CB1D
Copy CRC D623CB1D
Track not present in AccurateRip database
Copy OK

Track 2

Filename C:\Documents and Settings\music\My Documents\Live at Hull\CD 02\02 - It's A Boy.wav

Peak level 96.8 %
Track quality 100.0 %
Test CRC D4A09A69
Copy CRC D4A09A69
Track not present in AccurateRip database
Copy OK

Track 3

Filename C:\Documents and Settings\music\My Documents\Live at Hull\CD 02\03 - 1921.wav

Peak level 97.8 %
Track quality 100.0 %
Test CRC 6837632F
Copy CRC 6837632F
Track not present in AccurateRip database
Copy OK

Track 4

Filename C:\Documents and Settings\music\My Documents\Live at Hull\CD 02\04 - Amazing Journey.wav

Peak level 98.6 %
Track quality 99.9 %
Test CRC 89650D1F
Copy CRC 89650D1F
Track not present in AccurateRip database
Copy OK

Track 5

Filename C:\Documents and Settings\music\My Documents\Live at Hull\CD 02\05 - Sparks.wav

Peak level 100.0 %
Track quality 99.9 %
Test CRC F093DB1A
Copy CRC F093DB1A
Track not present in AccurateRip database
Copy OK

Track 6

Filename C:\Documents and Settings\music\My Documents\Live at Hull\CD 02\06 - Eyesight To The Blind (The Hawker).wav

Peak level 98.2 %
Track quality 100.0 %
Test CRC E7E0C33C
Copy CRC E7E0C33C
Track not present in AccurateRip database
Copy OK

Track 7

Filename C:\Documents and Settings\music\My Documents\Live at Hull\CD 02\07 - Christmas.wav

Peak level 99.9 %
Track quality 100.0 %
Test CRC 1FD8FBEE
Copy CRC 1FD8FBEE
Track not present in AccurateRip database
Copy OK

Track 8

Filename C:\Documents and Settings\music\My Documents\Live at Hull\CD 02\08 - The Acid Queen.wav

Peak level 99.2 %
Track quality 100.0 %
Test CRC B68256BC
Copy CRC B68256BC
Track not present in AccurateRip database
Copy OK

Track 9

Filename C:\Documents and Settings\music\My Documents\Live at Hull\CD 02\09 - Pinball Wizard.wav

Peak level 98.4 %
Track quality 99.9 %
Test CRC F2C3E752
Copy CRC F2C3E752
Track not present in AccurateRip database
Copy OK

Track 10

Filename C:\Documents and Settings\music\My Documents\Live at Hull\CD 02\10 - Do You Think It's Alright .wav

Peak level 95.6 %
Track quality 99.5 %
Test CRC 3FCE539C
Copy CRC 3FCE539C
Track not present in AccurateRip database
Copy OK

Track 11

Filename C:\Documents and Settings\music\My Documents\Live at Hull\CD 02\11 - Fiddle About.wav

Peak level 98.8 %
Track quality 100.0 %
Test CRC 65F87BED
Copy CRC 65F87BED
Track not present in AccurateRip database
Copy OK

Track 12

Filename C:\Documents and Settings\music\My Documents\Live at Hull\CD 02\12 - Tommy Can You Hear Me .wav

Peak level 83.1 %
Track quality 100.0 %
Test CRC B335DB66
Copy CRC B335DB66
Track not present in AccurateRip database
Copy OK

Track 13

Filename C:\Documents and Settings\music\My Documents\Live at Hull\CD 02\13 - There's A Doctor.wav

Peak level 90.7 %
Track quality 99.5 %
Test CRC 449F70E8
Copy CRC 449F70E8
Track not present in AccurateRip database
Copy OK

Track 14

Filename C:\Documents and Settings\music\My Documents\Live at Hull\CD 02\14 - Go To The Mirror!.wav

Peak level 99.6 %
Track quality 100.0 %
Test CRC 21FA667D
Copy CRC 21FA667D
Track not present in AccurateRip database
Copy OK

Track 15

Filename C:\Documents and Settings\music\My Documents\Live at Hull\CD 02\15 - Smash The Mirror.wav

Peak level 97.7 %
Track quality 100.0 %
Test CRC 7058C1FF
Copy CRC 7058C1FF
Track not present in AccurateRip database
Copy OK

Track 16

Filename C:\Documents and Settings\music\My Documents\Live at Hull\CD 02\16 - Miracle Cure.wav

Peak level 95.9 %
Track quality 99.1 %
Test CRC 3FEAC65B
Copy CRC 3FEAC65B
Track not present in AccurateRip database
Copy OK

Track 17

Filename C:\Documents and Settings\music\My Documents\Live at Hull\CD 02\17 - Sally Simpson.wav

Peak level 98.1 %
Track quality 100.0 %
Test CRC EB095E02
Copy CRC EB095E02
Track not present in AccurateRip database
Copy OK

Track 18

Filename C:\Documents and Settings\music\My Documents\Live at Hull\CD 02\18 - I'm Free.wav

Peak level 98.6 %
Track quality 100.0 %
Test CRC B975C14E
Copy CRC B975C14E
Track not present in AccurateRip database
Copy OK

Track 19

Filename C:\Documents and Settings\music\My Documents\Live at Hull\CD 02\19 - Tommy's Holiday Camp.wav

Peak level 98.1 %
Track quality 100.0 %
Test CRC 408C630A
Copy CRC 408C630A
Track not present in AccurateRip database
Copy OK

Track 20

Filename C:\Documents and Settings\music\My Documents\Live at Hull\CD 02\20 - We're Not Gonna Take It.wav

Peak level 98.6 %
Track quality 100.0 %
Test CRC 69CDA929
Copy CRC 69CDA929
Track not present in AccurateRip database
Copy OK


None of the tracks are present in the AccurateRip database

No errors occurred

End of status report



Download links:

Hotfile

http://hotfile.com/dl/89400682/e66e245/thwh_lilee_40th_d01.part1.rar.html
http://hotfile.com/dl/89400684/31398f0/thwh_lilee_40th_d01.part2.rar.html
http://hotfile.com/dl/89400687/c819f3c/thwh_lilee_40th_d02.part1.rar.html
http://hotfile.com/dl/89400681/0facb97/thwh_lilee_40th_d02.part2.rar.html
http://hotfile.com/dl/89400680/aa8eb19/thwh_lilee_40th_d03.part1.rar.html
http://hotfile.com/dl/89400683/5161c1a/thwh_lilee_40th_d03.part2.rar.html
http://hotfile.com/dl/89400685/2ea25ca/thwh_lilee_40th_d04.part1.rar.html
http://hotfile.com/dl/89400686/80185ed/thwh_lilee_40th_d04.part2.rar.html

Fileserve

http://www.fileserve.com/file/EtU5gkx/thwh_lilee_40th_d01.part1.rar
http://www.fileserve.com/file/sPRraBx/thwh_lilee_40th_d01.part2.rar
http://www.fileserve.com/file/NPpNhFz/thwh_lilee_40th_d02.part1.rar
http://www.fileserve.com/file/CvVMKdQ/thwh_lilee_40th_d02.part2.rar
http://www.fileserve.com/file/wNpH5Zr/thwh_lilee_40th_d03.part1.rar
http://www.fileserve.com/file/EMx7DAu/thwh_lilee_40th_d03.part2.rar
http://www.fileserve.com/file/b9Rz9sB/thwh_lilee_40th_d04.part1.rar
http://www.fileserve.com/file/eh8aS4z/thwh_lilee_40th_d04.part2.rar

Filesonic

http://www.filesonic.com/file/42183921/thwh_lilee_40th_d01.part1.rar
http://www.filesonic.com/file/42184161/thwh_lilee_40th_d01.part2.rar
http://www.filesonic.com/file/42184059/thwh_lilee_40th_d02.part1.rar
http://www.filesonic.com/file/42183773/thwh_lilee_40th_d02.part2.rar
http://www.filesonic.com/file/42184289/thwh_lilee_40th_d03.part1.rar
http://www.filesonic.com/file/42184137/thwh_lilee_40th_d03.part2.rar
http://www.filesonic.com/file/42184311/thwh_lilee_40th_d04.part1.rar
http://www.filesonic.com/file/42184109/thwh_lilee_40th_d04.part2.rar



Thanks to the original releaser




ADVERTISING » Very Fast Download!



« ADVERTISING




Posted By: ubique Date: 14 Dec 2010 15:14:17
stunning post! thanx ever so much!
Posted By: sulpete Date: 14 Dec 2010 16:58:09
Amazing, thanks very much for this set

Cheers, Peter
Posted By: groslou Date: 14 Dec 2010 17:45:13
Thanks from Québec
Posted By: SteveJobs Date: 14 Dec 2010 19:01:12
Thank you very much, havrancek!
Posted By: cheetohman Date: 14 Dec 2010 21:15:44
Never even knew this one was being released! Thanks!
Posted By: notorius Date: 14 Dec 2010 21:44:46
many many thanks!!
Go on!
Posted By: johhenrik Date: 14 Dec 2010 23:22:29
Thanks for the upload. It says Full COvers in the description, but it's only a jpeg of the Front Cover, is that all, or did you miss to package it? This edition comes with A LOT to scan, sp I am not surprised it's not included, just that it says "Full Covers" in the description above.
Posted By: GRMarj Date: 14 Dec 2010 23:58:50
Thank you very much!
Posted By: dennismoore Date: 15 Dec 2010 01:55:52
Who???

;)

:)

Merry Christmas!
Posted By: havrancek Date: 15 Dec 2010 03:58:40
@johhenrik: I made a mistake. I'm sorry
Posted By: johhenrik Date: 15 Dec 2010 05:36:49
That's cool, was just wondering :) Thanks again for this one.
Posted By: harry33333 Date: 15 Dec 2010 10:47:01
Danke!!!! aus Germany
Posted By: cmsv Date: 15 Dec 2010 11:16:41
Great post,but no covers? Only back covers please!
Posted By: Madlej1 Date: 15 Dec 2010 19:32:47
thanks :D:D:D great gift ever :)
Posted By: redsock Date: 29 Dec 2010 17:41:26
thanks!!

are the times of the songs on discs 3 and 4 actually *exactly* the same as discs 1 and 2? :>)

Posted By: diddlycrap Date: 26 Jun 2011 00:45:30
Thanks very much for sharing..
Posted By: axisa Date: 22 Sep 2011 18:05:28
This is great, thank you!
As for the covers, I found most of them (22) here: http://cover-paradise.to/?Module=ViewEntry&ID=408795
but only for the 2 CD release.