Loading...

Say Hi To Your Mom - Impeccable Blahs (2006)

Posted By : Designol | Date : 05 Jul 2013 12:26:31 | Comments : 1 |
|



Say Hi To Your Mom - Impeccable Blahs (2006)
EAC | FLAC | Tracks (Cue&Log) ~ 327 Mb (incl 5%) | Mp3 (CBR320/Stereo) ~ 170 Mb (incl 5%) | Scans included
Genre: Indie Rock, Lo-Fi | Label: Euphobia Records | # RBG 0102 | Time: 00:43:06

Impeccable Blahs is the fourth full-length album by Seattle-based indie rock band Say Hi. It was written almost entirely about vampires, though Star Trek is also mentioned. The song "Angels and Darlas" is a reference to Angel and Darla from the television series Buffy the Vampire Slayer and its spinoff Angel both created by Joss Whedon.

New York indie rocker Say Hi to Your Mom's (aka singer/songwriter Eric Elbogen) fourth record since 2002's Discosadness is pink, ten songs long, and all about "everyday vampires." Impeccable Blahs, a bass-heavy, melody rich collection of home recorded goth rock/Magnetic Fields-infused electronic indie pop is as sweet as it is spooky, relying on Elbogen's soft and sinister voice to twist tongue-in-cheek lines like "Most days these fangs are inside someone, so you can't see them when I smile" into "come hither" invitations to eternal darkness. The addition of drummer Chris Egan III (The World Without Magic) and keyboard player Jeff Sheinkopf (Sea Ray) lifts Impeccable Blahs out of the occasionally murky abyss of bedroom recording with precision work on standout cuts like "Not as Goth as They Say We Are" and "Angels and Darlas," but it's Elbogen's heartfelt rendering of these Princes of Darkness into blue collar bloodsuckers, "not creepy, goth vampires but rather people just like you and me who happen to get their nourishment from drinking blood," that keeps Blahs from succumbing to pasty hipster irony.

Review by James Christopher Monger, Allmusic.com

Biography
Website
Wiki


Tracklist:

01. These Fangs (3:14)
02. Snowcones And Puppies (4:25)
03. Blah Blah Blah (3:27)
04. Sad But Endearingly So (4:14)
05. She Just Happens To Date The Prince Of Darkness (6:56)
06. Prefers Unhappy Endings (4:07)
07. Angels And Darlas (3:32)
08. Not As Goth As They Say We Are (4:42)
09. Sweet Sweet Heartkiller (3:18)
10. The Reigning Champ Of The Teething Crowd (5:10)


EAC log
Exact Audio Copy V1.0 beta 3 from 29. August 2011

EAC extraction logfile from 21. May 2013, 21:31

Say Hi To Your Mom / Impeccable Blahs (RBG 0102)

Used drive : HL-DT-STDVD+-RW GT60N Adapter: 0 ID: 1

Read mode : Secure
Utilize accurate stream : Yes
Defeat audio cache : Yes
Make use of C2 pointers : No

Read offset correction : 103
Overread into Lead-In and Lead-Out : No
Fill up missing offset samples with silence : Yes
Delete leading and trailing silent blocks : No
Null samples used in CRC calculations : Yes
Used interface : Native Win32 interface for Win NT & 2000
Gap handling : Appended to previous track

Used output format : User Defined Encoder
Selected bitrate : 128 kBit/s
Quality : High
Add ID3 tag : No
Command line compressor : C:\Program Files (x86)\Exact Audio Copy\Flac\flac.exe
Additional command line options : -V -8 -T "Genre=%genre%" -T "Artist=%artist%" -T "Title=%title%" -T "Album=%albumtitle%" -T "Date=%year%" -T "Tracknumber=%tracknr%" -T "Comment=%comment%" %source%


TOC of the extracted CD

Track | Start | Length | Start sector | End sector
---------------------------------------------------------
1 | 0:00.00 | 3:14.32 | 0 | 14581
2 | 3:14.32 | 4:24.53 | 14582 | 34434
3 | 7:39.10 | 3:26.65 | 34435 | 49949
4 | 11:06.00 | 4:14.22 | 49950 | 69021
5 | 15:20.22 | 6:56.20 | 69022 | 100241
6 | 22:16.42 | 4:06.50 | 100242 | 118741
7 | 26:23.17 | 3:32.15 | 118742 | 134656
8 | 29:55.32 | 4:42.13 | 134657 | 155819
9 | 34:37.45 | 3:18.15 | 155820 | 170684
10 | 37:55.60 | 5:09.60 | 170685 | 193919


Track 1

Filename C:\01. These Fangs.wav

Pre-gap length 0:00:02.00

Peak level 100.0 %
Extraction speed 1.7 X
Track quality 100.0 %
Test CRC 099D7B0F
Copy CRC 099D7B0F
Accurately ripped (confidence 6) [2D297BB4] (AR v1)
Copy OK

Track 2

Filename C:\02. Snowcones And Puppies.wav

Pre-gap length 0:00:00.42

Peak level 100.0 %
Extraction speed 1.9 X
Track quality 100.0 %
Test CRC F82F6DDE
Copy CRC F82F6DDE
Accurately ripped (confidence 6) [8E5E5B19] (AR v1)
Copy OK

Track 3

Filename C:\03. Blah Blah Blah.wav

Pre-gap length 0:00:00.43

Peak level 89.1 %
Extraction speed 2.9 X
Track quality 100.0 %
Test CRC 13B5648A
Copy CRC 13B5648A
Accurately ripped (confidence 6) [574AD710] (AR v1)
Copy OK

Track 4

Filename C:\04. Sad But Endearingly So.wav

Pre-gap length 0:00:00.08

Peak level 99.9 %
Extraction speed 2.8 X
Track quality 99.9 %
Test CRC 96741F3A
Copy CRC 96741F3A
Accurately ripped (confidence 6) [C46351F0] (AR v1)
Copy OK

Track 5

Filename C:\05. She Just Happens To Date The Prince Of Darkness.wav

Pre-gap length 0:00:00.17

Peak level 99.9 %
Extraction speed 3.5 X
Track quality 100.0 %
Test CRC 41BC76F9
Copy CRC 41BC76F9
Accurately ripped (confidence 6) [930D029A] (AR v1)
Copy OK

Track 6

Filename C:\06. Prefers Unhappy Endings.wav

Peak level 100.0 %
Extraction speed 3.3 X
Track quality 99.9 %
Test CRC 35CFDFC7
Copy CRC 35CFDFC7
Accurately ripped (confidence 6) [C6638F12] (AR v1)
Copy OK

Track 7

Filename C:\07. Angels And Darlas.wav

Pre-gap length 0:00:01.65

Peak level 100.0 %
Extraction speed 3.9 X
Track quality 100.0 %
Test CRC A41572BA
Copy CRC A41572BA
Accurately ripped (confidence 6) [1383EF19] (AR v1)
Copy OK

Track 8

Filename C:\08. Not As Goth As They Say We Are.wav

Pre-gap length 0:00:00.45

Peak level 99.9 %
Extraction speed 3.7 X
Track quality 99.9 %
Test CRC 6B6DC9B3
Copy CRC 6B6DC9B3
Accurately ripped (confidence 6) [2AD482AA] (AR v1)
Copy OK

Track 9

Filename C:\09. Sweet Sweet Heartkiller.wav

Pre-gap length 0:00:00.20

Peak level 100.0 %
Extraction speed 3.6 X
Track quality 99.9 %
Test CRC DF7B8A74
Copy CRC DF7B8A74
Accurately ripped (confidence 6) [B4B1B0E6] (AR v1)
Copy OK

Track 10

Filename C:\10. The Reigning Champ Of The Teething Crowd.wav

Pre-gap length 0:00:00.63

Peak level 99.9 %
Extraction speed 4.6 X
Track quality 100.0 %
Test CRC 981824D2
Copy CRC 981824D2
Accurately ripped (confidence 6) [E55904AC] (AR v1)
Copy OK


All tracks accurately ripped

No errors occurred

End of status report

==== Log checksum 389B5FA5ECD5034DE775D556B96A439A2A38EB5E6DDDDA8502511DF6FCC17A4E ====

DR log
foobar2000 1.2 / Dynamic Range Meter 1.1.1
log date: 2013-07-05 15:23:55

--------------------------------------------------------------------------------
Analyzed: Say Hi To Your Mom / Impeccable Blahs (RBG 0102)
--------------------------------------------------------------------------------

DR Peak RMS Duration Track
--------------------------------------------------------------------------------
DR7 0.00 dB -8.60 dB 3:14 01-These Fangs
DR7 0.00 dB -9.13 dB 4:25 02-Snowcones And Puppies
DR7 -1.00 dB -9.51 dB 3:27 03-Blah Blah Blah
DR8 0.00 dB -9.55 dB 4:14 04-Sad But Endearingly So
DR7 0.00 dB -9.96 dB 6:56 05-She Just Happens To Date The Prince Of Darkness
DR9 0.00 dB -10.03 dB 4:07 06-Prefers Unhappy Endings
DR7 0.00 dB -8.45 dB 3:32 07-Angels And Darlas
DR8 0.00 dB -9.62 dB 4:42 08-Not As Goth As They Say We Are
DR6 0.00 dB -6.93 dB 3:18 09-Sweet Sweet Heartkiller
DR8 0.00 dB -10.46 dB 5:10 10-The Reigning Champ Of The Teething Crowd
--------------------------------------------------------------------------------

Number of tracks: 10
Official DR value: DR7

Samplerate: 44100 Hz
Channels: 2
Bits per sample: 16
Bitrate: 758 kbps
Codec: FLAC
================================================================================





ADVERTISING » Very Fast Download!



« ADVERTISING




Posted By: cueto Date: 16 Jul 2013 09:46:18
I like Say Hi To Your Mom. Great discovery. Many thanks