Loading...

David Bowie - Black Tie White Noise (1993) [2CD+DVD] {2003 EMI Limited Edition} [repost]

Posted By : ruskaval | Date : 18 Mar 2013 06:50:05 | Comments : 2 |
|



David Bowie - Black Tie White Noise (1993) [2CD+DVD] {2003 EMI Limited Edition}
EAC rip (secure mode) | FLAC (tracks)+CUE+LOG -> 969 Mb | MP3 @320 -> 312 Mb
DVD5 -> 4.13 Gb | All Regions | PAL 4:3 | English (LinearPCM, 2 ch) | ~ 63 m | ISO Image
Full Artwork @ 300 dpi (jpg) -> 36 Mb | 5% repair rar
© 2003 Jones/Tintoretto / EMI | 5848140 2
Rock / Experimental Rock / Contemporary Pop

Black Tie White Noise was the beginning of David Bowie's return from the wilderness of post-Let's Dance, the first indication that he was regaining his creative spark. To say as much suggests that it's a bit of a lost classic, when it's rather a sporadically intriguing transitional album, finding Bowie balancing the commercial dance-rock of Let's Dance with artier inclinations from his Berlin period, all the while trying to draw on the past by working with former Spider from Mars guitarist Mick Ronson, collaborating with Let's Dance producer Nile Rodgers, and even covering inspiration Scott Walker's "Nite Flights."


On top of that, the record was inspired by his recent marriage to supermodel Iman -- the record is bookended with "The Wedding" and "The Wedding Song" -- and then tied up and presented as a sophisticated modern urban soul record, one that draws from uptown soul (including, rather bafflingly, a duet with Al B. Sure!) and state-of-the-art dance-club techno, while adding splashy touches like solos from avant jazz trumpeter Lester Bowie and a nod to modern alt-rock via a nifty cover of Morrissey's "I Know It's Gonna Happen Someday." That's a lot of stuff for one record to handle, so it shouldn't come as a great surprise that the album doesn't always work, but its stylish restlessness comes as a great relief, particularly when compared to the hermetically sealed previous solo Bowie record, 1987's Never Let Me Down. Black Tie White Noise displays greater musical ambition than any record he'd made since Scary Monsters, and while much of the record feels like unrealized ideas, there are songs where it all gels, like on the paranoid jumble of "Jump They Say," the aforementioned covers, the impassioned "You've Been Around," and the self-consciously smooth title track. Moments like these are the first in a long time to feel classically Bowie, and they point ahead toward the more interesting records he made in the second half of the '90s, but they are encased in a production that not only sounds dated years later, but sounded dated upon its release in the spring of 1993, two years into the thick of alternative rock. At that point, the club-centric, mainstream-courting Black Tie White Noise seemed as an anachronism during the guitar-heavy grunge-n-industrial glory days -- something Bowie tacitly acknowledged with its 1995 successor, Outside, which was every bit as gloomy as a Nine Inch Nails record -- but separated from the vagaries of fashion, it's an interesting first step in Bowie's creative revival.


More INFO

tracklist:
CD1

01. The Wedding
02. You've Been Around
03. I Feel Free
04. Black Tie White Noise
05. Jump They Say
06. Nite Flights
07. Pallas Athena
08. Miracle Goodnight
09. Don't Let Me Down And Down
10. Looking For Lester
11. I Know It's Gonna Happen
12. The Wedding Song

CD2
01. Real Cool World
02. Lacy Can't Dance
03. Jump They Say (Rock Mix)
04. Black Tie White Noise (3rd Floor US Radio Mix)
05. Miracle Goodnight (Make Believe Mix)
06. Don't Let Me Down & Down (Indonesian Vocal Version)
07. You've Been Around (Dangers 12' Mix)
08. Jump They Say (Brothers In Rhythm 12' Remix)
09. Black Tie White Noise (Here Come Da Jazz)
10. Pallas Athena (Don't Stop Praying Remix No. 2)
11. Nite Flights (Moodswings Back To Basics Remix)
12. Jump They Say (Dub Oddity)

DVD
01. Introduction
02. With Lester Bowie (Interview)
03. On Reeves Gabrels (Interview)
04. You've Been Around (Performance)
05. Expanding and Experimenting (Interview)
06. Nite Flights (Performance)
07. Otherness (Interview)
08. Miracle Goodnight (Performance)
09. On Marriage (Interview)
10. Black Tie White Noise (Performance)
11. With Mick Ronson (Interview)
12. I Feel Free (Performance)
13. With Nile Rodgers (Interview)
14. I Know It's Gonna Happen Someday (Performance)
15. Miracle Goodnight (Promo Video)
16. Jump They Say
17. Black Tie White Noise (Promo Video)
18. Credits

EAC log CD1
Exact Audio Copy V0.99 prebeta 4 from 23. January 2008

EAC extraction logfile from 26. March 2008, 16:49

David Bowie / Black Tie White Noise [Disc 1]

Used drive : Optiarc DVD RW AD-7560A Adapter: 0 ID: 0

Read mode : Secure
Utilize accurate stream : Yes
Defeat audio cache : No
Make use of C2 pointers : No

Read offset correction : 6
Overread into Lead-In and Lead-Out : No
Fill up missing offset samples with silence : Yes
Delete leading and trailing silent blocks : No
Null samples used in CRC calculations : Yes
Used interface : Native Win32 interface for Win NT & 2000
Gap handling : Appended to previous track

Used output format : User Defined Encoder
Selected bitrate : 128 kBit/s
Quality : High
Add ID3 tag : No
Command line compressor : C:\Program Files\Exact Audio Copy\Flac\flac.exe
Additional command line options : -V -8 -T "artist=%a" -T "title=%t" -T "album=%g" -T "date=%y" -T "tracknumber=%n" -T "genre=%m" %s


TOC of the extracted CD

Track | Start | Length | Start sector | End sector
---------------------------------------------------------
1 | 0:00.00 | 5:04.30 | 0 | 22829
2 | 5:04.30 | 4:43.70 | 22830 | 44124
3 | 9:48.25 | 4:49.72 | 44125 | 65871
4 | 14:38.22 | 4:54.33 | 65872 | 87954
5 | 19:32.55 | 4:23.02 | 87955 | 107681
6 | 23:55.57 | 4:36.40 | 107682 | 128421
7 | 28:32.22 | 4:39.58 | 128422 | 149404
8 | 33:12.05 | 4:12.62 | 149405 | 168366
9 | 37:24.67 | 4:54.65 | 168367 | 190481
10 | 42:19.57 | 5:37.33 | 190482 | 215789
11 | 47:57.15 | 4:05.05 | 215790 | 234169
12 | 52:02.20 | 4:30.55 | 234170 | 254474


Track 1

Filename C:\rippie\David Bowie - 2004 - Black Tie White Noise [Disc 1]\01 - The Wedding.wav

Pre-gap length 0:00:02.00

Peak level 98.3 %
Track quality 99.9 %
Test CRC ACED7CE6
Copy CRC ACED7CE6
Accurately ripped (confidence 6) [546F0F51]
Copy OK

Track 2

Filename C:\rippie\David Bowie - 2004 - Black Tie White Noise [Disc 1]\02 - You've Been Around.wav

Pre-gap length 0:00:00.43

Peak level 98.5 %
Track quality 99.9 %
Test CRC F1F2A83F
Copy CRC F1F2A83F
Accurately ripped (confidence 6) [A7250EA3]
Copy OK

Track 3

Filename C:\rippie\David Bowie - 2004 - Black Tie White Noise [Disc 1]\03 - I Feel Free.wav

Pre-gap length 0:00:00.33

Peak level 98.5 %
Track quality 99.9 %
Test CRC DAE65337
Copy CRC DAE65337
Accurately ripped (confidence 6) [3AFB7DDE]
Copy OK

Track 4

Filename C:\rippie\David Bowie - 2004 - Black Tie White Noise [Disc 1]\04 - Black Tie White Noise.wav

Pre-gap length 0:00:00.60

Peak level 98.6 %
Track quality 100.0 %
Test CRC 787C2157
Copy CRC 787C2157
Accurately ripped (confidence 6) [39451C65]
Copy OK

Track 5

Filename C:\rippie\David Bowie - 2004 - Black Tie White Noise [Disc 1]\05 - Jump They Say.wav

Peak level 98.5 %
Track quality 99.9 %
Test CRC 0292F43B
Copy CRC 0292F43B
Accurately ripped (confidence 6) [45A9967B]
Copy OK

Track 6

Filename C:\rippie\David Bowie - 2004 - Black Tie White Noise [Disc 1]\06 - Nite Flights.wav

Peak level 98.6 %
Track quality 99.9 %
Test CRC C8FED7BB
Copy CRC C8FED7BB
Accurately ripped (confidence 6) [4F958A8B]
Copy OK

Track 7

Filename C:\rippie\David Bowie - 2004 - Black Tie White Noise [Disc 1]\07 - Pallas Athena.wav

Peak level 98.4 %
Track quality 100.0 %
Test CRC AC082281
Copy CRC AC082281
Accurately ripped (confidence 6) [0D2D4B44]
Copy OK

Track 8

Filename C:\rippie\David Bowie - 2004 - Black Tie White Noise [Disc 1]\08 - Miracle Goodnight.wav

Pre-gap length 0:00:00.20

Peak level 98.5 %
Track quality 99.9 %
Test CRC E8293175
Copy CRC E8293175
Accurately ripped (confidence 6) [2377F326]
Copy OK

Track 9

Filename C:\rippie\David Bowie - 2004 - Black Tie White Noise [Disc 1]\09 - Don't Let Me Down.wav

Peak level 98.6 %
Track quality 99.9 %
Test CRC 4B81C2C4
Copy CRC 4B81C2C4
Accurately ripped (confidence 6) [9AB202EC]
Copy OK

Track 10

Filename C:\rippie\David Bowie - 2004 - Black Tie White Noise [Disc 1]\10 - Looking For Lester.wav

Pre-gap length 0:00:00.17

Peak level 98.7 %
Track quality 99.9 %
Test CRC B0D3C354
Copy CRC B0D3C354
Accurately ripped (confidence 6) [BD61A2E3]
Copy OK

Track 11

Filename C:\rippie\David Bowie - 2004 - Black Tie White Noise [Disc 1]\11 - I Know It's Going To Happen Someday.wav

Pre-gap length 0:00:00.35

Peak level 98.6 %
Track quality 99.9 %
Test CRC 3D6D4515
Copy CRC 3D6D4515
Accurately ripped (confidence 6) [7818A1A7]
Copy OK

Track 12

Filename C:\rippie\David Bowie - 2004 - Black Tie White Noise [Disc 1]\12 - The Wedding Song.wav

Pre-gap length 0:00:00.18

Peak level 98.2 %
Track quality 100.0 %
Test CRC D6237116
Copy CRC D6237116
Accurately ripped (confidence 6) [30B02FF1]
Copy OK


All tracks accurately ripped

No errors occurred

End of status report

EAC log CD2
Exact Audio Copy V0.99 prebeta 4 from 23. January 2008

EAC extraction logfile from 26. March 2008, 18:00

David Bowie / Black Tie White Noise [Disc 2]

Used drive : Optiarc DVD RW AD-7560A Adapter: 0 ID: 0

Read mode : Secure
Utilize accurate stream : Yes
Defeat audio cache : No
Make use of C2 pointers : No

Read offset correction : 6
Overread into Lead-In and Lead-Out : No
Fill up missing offset samples with silence : Yes
Delete leading and trailing silent blocks : No
Null samples used in CRC calculations : Yes
Used interface : Native Win32 interface for Win NT & 2000
Gap handling : Appended to previous track

Used output format : User Defined Encoder
Selected bitrate : 128 kBit/s
Quality : High
Add ID3 tag : No
Command line compressor : C:\Program Files\Exact Audio Copy\Flac\flac.exe
Additional command line options : -V -8 -T "artist=%a" -T "title=%t" -T "album=%g" -T "date=%y" -T "tracknumber=%n" -T "genre=%m" %s


TOC of the extracted CD

Track | Start | Length | Start sector | End sector
---------------------------------------------------------
1 | 0:00.00 | 5:27.42 | 0 | 24566
2 | 5:27.42 | 5:48.03 | 24567 | 50669
3 | 11:15.45 | 4:30.67 | 50670 | 70986
4 | 15:46.37 | 3:44.65 | 70987 | 87851
5 | 19:31.27 | 4:30.08 | 87852 | 108109
6 | 24:01.35 | 4:56.40 | 108110 | 130349
7 | 28:58.00 | 7:40.50 | 130350 | 164899
8 | 36:38.50 | 8:26.07 | 164900 | 202856
9 | 45:04.57 | 5:33.38 | 202857 | 227869
10 | 50:38.20 | 7:24.12 | 227870 | 261181
11 | 58:02.32 | 10:01.28 | 261182 | 306284
12 | 68:03.60 | 6:16.07 | 306285 | 334491


Track 1

Filename C:\rippie\David Bowie - 2004 - Black Tie White Noise [Disc 2]\01 - Real Cool World.wav

Pre-gap length 0:00:02.00

Peak level 98.3 %
Track quality 99.9 %
Test CRC 688862BC
Copy CRC 688862BC
Accurately ripped (confidence 3) [4753CB5F]
Copy OK

Track 2

Filename C:\rippie\David Bowie - 2004 - Black Tie White Noise [Disc 2]\02 - Lucy Can't Dance.wav

Pre-gap length 0:00:01.60

Peak level 98.8 %
Track quality 100.0 %
Test CRC 3674D9E2
Copy CRC 3674D9E2
Accurately ripped (confidence 3) [30997927]
Copy OK

Track 3

Filename C:\rippie\David Bowie - 2004 - Black Tie White Noise [Disc 2]\03 - Jump They Say [Rock Mix].wav

Pre-gap length 0:00:01.15

Peak level 98.4 %
Track quality 99.9 %
Test CRC 35A63806
Copy CRC 35A63806
Accurately ripped (confidence 3) [E8403C33]
Copy OK

Track 4

Filename C:\rippie\David Bowie - 2004 - Black Tie White Noise [Disc 2]\04 - Black Tie White Noise [3rd Floor US Radio Mix].wav

Pre-gap length 0:00:01.50

Peak level 98.0 %
Track quality 99.9 %
Test CRC 91C3F874
Copy CRC 91C3F874
Accurately ripped (confidence 3) [085FB843]
Copy OK

Track 5

Filename C:\rippie\David Bowie - 2004 - Black Tie White Noise [Disc 2]\05 - Miracle Goodnight [Make Believe Mix].wav

Pre-gap length 0:00:01.22

Peak level 83.0 %
Track quality 100.0 %
Test CRC 42C7FDEE
Copy CRC 42C7FDEE
Accurately ripped (confidence 3) [0BA0EAAE]
Copy OK

Track 6

Filename C:\rippie\David Bowie - 2004 - Black Tie White Noise [Disc 2]\06 - Don't Let Me Down & Down [Indonesian Vocal Version].wav

Pre-gap length 0:00:01.43

Peak level 98.7 %
Track quality 99.9 %
Test CRC 9EDC30AF
Copy CRC 9EDC30AF
Accurately ripped (confidence 3) [2421B5FE]
Copy OK

Track 7

Filename C:\rippie\David Bowie - 2004 - Black Tie White Noise [Disc 2]\07 - You've Been Around [Dangers 12' Remix].wav

Pre-gap length 0:00:01.28

Peak level 98.5 %
Track quality 100.0 %
Test CRC A5939803
Copy CRC A5939803
Accurately ripped (confidence 3) [29FB2F78]
Copy OK

Track 8

Filename C:\rippie\David Bowie - 2004 - Black Tie White Noise [Disc 2]\08 - Jump They Say [Brothers In Rhythm 12' Remix].wav

Pre-gap length 0:00:01.68

Peak level 98.3 %
Track quality 100.0 %
Test CRC 0F840DA8
Copy CRC 0F840DA8
Accurately ripped (confidence 3) [E1266092]
Copy OK

Track 9

Filename C:\rippie\David Bowie - 2004 - Black Tie White Noise [Disc 2]\09 - Black Tie White Noise [Here Come Da Jazz].wav

Pre-gap length 0:00:01.60

Peak level 98.0 %
Track quality 100.0 %
Test CRC 552D90A4
Copy CRC 552D90A4
Accurately ripped (confidence 3) [CE16E402]
Copy OK

Track 10

Filename C:\rippie\David Bowie - 2004 - Black Tie White Noise [Disc 2]\10 - Pallas Athena [Don't Stop Praying Remix No. 2].wav

Pre-gap length 0:00:01.48

Peak level 98.0 %
Track quality 100.0 %
Test CRC B0B9FFA5
Copy CRC B0B9FFA5
Accurately ripped (confidence 3) [A5FC232F]
Copy OK

Track 11

Filename C:\rippie\David Bowie - 2004 - Black Tie White Noise [Disc 2]\11 - Nite Flights [Moodswings Back To Basics Remix].wav

Pre-gap length 0:00:01.50

Peak level 98.6 %
Track quality 99.9 %
Test CRC 5CCE4C60
Copy CRC 5CCE4C60
Accurately ripped (confidence 3) [EF99E706]
Copy OK

Track 12

Filename C:\rippie\David Bowie - 2004 - Black Tie White Noise [Disc 2]\12 - Jump They Say [Dub Oddity].wav

Pre-gap length 0:00:02.15

Peak level 98.1 %
Track quality 100.0 %
Test CRC 112D34D9
Copy CRC 112D34D9
Accurately ripped (confidence 3) [8888D01E]
Copy OK


All tracks accurately ripped

No errors occurred

End of status report









All thanks goes to the original releaser!



ADVERTISING » Very Fast Download!



« ADVERTISING




Posted By: lgsbestpal Date: 20 Mar 2013 08:34:57
Thanks for the upload!!
Posted By: Antipop Date: 21 Mar 2013 09:56:18
Thanks for sharing and for using BS.