Loading...

The Dave Clark Five - The Complete History, Vols 1-7 (1964-1968) (2008) 7cd

Posted By : firepower | Date : 10 Jun 2011 23:42:23 | Comments : 8 |
|



The Dave Clark Five - The Complete History, Vols 1-7 (1964-1968) (2008) 7cd
EAC, Flac tracks, CUE+LOG 3gb | 600dpi front and back only
Rock | 2008 Crystal Beats | 5% recovery record | Source: internet

The first six volumes of this unauthorized series of Dave Clark Five CD reissues contain everything from the 12 non-compilation LPs the group issued in the U.S. between 1964-1968, as well as everything from the four U.K. LPs (never issued in the U.S.) that followed in 1969-1972. The seventh and final volume contains 25 tracks that somehow didn't find a place on any of those LPs. Most of these originally found release as non-LP A-sides and B-sides on numerous 1962-1973 singles, and not all of them are obscure by any means. "Over and Over" was a number one U.S. hit in 1965 that somehow never made it onto a non-compilation LP, and neither did its follow-up, "At the Scene," a Top 20 single.


Tracklist:

Vol 1 - Glad All Over - Return! - American Tour
01 - Glad All Over
02 - All Of The Time
03 - Stay
04 - Chaquita (2nd Version)
05 - Do You Love Me
06 - Bits And Pieces
07 - I Know You
08 - No Time To Lose
09 - Doo Dah
10 - Time
11 - She's All Mine
12 - Can't You See That She's Mine
13 - I Need You, I Love You
14 - I Love You No More
15 - Rumble
16 - Funny
17 - Zip-A-Dee-Doo-Dah
18 - Can I Trust You
19 - Forever And A Day
20 - Theme Without A Name
21 - On Broadway
22 - Because
23 - Who Does He Think He Is (Live)
24 - Move On (Live)
25 - Whenever You're Around (Live)
26 - I Want You Still (Live)
27 - Long Ago (Live)
28 - Come On Over (Live)
29 - Blue Monday (Live)
30 - Sometimes (Live)
31 - Any Time You Want Love (Live)
32 - I Cried Over You (Live)
33 - Ol' Sol (Live)

Vol 2 - Coast To Coast - Weekend In London - Having A Wild Weekend
01 - Any Way You Want It
02 - Give Me Love
03 - I Can't Stand It
04 - I'm Left Without You
05 - Everybody Knows (I Still Love You)
06 - Crying Over You
07 - Say You Want Me
08 - When
09 - Don't You Know
10 - To Me
11 - It's Not True
12 - Come Home
13 - We'll Be Running
14 - Blue Suede Shoes
15 - Hurting Inside
16 - I'll Never Know
17 - 'Til The Right One Comes Along
18 - I'm Thinking
19 - Your Turn To Cry
20 - Little Bitty Pretty One
21 - Remember, It's Me
22 - Mighty Good Loving
23 - Having A Wild Weekend
24 - New Kind Of Love
25 - Dum-Dee-Dee-Dum
26 - I Said I Was Sorry
27 - No Stopping
28 - Don't Be Taken In
29 - Catch Us If You Can
30 - When I'm Alone
31 - If You Come Back
32 - Sweet Memories
33 - Don't You Realize
34 - On The Move

Vol 3 - I Like It Like That - Try Too Hard - Satisfied With You
01 - I Like It Like That
02 - Pumping
03 - I Need Love
04 - Maybe It's You
05 - That's How Long Our Love Will Last
06 - A Little Bit Of Love
07 - I'll Be Yours My Love
08 - Please Love Me
09 - Goodbye My Friends
10 - I Am On My Own
11 - She's A Loving Girl
12 - You Know You're Lying
13 - Try Too Hard
14 - Today
15 - I Never Will
16 - Looking In
17 - Ever Since You've Been Away
18 - Somebody Find A New Love
19 - I Really Love You
20 - It Don't Feel Good
21 - Scared Of Falling In Love
22 - I Know
23 - Satisfied With You
24 - Go On
25 - Do You Still Love Me
26 - I Meant You
27 - Look Before You Leap
28 - Please Tell Me Why
29 - You Never Listen
30 - I Still Need You
31 - It'll Only Hurt For A Little While
32 - Good Lovin'

Vol 4 - 5 By 5 - You Got What It Takes - Everybody Knows
01 - Nineteen Days
02 - Something I've Always Wanted
03 - Little Bit Strong
04 - Bernedette
05 - Sitting Here Baby
06 - You Don't Want My Loving
07 - How Can I Tell You
08 - Picture Of You
09 - Small Talk
10 - Pick Up Your Phone
11 - You Got What It Takes
12 - I've Got To Have A Reason
13 - You Don't Play Me Around
14 - Thinking Of You Baby
15 - Lovin' So Good
16 - Doctor Rhythm
17 - Play With Me
18 - Let Me Be
19 - Blueberry Hill
20 - Tabatha Twitchit
21 - Everybody Knows
22 - A Little Bit Now
23 - At The Place
24 - Inside And Out
25 - Red And Blue
26 - You Must Have Been A Beautiful Baby
27 - Good Love Is Hard To Find
28 - Lost In His Dreams
29 - Concentration Baby
30 - Hold On Tight
31 - I'll Do The Best I Can

Vol 5 - Five By Five 1964-69 - If Somebody Loves You
01 - Just A Little Bit Now
02 - Maze Of Love
03 - Return My Love
04 - Best Day's Work
05 - Who Do You Think You're Talking To
06 - Got Love If You Want It
07 - The Red Balloon
08 - Please Stay
09 - Devoted To Me
10 - 34-06
11 - Away From The Noises
12 - When I Am Alone
13 - I Still Need You
14 - No One Can Break A Heart Like You
15 - If Somebody Loves You
16 - It Aint' What You Do
17 - Live In The Sky
18 - Five By Five
19 - Here Comes Summer
20 - How Do You Get To Heaven
21 - Everybody Get Together
22 - Julia
23 - Break Down And Cry
24 - I'm On My Own
25 - Red And Blue
26 - If You Wanna See Me Cry
27 - Worried Times
28 - Darling I Love You

Vol 6 - Play Good Old Rock 'n' Roll - 18 Golden Oldies - Dave Clark & Friends
01 - Good Old Rock 'n' Roll
02 - Raining In My Heart
03 - Lucille
04 - Reelin' And Rockin'
05 - More Good Old Rock 'n' Roll
06 - Loving You
07 - Memphis, Tennessee
08 - One Night
09 - Lawdy Miss Clawdy
10 - Southern Man
11 - Bring It On Home To Me
12 - Signs
13 - Won't You Be My Lady
14 - The Time Has Come
15 - If You've Got A Little Love To Give
16 - Officer McKirk
17 - Paradise Is Half As Nice
18 - Draggin' The Line
19 - Think Of Me
20 - One-Eyed, Blue-Suited, Gun-Totin' Man
21 - Right Or Wrong
22 - I Don't Know
23 - Put A Little Love In Your Heart

Vol 7 - Pieces & Bits --- Rarities, Hits & Single Tracks
01 - Chaquita (first version)
02 - In Your Heart
03 - First Love
04 - I Walk The Line
05 - That's What I Said
06 - I Knew It All The Time
07 - The Mulberry Bush
08 - Poison Ivy
09 - Over And Over
10 - At The Scene
11 - I Miss You
12 - All Night Long
13 - Don't Let Me Down
14 - Man In A Pin-Striped Suit
15 - Good Time Woman
16 - Forget
17 - Children
18 - The Mulberry Tree
19 - Into Your Life
20 - Always Me
21 - Rub It In
22 - I'm Sorry Baby
23 - Sweet City Woman
24 - Love Comes But Once
25 - Sha-Na-Na-Na

EAC LOG cd1
Exact Audio Copy V0.99 prebeta 1 from 25. May 2007

EAC extraction logfile from 12. February 2009, 20:17

The Dave Clark Five / The Complete History (Vol. 1): Glad All Over/Return!/American Tour

Used drive : IDE-DVD DROM6216 Adapter: 4 ID: 1

Read mode : Secure
Utilize accurate stream : Yes
Defeat audio cache : Yes
Make use of C2 pointers : No

Read offset correction : 738
Overread into Lead-In and Lead-Out : No
Fill up missing offset samples with silence : Yes
Delete leading and trailing silent blocks : No
Used interface : Native Win32 interface for Win NT & 2000
Gap handling : Appended to previous track

Used output format : User Defined Encoder
Selected bitrate : 128 kBit/s
Quality : High
Add ID3 tag : No
Command line compressor : C:\Program Files\Exact Audio Copy\FLAC\FLAC.EXE
Additional command line options : -6 -V -T "ARTIST=%a" -T "TITLE=%t" -T "ALBUM=%g" -T "DATE=%y" -T "TRACKNUMBER=%n" -T "GENRE=%m" -T "COMMENT=%e" %s -o %d


TOC of the extracted CD

Track | Start | Length | Start sector | End sector
---------------------------------------------------------
1 | 0:00.00 | 2:44.65 | 0 | 12364
2 | 2:44.65 | 2:17.20 | 12365 | 22659
3 | 5:02.10 | 2:09.42 | 22660 | 32376
4 | 7:11.52 | 2:13.35 | 32377 | 42386
5 | 9:25.12 | 2:22.45 | 42387 | 53081
6 | 11:47.57 | 1:58.55 | 53082 | 61986
7 | 13:46.37 | 2:01.18 | 61987 | 71079
8 | 15:47.55 | 2:02.47 | 71080 | 80276
9 | 17:50.27 | 2:22.65 | 80277 | 90991
10 | 20:13.17 | 2:19.60 | 90992 | 101476
11 | 22:33.02 | 2:13.13 | 101477 | 111464
12 | 24:46.15 | 2:23.62 | 111465 | 122251
13 | 27:10.02 | 2:34.70 | 122252 | 133871
14 | 29:44.72 | 2:20.15 | 133872 | 144386
15 | 32:05.12 | 2:38.10 | 144387 | 156246
16 | 34:43.22 | 1:53.13 | 156247 | 164734
17 | 36:36.35 | 2:32.37 | 164735 | 176171
18 | 39:08.72 | 2:07.00 | 176172 | 185696
19 | 41:15.72 | 2:13.15 | 185697 | 195686
20 | 43:29.12 | 2:03.33 | 195687 | 204944
21 | 45:32.45 | 2:39.50 | 204945 | 216919
22 | 48:12.20 | 2:25.40 | 216920 | 227834
23 | 50:37.60 | 1:58.57 | 227835 | 236741
24 | 52:36.42 | 2:12.73 | 236742 | 246714
25 | 54:49.40 | 2:58.45 | 246715 | 260109
26 | 57:48.10 | 1:37.27 | 260110 | 267411
27 | 59:25.37 | 2:14.58 | 267412 | 277519
28 | 61:40.20 | 2:13.25 | 277520 | 287519
29 | 63:53.45 | 3:00.12 | 287520 | 301031
30 | 66:53.57 | 2:53.60 | 301032 | 314066
31 | 69:47.42 | 2:14.43 | 314067 | 324159
32 | 72:02.10 | 2:29.70 | 324160 | 335404
33 | 74:32.05 | 2:00.17 | 335405 | 344421


Track 1

Filename C:\My Music\DC5-1\01- The Dave Clark Five - Glad All Over.wav

Pre-gap length 0:00:02.00

Peak level 99.9 %
Track quality 100.0 %
Test CRC 73F623BF
Copy CRC 73F623BF
Track not present in AccurateRip database
Copy OK

Track 2

Filename C:\My Music\DC5-1\02- The Dave Clark Five - All Of The Time.wav

Pre-gap length 0:00:02.42

Peak level 99.9 %
Track quality 100.0 %
Test CRC E3ED69B6
Copy CRC E3ED69B6
Track not present in AccurateRip database
Copy OK

Track 3

Filename C:\My Music\DC5-1\03- The Dave Clark Five - Stay.wav

Pre-gap length 0:00:02.45

Peak level 99.9 %
Track quality 100.0 %
Test CRC 4EEE700D
Copy CRC 4EEE700D
Track not present in AccurateRip database
Copy OK

Track 4

Filename C:\My Music\DC5-1\04- The Dave Clark Five - Chaquita (2nd Version).wav

Pre-gap length 0:00:02.40

Peak level 99.6 %
Track quality 99.9 %
Test CRC 7FCA8521
Copy CRC 7FCA8521
Track not present in AccurateRip database
Copy OK

Track 5

Filename C:\My Music\DC5-1\05- The Dave Clark Five - Do You Love Me.wav

Pre-gap length 0:00:02.48

Peak level 90.6 %
Track quality 100.0 %
Test CRC AF24D489
Copy CRC AF24D489
Track not present in AccurateRip database
Copy OK

Track 6

Filename C:\My Music\DC5-1\06- The Dave Clark Five - Bits And Pieces.wav

Pre-gap length 0:00:02.44

Peak level 93.8 %
Track quality 100.0 %
Test CRC 7D93CF2E
Copy CRC 7D93CF2E
Track not present in AccurateRip database
Copy OK

Track 7

Filename C:\My Music\DC5-1\07- The Dave Clark Five - I Know You.wav

Pre-gap length 0:00:02.37

Peak level 99.9 %
Track quality 100.0 %
Test CRC 182C88BD
Copy CRC 182C88BD
Track not present in AccurateRip database
Copy OK

Track 8

Filename C:\My Music\DC5-1\08- The Dave Clark Five - No Time To Lose.wav

Pre-gap length 0:00:02.46

Peak level 99.5 %
Track quality 100.0 %
Test CRC 00746C1A
Copy CRC 00746C1A
Track not present in AccurateRip database
Copy OK

Track 9

Filename C:\My Music\DC5-1\09- The Dave Clark Five - Doo Dah.wav

Pre-gap length 0:00:02.45

Peak level 93.3 %
Track quality 100.0 %
Test CRC 38F891EA
Copy CRC 38F891EA
Track not present in AccurateRip database
Copy OK

Track 10

Filename C:\My Music\DC5-1\10- The Dave Clark Five - Time.wav

Pre-gap length 0:00:02.37

Peak level 92.2 %
Track quality 99.9 %
Test CRC 5B106063
Copy CRC 5B106063
Track not present in AccurateRip database
Copy OK

Track 11

Filename C:\My Music\DC5-1\11- The Dave Clark Five - She's All Mine.wav

Pre-gap length 0:00:02.41

Peak level 94.3 %
Track quality 100.0 %
Test CRC 0F4D18A2
Copy CRC 0F4D18A2
Track not present in AccurateRip database
Copy OK

Track 12

Filename C:\My Music\DC5-1\12- The Dave Clark Five - Can't You See That She's Mine.wav

Pre-gap length 0:00:02.52

Peak level 98.4 %
Track quality 100.0 %
Test CRC DDA74056
Copy CRC DDA74056
Track not present in AccurateRip database
Copy OK

Track 13

Filename C:\My Music\DC5-1\13- The Dave Clark Five - I Need You, I Love You.wav

Pre-gap length 0:00:02.48

Peak level 95.5 %
Track quality 100.0 %
Test CRC 186FCAB8
Copy CRC 186FCAB8
Track not present in AccurateRip database
Copy OK

Track 14

Filename C:\My Music\DC5-1\14- The Dave Clark Five - I Love You No More.wav

Pre-gap length 0:00:02.52

Peak level 90.8 %
Track quality 100.0 %
Test CRC 80C6CB71
Copy CRC 80C6CB71
Track not present in AccurateRip database
Copy OK

Track 15

Filename C:\My Music\DC5-1\15- The Dave Clark Five - Rumble.wav

Pre-gap length 0:00:02.37

Peak level 93.6 %
Track quality 100.0 %
Test CRC 20FE7DFF
Copy CRC 20FE7DFF
Track not present in AccurateRip database
Copy OK

Track 16

Filename C:\My Music\DC5-1\16- The Dave Clark Five - Funny.wav

Pre-gap length 0:00:02.49

Peak level 92.6 %
Track quality 100.0 %
Test CRC 2FE33ECC
Copy CRC 2FE33ECC
Track not present in AccurateRip database
Copy OK

Track 17

Filename C:\My Music\DC5-1\17- The Dave Clark Five - Zip-A-Dee-Doo-Dah.wav

Pre-gap length 0:00:02.32

Peak level 94.6 %
Track quality 100.0 %
Test CRC DF6DB0AD
Copy CRC DF6DB0AD
Track not present in AccurateRip database
Copy OK

Track 18

Filename C:\My Music\DC5-1\18- The Dave Clark Five - Can I Trust You.wav

Pre-gap length 0:00:02.40

Peak level 90.5 %
Track quality 100.0 %
Test CRC E0DF1793
Copy CRC E0DF1793
Track not present in AccurateRip database
Copy OK

Track 19

Filename C:\My Music\DC5-1\19- The Dave Clark Five - Forever And A Day.wav

Pre-gap length 0:00:02.40

Peak level 99.9 %
Track quality 100.0 %
Test CRC 2E53DA9C
Copy CRC 2E53DA9C
Track not present in AccurateRip database
Copy OK

Track 20

Filename C:\My Music\DC5-1\20- The Dave Clark Five - Theme Without A Name.wav

Pre-gap length 0:00:02.42

Peak level 89.4 %
Track quality 100.0 %
Test CRC 58FBC8C5
Copy CRC 58FBC8C5
Track not present in AccurateRip database
Copy OK

Track 21

Filename C:\My Music\DC5-1\21- The Dave Clark Five - On Broadway.wav

Pre-gap length 0:00:02.24

Peak level 89.5 %
Track quality 100.0 %
Test CRC 677293C5
Copy CRC 677293C5
Track not present in AccurateRip database
Copy OK

Track 22

Filename C:\My Music\DC5-1\22- The Dave Clark Five - Because.wav

Pre-gap length 0:00:02.36

Peak level 95.4 %
Track quality 100.0 %
Test CRC ADC1FA23
Copy CRC ADC1FA23
Track not present in AccurateRip database
Copy OK

Track 23

Filename C:\My Music\DC5-1\23- The Dave Clark Five - Who Does He Think He Is (Live).wav

Pre-gap length 0:00:02.38

Peak level 91.2 %
Track quality 100.0 %
Test CRC 4DE8EAB6
Copy CRC 4DE8EAB6
Track not present in AccurateRip database
Copy OK

Track 24

Filename C:\My Music\DC5-1\24- The Dave Clark Five - Move On (Live).wav

Pre-gap length 0:00:02.13

Peak level 90.6 %
Track quality 100.0 %
Test CRC C9997A97
Copy CRC C9997A97
Track not present in AccurateRip database
Copy OK

Track 25

Filename C:\My Music\DC5-1\25- The Dave Clark Five - Whenever You're Around (Live).wav

Pre-gap length 0:00:02.22

Peak level 99.9 %
Track quality 100.0 %
Test CRC 5E4D20A4
Copy CRC 5E4D20A4
Track not present in AccurateRip database
Copy OK

Track 26

Filename C:\My Music\DC5-1\26- The Dave Clark Five - I Want You Still (Live).wav

Pre-gap length 0:00:02.16

Peak level 91.8 %
Track quality 100.0 %
Test CRC 055572E6
Copy CRC 055572E6
Track not present in AccurateRip database
Copy OK

Track 27

Filename C:\My Music\DC5-1\27- The Dave Clark Five - Long Ago (Live).wav

Pre-gap length 0:00:02.34

Peak level 99.9 %
Track quality 100.0 %
Test CRC A90FF9AD
Copy CRC A90FF9AD
Track not present in AccurateRip database
Copy OK

Track 28

Filename C:\My Music\DC5-1\28- The Dave Clark Five - Come On Over (Live).wav

Pre-gap length 0:00:02.36

Peak level 93.3 %
Track quality 100.0 %
Test CRC BADD7A42
Copy CRC BADD7A42
Track not present in AccurateRip database
Copy OK

Track 29

Filename C:\My Music\DC5-1\29- The Dave Clark Five - Blue Monday (Live).wav

Pre-gap length 0:00:02.38

Peak level 93.3 %
Track quality 100.0 %
Test CRC 763DE8C6
Copy CRC 763DE8C6
Track not present in AccurateRip database
Copy OK

Track 30

Filename C:\My Music\DC5-1\30- The Dave Clark Five - Sometimes (Live).wav

Pre-gap length 0:00:02.25

Peak level 92.2 %
Track quality 100.0 %
Test CRC B8440EC7
Copy CRC B8440EC7
Track not present in AccurateRip database
Copy OK

Track 31

Filename C:\My Music\DC5-1\31- The Dave Clark Five - Any Time You Want Love (Live).wav

Pre-gap length 0:00:02.21

Peak level 90.2 %
Track quality 100.0 %
Test CRC 42601894
Copy CRC 42601894
Track not present in AccurateRip database
Copy OK

Track 32

Filename C:\My Music\DC5-1\32- The Dave Clark Five - I Cried Over You (Live).wav

Pre-gap length 0:00:02.22

Peak level 90.2 %
Track quality 100.0 %
Test CRC 0F4A1969
Copy CRC 0F4A1969
Track not present in AccurateRip database
Copy OK

Track 33

Filename C:\My Music\DC5-1\33- The Dave Clark Five - Ol' Sol (Live).wav

Pre-gap length 0:00:02.28

Peak level 89.5 %
Track quality 99.9 %
Test CRC 9E189D76
Copy CRC 9E189D76
Track not present in AccurateRip database
Copy OK

No errors occurred

End of status report

EAC LOG cd2
Exact Audio Copy V0.99 prebeta 1 from 25. May 2007

EAC extraction logfile from 13. February 2009, 18:40

The Dave Clark Five / The Complete History - Vol. 2: Coast To Coast/Weekend In London/Having A Wild Weekend

Used drive : IDE-DVD DROM6216 Adapter: 4 ID: 1

Read mode : Secure
Utilize accurate stream : Yes
Defeat audio cache : Yes
Make use of C2 pointers : No

Read offset correction : 738
Overread into Lead-In and Lead-Out : No
Fill up missing offset samples with silence : Yes
Delete leading and trailing silent blocks : No
Used interface : Native Win32 interface for Win NT & 2000
Gap handling : Appended to previous track

Used output format : User Defined Encoder
Selected bitrate : 128 kBit/s
Quality : High
Add ID3 tag : No
Command line compressor : C:\Program Files\Exact Audio Copy\FLAC\FLAC.EXE
Additional command line options : -6 -V -T "ARTIST=%a" -T "TITLE=%t" -T "ALBUM=%g" -T "DATE=%y" -T "TRACKNUMBER=%n" -T "GENRE=%m" -T "COMMENT=%e" %s -o %d


TOC of the extracted CD

Track | Start | Length | Start sector | End sector
---------------------------------------------------------
1 | 0:00.00 | 2:31.37 | 0 | 11361
2 | 2:31.37 | 1:59.08 | 11362 | 20294
3 | 4:30.45 | 1:34.22 | 20295 | 27366
4 | 6:04.67 | 1:49.10 | 27367 | 35551
5 | 7:54.02 | 1:42.58 | 35552 | 43259
6 | 9:36.60 | 2:08.20 | 43260 | 52879
7 | 11:45.05 | 1:46.62 | 52880 | 60891
8 | 13:31.67 | 2:30.30 | 60892 | 72171
9 | 16:02.22 | 1:37.70 | 72172 | 79516
10 | 17:40.17 | 1:44.60 | 79517 | 87376
11 | 19:25.02 | 2:03.33 | 87377 | 96634
12 | 21:28.35 | 2:51.10 | 96635 | 109469
13 | 24:19.45 | 1:34.45 | 109470 | 116564
14 | 25:54.15 | 1:46.67 | 116565 | 124581
15 | 27:41.07 | 2:41.25 | 124582 | 136681
16 | 30:22.32 | 1:47.20 | 136682 | 144726
17 | 32:09.52 | 2:15.33 | 144727 | 154884
18 | 34:25.10 | 1:32.15 | 154885 | 161799
19 | 35:57.25 | 3:12.52 | 161800 | 176251
20 | 39:10.02 | 1:31.55 | 176252 | 183131
21 | 40:41.57 | 2:23.20 | 183132 | 193876
22 | 43:05.02 | 2:41.15 | 193877 | 205966
23 | 45:46.17 | 1:51.55 | 205967 | 214346
24 | 47:37.72 | 2:26.45 | 214347 | 225341
25 | 50:04.42 | 1:50.55 | 225342 | 233646
26 | 51:55.22 | 3:02.35 | 233647 | 247331
27 | 54:57.57 | 2:05.18 | 247332 | 256724
28 | 57:03.00 | 2:24.72 | 256725 | 267596
29 | 59:27.72 | 1:56.40 | 267597 | 276336
30 | 61:24.37 | 2:34.60 | 276337 | 287946
31 | 63:59.22 | 2:52.33 | 287947 | 300879
32 | 66:51.55 | 2:43.20 | 300880 | 313124
33 | 69:35.00 | 3:37.12 | 313125 | 329411
34 | 73:12.12 | 2:22.35 | 329412 | 340096


Track 1

Filename C:\My Music\DC5-2\01- The Dave Clark Five - Any Way You Want It.wav

Pre-gap length 0:00:02.00

Peak level 99.9 %
Track quality 100.0 %
Test CRC B43E2CD1
Copy CRC B43E2CD1
Track not present in AccurateRip database
Copy OK

Track 2

Filename C:\My Music\DC5-2\02- The Dave Clark Five - Give Me Love.wav

Pre-gap length 0:00:02.36

Peak level 99.9 %
Track quality 100.0 %
Test CRC 1216467A
Copy CRC 1216467A
Track not present in AccurateRip database
Copy OK

Track 3

Filename C:\My Music\DC5-2\03- The Dave Clark Five - I Can't Stand It.wav

Pre-gap length 0:00:02.38

Peak level 99.9 %
Track quality 99.8 %
Test CRC AC8D3ABB
Copy CRC AC8D3ABB
Track not present in AccurateRip database
Copy OK

Track 4

Filename C:\My Music\DC5-2\04- The Dave Clark Five - I'm Left Without You.wav

Pre-gap length 0:00:02.41

Peak level 99.9 %
Track quality 100.0 %
Test CRC 5629F4A8
Copy CRC 5629F4A8
Track not present in AccurateRip database
Copy OK

Track 5

Filename C:\My Music\DC5-2\05- The Dave Clark Five - Everybody Knows (I Still Love You).wav

Pre-gap length 0:00:02.45

Peak level 99.9 %
Track quality 100.0 %
Test CRC 6E4BF7CC
Copy CRC 6E4BF7CC
Track not present in AccurateRip database
Copy OK

Track 6

Filename C:\My Music\DC5-2\06- The Dave Clark Five - Crying Over You.wav

Pre-gap length 0:00:02.41

Peak level 99.9 %
Track quality 100.0 %
Test CRC 2BADCAE2
Copy CRC 2BADCAE2
Track not present in AccurateRip database
Copy OK

Track 7

Filename C:\My Music\DC5-2\07- The Dave Clark Five - Say You Want Me.wav

Pre-gap length 0:00:02.40

Peak level 99.9 %
Track quality 100.0 %
Test CRC 96BC1E57
Copy CRC 96BC1E57
Track not present in AccurateRip database
Copy OK

Track 8

Filename C:\My Music\DC5-2\08- The Dave Clark Five - When.wav

Pre-gap length 0:00:02.37

Peak level 99.9 %
Track quality 99.9 %
Test CRC 2687D672
Copy CRC 2687D672
Track not present in AccurateRip database
Copy OK

Track 9

Filename C:\My Music\DC5-2\09- The Dave Clark Five - Don't You Know.wav

Pre-gap length 0:00:02.32

Peak level 99.9 %
Track quality 100.0 %
Test CRC 44BB1DA5
Copy CRC 44BB1DA5
Track not present in AccurateRip database
Copy OK

Track 10

Filename C:\My Music\DC5-2\10- The Dave Clark Five - To Me.wav

Pre-gap length 0:00:02.29

Peak level 99.9 %
Track quality 100.0 %
Test CRC F636542C
Copy CRC F636542C
Track not present in AccurateRip database
Copy OK

Track 11

Filename C:\My Music\DC5-2\11- The Dave Clark Five - It's Not True.wav

Pre-gap length 0:00:02.48

Peak level 99.9 %
Track quality 100.0 %
Test CRC A207C385
Copy CRC A207C385
Track not present in AccurateRip database
Copy OK

Track 12

Filename C:\My Music\DC5-2\12- The Dave Clark Five - Come Home.wav

Pre-gap length 0:00:02.33

Peak level 99.9 %
Track quality 100.0 %
Test CRC EAE28B44
Copy CRC EAE28B44
Track not present in AccurateRip database
Copy OK

Track 13

Filename C:\My Music\DC5-2\13- The Dave Clark Five - We'll Be Running.wav

Pre-gap length 0:00:02.30

Peak level 99.9 %
Track quality 100.0 %
Test CRC C22F8627
Copy CRC C22F8627
Track not present in AccurateRip database
Copy OK

Track 14

Filename C:\My Music\DC5-2\14- The Dave Clark Five - Blue Suede Shoes.wav

Pre-gap length 0:00:02.29

Peak level 99.9 %
Track quality 99.9 %
Test CRC 0DE8E12D
Copy CRC 0DE8E12D
Track not present in AccurateRip database
Copy OK

Track 15

Filename C:\My Music\DC5-2\15- The Dave Clark Five - Hurting Inside.wav

Pre-gap length 0:00:02.36

Peak level 99.9 %
Track quality 100.0 %
Test CRC 3AEFFF5E
Copy CRC 3AEFFF5E
Track not present in AccurateRip database
Copy OK

Track 16

Filename C:\My Music\DC5-2\16- The Dave Clark Five - I'll Never Know.wav

Pre-gap length 0:00:02.33

Peak level 99.9 %
Track quality 99.9 %
Test CRC 8B66EBC5
Copy CRC 8B66EBC5
Track not present in AccurateRip database
Copy OK

Track 17

Filename C:\My Music\DC5-2\17- The Dave Clark Five - 'Til The Right One Comes Along.wav

Pre-gap length 0:00:02.37

Peak level 99.9 %
Track quality 100.0 %
Test CRC 159BDFF3
Copy CRC 159BDFF3
Track not present in AccurateRip database
Copy OK

Track 18

Filename C:\My Music\DC5-2\18- The Dave Clark Five - I'm Thinking.wav

Pre-gap length 0:00:02.32

Peak level 99.9 %
Track quality 100.0 %
Test CRC 0FEA8671
Copy CRC 0FEA8671
Track not present in AccurateRip database
Copy OK

Track 19

Filename C:\My Music\DC5-2\19- The Dave Clark Five - Your Turn To Cry.wav

Pre-gap length 0:00:02.21

Peak level 99.9 %
Track quality 100.0 %
Test CRC 5AFB58FE
Copy CRC 5AFB58FE
Track not present in AccurateRip database
Copy OK

Track 20

Filename C:\My Music\DC5-2\20- The Dave Clark Five - Little Bitty Pretty One.wav

Pre-gap length 0:00:02.26

Peak level 99.9 %
Track quality 100.0 %
Test CRC 309EAA6E
Copy CRC 309EAA6E
Track not present in AccurateRip database
Copy OK

Track 21

Filename C:\My Music\DC5-2\21- The Dave Clark Five - Remember, It's Me.wav

Pre-gap length 0:00:02.21

Peak level 99.9 %
Track quality 100.0 %
Test CRC E98691E0
Copy CRC E98691E0
Track not present in AccurateRip database
Copy OK

Track 22

Filename C:\My Music\DC5-2\22- The Dave Clark Five - Mighty Good Loving.wav

Pre-gap length 0:00:02.29

Peak level 99.9 %
Track quality 100.0 %
Test CRC 94EC86A8
Copy CRC 94EC86A8
Track not present in AccurateRip database
Copy OK

Track 23

Filename C:\My Music\DC5-2\23- The Dave Clark Five - Having A Wild Weekend.wav

Pre-gap length 0:00:02.25

Peak level 99.9 %
Track quality 100.0 %
Test CRC 36225159
Copy CRC 36225159
Track not present in AccurateRip database
Copy OK

Track 24

Filename C:\My Music\DC5-2\24- The Dave Clark Five - New Kind Of Love.wav

Pre-gap length 0:00:02.21

Peak level 99.9 %
Track quality 100.0 %
Test CRC F4818CAB
Copy CRC F4818CAB
Track not present in AccurateRip database
Copy OK

Track 25

Filename C:\My Music\DC5-2\25- The Dave Clark Five - Dum-Dee-Dee-Dum.wav

Pre-gap length 0:00:02.16

Peak level 99.9 %
Track quality 100.0 %
Test CRC 8B4F066B
Copy CRC 8B4F066B
Track not present in AccurateRip database
Copy OK

Track 26

Filename C:\My Music\DC5-2\26- The Dave Clark Five - I Said I Was Sorry.wav

Pre-gap length 0:00:02.28

Peak level 99.9 %
Track quality 100.0 %
Test CRC CD858756
Copy CRC CD858756
Track not present in AccurateRip database
Copy OK

Track 27

Filename C:\My Music\DC5-2\27- The Dave Clark Five - No Stopping.wav

Pre-gap length 0:00:02.14

Peak level 99.9 %
Track quality 100.0 %
Test CRC 88BB6162
Copy CRC 88BB6162
Track not present in AccurateRip database
Copy OK

Track 28

Filename C:\My Music\DC5-2\28- The Dave Clark Five - Don't Be Taken In.wav

Pre-gap length 0:00:02.20

Peak level 99.9 %
Track quality 100.0 %
Test CRC 307BD218
Copy CRC 307BD218
Track not present in AccurateRip database
Copy OK

Track 29

Filename C:\My Music\DC5-2\29- The Dave Clark Five - Catch Us If You Can.wav

Pre-gap length 0:00:02.22

Peak level 99.9 %
Track quality 99.9 %
Test CRC 772E5DA6
Copy CRC 772E5DA6
Track not present in AccurateRip database
Copy OK

Track 30

Filename C:\My Music\DC5-2\30- The Dave Clark Five - When I'm Alone.wav

Pre-gap length 0:00:02.20

Peak level 99.9 %
Track quality 100.0 %
Test CRC F1E7F9F3
Copy CRC F1E7F9F3
Track not present in AccurateRip database
Copy OK

Track 31

Filename C:\My Music\DC5-2\31- The Dave Clark Five - If You Come Back.wav

Pre-gap length 0:00:02.25

Peak level 99.9 %
Track quality 100.0 %
Test CRC AE5062B1
Copy CRC AE5062B1
Track not present in AccurateRip database
Copy OK

Track 32

Filename C:\My Music\DC5-2\32- The Dave Clark Five - Sweet Memories.wav

Pre-gap length 0:00:02.25

Peak level 99.9 %
Track quality 100.0 %
Test CRC 5E45279B
Copy CRC 5E45279B
Track not present in AccurateRip database
Copy OK

Track 33

Filename C:\My Music\DC5-2\33- The Dave Clark Five - Don't You Realize.wav

Pre-gap length 0:00:02.08

Peak level 99.9 %
Track quality 99.9 %
Test CRC 281D0746
Copy CRC 281D0746
Track not present in AccurateRip database
Copy OK

Track 34

Filename C:\My Music\DC5-2\34- The Dave Clark Five - On The Move.wav

Pre-gap length 0:00:02.17

Peak level 99.9 %
Track quality 99.9 %
Test CRC 9A7EEFF6
Copy CRC 9A7EEFF6
Track not present in AccurateRip database
Copy OK

No errors occurred

End of status report

EAC LOG cd3
Exact Audio Copy V0.99 prebeta 1 from 25. May 2007

EAC extraction logfile from 14. February 2009, 9:47

Dave Clark 5 / Complete History, Volume 3

Used drive : IDE-DVD DROM6216 Adapter: 4 ID: 1

Read mode : Secure
Utilize accurate stream : Yes
Defeat audio cache : Yes
Make use of C2 pointers : No

Read offset correction : 738
Overread into Lead-In and Lead-Out : No
Fill up missing offset samples with silence : Yes
Delete leading and trailing silent blocks : No
Used interface : Native Win32 interface for Win NT & 2000
Gap handling : Appended to previous track

Used output format : User Defined Encoder
Selected bitrate : 128 kBit/s
Quality : High
Add ID3 tag : No
Command line compressor : C:\Program Files\Exact Audio Copy\FLAC\FLAC.EXE
Additional command line options : -6 -V -T "ARTIST=%a" -T "TITLE=%t" -T "ALBUM=%g" -T "DATE=%y" -T "TRACKNUMBER=%n" -T "GENRE=%m" -T "COMMENT=%e" %s -o %d


TOC of the extracted CD

Track | Start | Length | Start sector | End sector
---------------------------------------------------------
1 | 0:00.00 | 1:40.55 | 0 | 7554
2 | 1:40.55 | 1:48.10 | 7555 | 15664
3 | 3:28.65 | 3:39.70 | 15665 | 32159
4 | 7:08.60 | 2:19.37 | 32160 | 42621
5 | 9:28.22 | 2:49.45 | 42622 | 55341
6 | 12:17.67 | 2:41.60 | 55342 | 67476
7 | 14:59.52 | 2:43.23 | 67477 | 79724
8 | 17:43.00 | 2:05.72 | 79725 | 89171
9 | 19:48.72 | 3:04.03 | 89172 | 102974
10 | 22:53.00 | 2:33.45 | 102975 | 114494
11 | 25:26.45 | 2:02.02 | 114495 | 123646
12 | 27:28.47 | 2:02.28 | 123647 | 132824
13 | 29:31.00 | 2:12.40 | 132825 | 142764
14 | 31:43.40 | 2:10.42 | 142765 | 152556
15 | 33:54.07 | 1:56.20 | 152557 | 161276
16 | 35:50.27 | 2:05.10 | 161277 | 170661
17 | 37:55.37 | 1:35.33 | 170662 | 177819
18 | 39:30.70 | 2:08.60 | 177820 | 187479
19 | 41:39.55 | 1:55.32 | 187480 | 196136
20 | 43:35.12 | 1:43.53 | 196137 | 203914
21 | 45:18.65 | 1:57.72 | 203915 | 212761
22 | 47:16.62 | 2:38.13 | 212762 | 224624
23 | 49:55.00 | 1:59.32 | 224625 | 233581
24 | 51:54.32 | 2:29.20 | 233582 | 244776
25 | 54:23.52 | 2:05.45 | 244777 | 254196
26 | 56:29.22 | 2:01.53 | 254197 | 263324
27 | 58:31.00 | 2:19.55 | 263325 | 273804
28 | 60:50.55 | 1:35.25 | 273805 | 280954
29 | 62:26.05 | 2:18.37 | 280955 | 291341
30 | 64:44.42 | 2:21.35 | 291342 | 301951
31 | 67:06.02 | 1:46.45 | 301952 | 309946
32 | 68:52.47 | 2:28.58 | 309947 | 321104


Track 1

Filename C:\My Music\DC5-3\01- I Like It Like That.wav

Pre-gap length 0:00:02.00

Peak level 99.9 %
Track quality 100.0 %
Test CRC 944A2B16
Copy CRC 944A2B16
Track not present in AccurateRip database
Copy OK

Track 2

Filename C:\My Music\DC5-3\02- Pumping.wav

Pre-gap length 0:00:02.41

Peak level 99.9 %
Track quality 100.0 %
Test CRC DDEBD32D
Copy CRC DDEBD32D
Track not present in AccurateRip database
Copy OK

Track 3

Filename C:\My Music\DC5-3\03- I Need Love.wav

Pre-gap length 0:00:02.38

Peak level 99.9 %
Track quality 100.0 %
Test CRC 36754E89
Copy CRC 36754E89
Track not present in AccurateRip database
Copy OK

Track 4

Filename C:\My Music\DC5-3\04- Maybe It's You.wav

Pre-gap length 0:00:02.49

Peak level 99.9 %
Track quality 100.0 %
Test CRC CA58501A
Copy CRC CA58501A
Track not present in AccurateRip database
Copy OK

Track 5

Filename C:\My Music\DC5-3\05- That's How Long Our Love Will Last.wav

Pre-gap length 0:00:02.37

Peak level 99.9 %
Track quality 100.0 %
Test CRC 75716F70
Copy CRC 75716F70
Track not present in AccurateRip database
Copy OK

Track 6

Filename C:\My Music\DC5-3\06- A Little Bit Of Love.wav

Pre-gap length 0:00:02.50

Peak level 99.9 %
Track quality 100.0 %
Test CRC 201CA03C
Copy CRC 201CA03C
Track not present in AccurateRip database
Copy OK

Track 7

Filename C:\My Music\DC5-3\07- I'll Be Yours My Love.wav

Pre-gap length 0:00:02.46

Peak level 99.9 %
Track quality 100.0 %
Test CRC 91F28B81
Copy CRC 91F28B81
Track not present in AccurateRip database
Copy OK

Track 8

Filename C:\My Music\DC5-3\08- Please Love Me.wav

Pre-gap length 0:00:02.52

Peak level 99.9 %
Track quality 100.0 %
Test CRC 04F89637
Copy CRC 04F89637
Track not present in AccurateRip database
Copy OK

Track 9

Filename C:\My Music\DC5-3\09- Goodbye My Friends.wav

Pre-gap length 0:00:02.36

Peak level 99.9 %
Track quality 100.0 %
Test CRC DE6E21C8
Copy CRC DE6E21C8
Track not present in AccurateRip database
Copy OK

Track 10

Filename C:\My Music\DC5-3\10- I Am On My Own.wav

Pre-gap length 0:00:02.37

Peak level 99.9 %
Track quality 100.0 %
Test CRC 2B11F72C
Copy CRC 2B11F72C
Track not present in AccurateRip database
Copy OK

Track 11

Filename C:\My Music\DC5-3\11- She's A Loving Girl.wav

Pre-gap length 0:00:02.52

Peak level 99.9 %
Track quality 100.0 %
Test CRC 1C318098
Copy CRC 1C318098
Track not present in AccurateRip database
Copy OK

Track 12

Filename C:\My Music\DC5-3\12- You Know You're Lying.wav

Pre-gap length 0:00:02.30

Peak level 99.9 %
Track quality 100.0 %
Test CRC 3CFA7A17
Copy CRC 3CFA7A17
Track not present in AccurateRip database
Copy OK

Track 13

Filename C:\My Music\DC5-3\13- Try Too Hard.wav

Pre-gap length 0:00:02.30

Peak level 99.9 %
Track quality 100.0 %
Test CRC 0EBD8248
Copy CRC 0EBD8248
Track not present in AccurateRip database
Copy OK

Track 14

Filename C:\My Music\DC5-3\14- Today.wav

Pre-gap length 0:00:02.48

Peak level 99.9 %
Track quality 100.0 %
Test CRC 7956C7D5
Copy CRC 7956C7D5
Track not present in AccurateRip database
Copy OK

Track 15

Filename C:\My Music\DC5-3\15- I Never Will.wav

Pre-gap length 0:00:02.37

Peak level 99.9 %
Track quality 100.0 %
Test CRC 2CD16811
Copy CRC 2CD16811
Track not present in AccurateRip database
Copy OK

Track 16

Filename C:\My Music\DC5-3\16- Looking In.wav

Pre-gap length 0:00:02.25

Peak level 99.9 %
Track quality 100.0 %
Test CRC A0B5DA5B
Copy CRC A0B5DA5B
Track not present in AccurateRip database
Copy OK

Track 17

Filename C:\My Music\DC5-3\17- Ever Since You've Been Away.wav

Pre-gap length 0:00:02.40

Peak level 99.9 %
Track quality 100.0 %
Test CRC F4671B19
Copy CRC F4671B19
Track not present in AccurateRip database
Copy OK

Track 18

Filename C:\My Music\DC5-3\18- Somebody Find A New Love.wav

Pre-gap length 0:00:02.29

Peak level 99.9 %
Track quality 100.0 %
Test CRC 6A7B5601
Copy CRC 6A7B5601
Track not present in AccurateRip database
Copy OK

Track 19

Filename C:\My Music\DC5-3\19- I Really Love You.wav

Pre-gap length 0:00:02.30

Peak level 99.9 %
Track quality 100.0 %
Test CRC 86506FF4
Copy CRC 86506FF4
Track not present in AccurateRip database
Copy OK

Track 20

Filename C:\My Music\DC5-3\20- It Don't Feel Good.wav

Pre-gap length 0:00:02.20

Peak level 99.9 %
Track quality 100.0 %
Test CRC 0EE9F270
Copy CRC 0EE9F270
Track not present in AccurateRip database
Copy OK

Track 21

Filename C:\My Music\DC5-3\21- Scared Of Falling In Love.wav

Pre-gap length 0:00:02.33

Peak level 99.9 %
Track quality 100.0 %
Test CRC 2F285DE3
Copy CRC 2F285DE3
Track not present in AccurateRip database
Copy OK

Track 22

Filename C:\My Music\DC5-3\22- I Know.wav

Pre-gap length 0:00:02.30

Peak level 99.9 %
Track quality 100.0 %
Test CRC 7DF5A2FC
Copy CRC 7DF5A2FC
Track not present in AccurateRip database
Copy OK

Track 23

Filename C:\My Music\DC5-3\23- Satisfied With You.wav

Pre-gap length 0:00:02.37

Peak level 99.9 %
Track quality 100.0 %
Test CRC F900A7A2
Copy CRC F900A7A2
Track not present in AccurateRip database
Copy OK

Track 24

Filename C:\My Music\DC5-3\24- Go On.wav

Pre-gap length 0:00:02.16

Peak level 99.9 %
Track quality 100.0 %
Test CRC 5EDF767B
Copy CRC 5EDF767B
Track not present in AccurateRip database
Copy OK

Track 25

Filename C:\My Music\DC5-3\25- Do You Still Love Me.wav

Pre-gap length 0:00:02.24

Peak level 99.9 %
Track quality 100.0 %
Test CRC F5528123
Copy CRC F5528123
Track not present in AccurateRip database
Copy OK

Track 26

Filename C:\My Music\DC5-3\26- I Meant You.wav

Pre-gap length 0:00:02.30

Peak level 99.9 %
Track quality 100.0 %
Test CRC 34F8469C
Copy CRC 34F8469C
Track not present in AccurateRip database
Copy OK

Track 27

Filename C:\My Music\DC5-3\27- Look Before You Leap.wav

Pre-gap length 0:00:02.16

Peak level 99.9 %
Track quality 100.0 %
Test CRC CFBB1E86
Copy CRC CFBB1E86
Track not present in AccurateRip database
Copy OK

Track 28

Filename C:\My Music\DC5-3\28- Please Tell Me Why.wav

Pre-gap length 0:00:02.42

Peak level 99.9 %
Track quality 100.0 %
Test CRC 9982A160
Copy CRC 9982A160
Track not present in AccurateRip database
Copy OK

Track 29

Filename C:\My Music\DC5-3\29- You Never Listen.wav

Pre-gap length 0:00:02.22

Peak level 99.9 %
Track quality 99.9 %
Test CRC 55A02A0E
Copy CRC 55A02A0E
Track not present in AccurateRip database
Copy OK

Track 30

Filename C:\My Music\DC5-3\30- I Still Need You.wav

Pre-gap length 0:00:02.25

Peak level 99.9 %
Track quality 99.9 %
Test CRC 0E4549D7
Copy CRC 0E4549D7
Track not present in AccurateRip database
Copy OK

Track 31

Filename C:\My Music\DC5-3\31- It'll Only Hurt For A Little While.wav

Pre-gap length 0:00:02.32

Peak level 99.9 %
Track quality 99.9 %
Test CRC 43F330C0
Copy CRC 43F330C0
Track not present in AccurateRip database
Copy OK

Track 32

Filename C:\My Music\DC5-3\32- Good Lovin'.wav

Pre-gap length 0:00:02.28

Peak level 99.9 %
Track quality 99.9 %
Test CRC 534017E4
Copy CRC 534017E4
Track not present in AccurateRip database
Copy OK

No errors occurred

End of status report

EAC LOG cd4
Exact Audio Copy V0.99 prebeta 1 from 25. May 2007

EAC extraction logfile from 20. February 2009, 9:11

The Dave Clark Five / The Complete History - Vol. 4: "5 By 5"/"You Got What It Takes"/"Everybody Knows"

Used drive : IDE-DVD DROM6216 Adapter: 4 ID: 1

Read mode : Secure
Utilize accurate stream : Yes
Defeat audio cache : Yes
Make use of C2 pointers : No

Read offset correction : 738
Overread into Lead-In and Lead-Out : No
Fill up missing offset samples with silence : Yes
Delete leading and trailing silent blocks : No
Used interface : Native Win32 interface for Win NT & 2000
Gap handling : Appended to previous track

Used output format : User Defined Encoder
Selected bitrate : 128 kBit/s
Quality : High
Add ID3 tag : No
Command line compressor : C:\Program Files\Exact Audio Copy\FLAC\FLAC.EXE
Additional command line options : -6 -V -T "ARTIST=%a" -T "TITLE=%t" -T "ALBUM=%g" -T "DATE=%y" -T "TRACKNUMBER=%n" -T "GENRE=%m" -T "COMMENT=%e" %s -o %d


TOC of the extracted CD

Track | Start | Length | Start sector | End sector
---------------------------------------------------------
1 | 0:00.00 | 1:52.27 | 0 | 8426
2 | 1:52.27 | 2:05.68 | 8427 | 17869
3 | 3:58.20 | 1:25.55 | 17870 | 24299
4 | 5:24.00 | 2:18.62 | 24300 | 34711
5 | 7:42.62 | 2:58.65 | 34712 | 48126
6 | 10:41.52 | 2:50.58 | 48127 | 60934
7 | 13:32.35 | 2:12.35 | 60935 | 70869
8 | 15:44.70 | 1:56.57 | 70870 | 79626
9 | 17:41.52 | 2:22.73 | 79627 | 90349
10 | 20:04.50 | 2:07.12 | 90350 | 99886
11 | 22:11.62 | 3:00.53 | 99887 | 113439
12 | 25:12.40 | 1:55.07 | 113440 | 122071
13 | 27:07.47 | 2:21.45 | 122072 | 132691
14 | 29:29.17 | 2:35.38 | 132692 | 144354
15 | 32:04.55 | 1:47.07 | 144355 | 152386
16 | 33:51.62 | 2:49.60 | 152387 | 165121
17 | 36:41.47 | 1:42.03 | 165122 | 172774
18 | 38:23.50 | 1:46.05 | 172775 | 180729
19 | 40:09.55 | 2:19.15 | 180730 | 191169
20 | 42:28.70 | 2:27.50 | 191170 | 202244
21 | 44:56.45 | 2:17.47 | 202245 | 212566
22 | 47:14.17 | 2:47.10 | 212567 | 225101
23 | 50:01.27 | 2:26.20 | 225102 | 236071
24 | 52:27.47 | 2:51.18 | 236072 | 248914
25 | 55:18.65 | 2:34.00 | 248915 | 260464
26 | 57:52.65 | 2:19.35 | 260465 | 270924
27 | 60:12.25 | 2:08.52 | 270925 | 280576
28 | 62:21.02 | 2:01.58 | 280577 | 289709
29 | 64:22.60 | 2:34.15 | 289710 | 301274
30 | 66:57.00 | 2:10.57 | 301275 | 311081
31 | 69:07.57 | 2:38.10 | 311082 | 322941


Track 1

Filename C:\My Music\DC5-4\01- The Dave Clark Five - Nineteen Days.wav

Pre-gap length 0:00:02.00

Peak level 99.9 %
Track quality 100.0 %
Test CRC 17C7D2B5
Copy CRC 17C7D2B5
Track not present in AccurateRip database
Copy OK

Track 2

Filename C:\My Music\DC5-4\02- The Dave Clark Five - Something I've Always Wanted.wav

Pre-gap length 0:00:02.45

Peak level 99.9 %
Track quality 100.0 %
Test CRC B0ACA82C
Copy CRC B0ACA82C
Track not present in AccurateRip database
Copy OK

Track 3

Filename C:\My Music\DC5-4\03- The Dave Clark Five - Little Bit Strong.wav

Pre-gap length 0:00:02.36

Peak level 99.9 %
Track quality 100.0 %
Test CRC 06AE446B
Copy CRC 06AE446B
Track not present in AccurateRip database
Copy OK

Track 4

Filename C:\My Music\DC5-4\04- The Dave Clark Five - Bernedette.wav

Pre-gap length 0:00:02.40

Peak level 99.9 %
Track quality 99.9 %
Test CRC 13756796
Copy CRC 13756796
Track not present in AccurateRip database
Copy OK

Track 5

Filename C:\My Music\DC5-4\05- The Dave Clark Five - Sitting Here Baby.wav

Pre-gap length 0:00:02.28

Peak level 99.9 %
Track quality 100.0 %
Test CRC EBCC3C95
Copy CRC EBCC3C95
Track not present in AccurateRip database
Copy OK

Track 6

Filename C:\My Music\DC5-4\06- The Dave Clark Five - You Don't Want My Loving.wav

Pre-gap length 0:00:02.37

Peak level 99.9 %
Track quality 100.0 %
Test CRC A38D51CF
Copy CRC A38D51CF
Track not present in AccurateRip database
Copy OK

Track 7

Filename C:\My Music\DC5-4\07- The Dave Clark Five - How Can I Tell You.wav

Pre-gap length 0:00:02.29

Peak level 99.9 %
Track quality 100.0 %
Test CRC 9A0ABA8F
Copy CRC 9A0ABA8F
Track not present in AccurateRip database
Copy OK

Track 8

Filename C:\My Music\DC5-4\08- The Dave Clark Five - Picture Of You.wav

Pre-gap length 0:00:02.41

Peak level 99.9 %
Track quality 100.0 %
Test CRC A6B689E7
Copy CRC A6B689E7
Track not present in AccurateRip database
Copy OK

Track 9

Filename C:\My Music\DC5-4\09- The Dave Clark Five - Small Talk.wav

Pre-gap length 0:00:03.38

Peak level 99.9 %
Track quality 100.0 %
Test CRC 257AB954
Copy CRC 257AB954
Track not present in AccurateRip database
Copy OK

Track 10

Filename C:\My Music\DC5-4\10- The Dave Clark Five - Pick Up Your Phone.wav

Pre-gap length 0:00:02.41

Peak level 99.9 %
Track quality 99.9 %
Test CRC 69BDB798
Copy CRC 69BDB798
Track not present in AccurateRip database
Copy OK

Track 11

Filename C:\My Music\DC5-4\11- The Dave Clark Five - You Got What It Takes.wav

Pre-gap length 0:00:02.26

Peak level 99.9 %
Track quality 100.0 %
Test CRC 9663FAC4
Copy CRC 9663FAC4
Track not present in AccurateRip database
Copy OK

Track 12

Filename C:\My Music\DC5-4\12- The Dave Clark Five - I've Got To Have A Reason.wav

Pre-gap length 0:00:02.28

Peak level 99.9 %
Track quality 100.0 %
Test CRC 3FD54E03
Copy CRC 3FD54E03
Track not present in AccurateRip database
Copy OK

Track 13

Filename C:\My Music\DC5-4\13- The Dave Clark Five - You Don't Play Me Around.wav

Pre-gap length 0:00:02.18

Peak level 99.9 %
Track quality 100.0 %
Test CRC C1F4327D
Copy CRC C1F4327D
Track not present in AccurateRip database
Copy OK

Track 14

Filename C:\My Music\DC5-4\14- The Dave Clark Five - Thinking Of You Baby.wav

Pre-gap length 0:00:02.34

Peak level 99.9 %
Track quality 100.0 %
Test CRC 61CEC4C4
Copy CRC 61CEC4C4
Track not present in AccurateRip database
Copy OK

Track 15

Filename C:\My Music\DC5-4\15- The Dave Clark Five - Lovin' So Good.wav

Pre-gap length 0:00:02.21

Peak level 99.9 %
Track quality 100.0 %
Test CRC 964ABC78
Copy CRC 964ABC78
Track not present in AccurateRip database
Copy OK

Track 16

Filename C:\My Music\DC5-4\16- The Dave Clark Five - Doctor Rhythm.wav

Pre-gap length 0:00:02.29

Peak level 99.9 %
Track quality 100.0 %
Test CRC 149CF135
Copy CRC 149CF135
Track not present in AccurateRip database
Copy OK

Track 17

Filename C:\My Music\DC5-4\17- The Dave Clark Five - Play With Me.wav

Pre-gap length 0:00:02.22

Peak level 99.9 %
Track quality 100.0 %
Test CRC 0478A624
Copy CRC 0478A624
Track not present in AccurateRip database
Copy OK

Track 18

Filename C:\My Music\DC5-4\18- The Dave Clark Five - Let Me Be.wav

Pre-gap length 0:00:02.29

Peak level 99.9 %
Track quality 100.0 %
Test CRC 5DA326DD
Copy CRC 5DA326DD
Track not present in AccurateRip database
Copy OK

Track 19

Filename C:\My Music\DC5-4\19- The Dave Clark Five - Blueberry Hill.wav

Pre-gap length 0:00:02.24

Peak level 99.9 %
Track quality 100.0 %
Test CRC 37114FF8
Copy CRC 37114FF8
Track not present in AccurateRip database
Copy OK

Track 20

Filename C:\My Music\DC5-4\20- The Dave Clark Five - Tabatha Twitchit.wav

Pre-gap length 0:00:02.26

Peak level 99.9 %
Track quality 100.0 %
Test CRC F6BCFE55
Copy CRC F6BCFE55
Track not present in AccurateRip database
Copy OK

Track 21

Filename C:\My Music\DC5-4\21- The Dave Clark Five - Everybody Knows.wav

Pre-gap length 0:00:02.22

Peak level 99.9 %
Track quality 100.0 %
Test CRC 539164D7
Copy CRC 539164D7
Track not present in AccurateRip database
Copy OK

Track 22

Filename C:\My Music\DC5-4\22- The Dave Clark Five - A Little Bit Now.wav

Pre-gap length 0:00:02.22

Peak level 99.9 %
Track quality 100.0 %
Test CRC BF4ADA0C
Copy CRC BF4ADA0C
Track not present in AccurateRip database
Copy OK

Track 23

Filename C:\My Music\DC5-4\23- The Dave Clark Five - At The Place.wav

Pre-gap length 0:00:02.30

Peak level 99.9 %
Track quality 100.0 %
Test CRC ECC60FEA
Copy CRC ECC60FEA
Track not present in AccurateRip database
Copy OK

Track 24

Filename C:\My Music\DC5-4\24- The Dave Clark Five - Inside And Out.wav

Pre-gap length 0:00:02.28

Peak level 99.9 %
Track quality 100.0 %
Test CRC 5B72C125
Copy CRC 5B72C125
Track not present in AccurateRip database
Copy OK

Track 25

Filename C:\My Music\DC5-4\25- The Dave Clark Five - Red And Blue.wav

Pre-gap length 0:00:02.28

Peak level 99.9 %
Track quality 100.0 %
Test CRC 2478467A
Copy CRC 2478467A
Track not present in AccurateRip database
Copy OK

Track 26

Filename C:\My Music\DC5-4\26- The Dave Clark Five - You Must Have Been A Beautiful Baby.wav

Pre-gap length 0:00:02.16

Peak level 99.9 %
Track quality 99.9 %
Test CRC 63A52A9B
Copy CRC 63A52A9B
Track not present in AccurateRip database
Copy OK

Track 27

Filename C:\My Music\DC5-4\27- The Dave Clark Five - Good Love Is Hard To Find.wav

Pre-gap length 0:00:02.28

Peak level 99.9 %
Track quality 100.0 %
Test CRC 6DB311B4
Copy CRC 6DB311B4
Track not present in AccurateRip database
Copy OK

Track 28

Filename C:\My Music\DC5-4\28- The Dave Clark Five - Lost In His Dreams.wav

Pre-gap length 0:00:02.36

Peak level 99.9 %
Track quality 100.0 %
Test CRC 6C6869A2
Copy CRC 6C6869A2
Track not present in AccurateRip database
Copy OK

Track 29

Filename C:\My Music\DC5-4\29- The Dave Clark Five - Concentration Baby.wav

Pre-gap length 0:00:02.22

Peak level 99.9 %
Track quality 100.0 %
Test CRC 2866B845
Copy CRC 2866B845
Track not present in AccurateRip database
Copy OK

Track 30

Filename C:\My Music\DC5-4\30- The Dave Clark Five - Hold On Tight.wav

Pre-gap length 0:00:01.94

Peak level 99.9 %
Track quality 100.0 %
Test CRC 28B9ADD9
Copy CRC 28B9ADD9
Track not present in AccurateRip database
Copy OK

Track 31

Filename C:\My Music\DC5-4\31- The Dave Clark Five - I'll Do The Best I Can.wav

Pre-gap length 0:00:02.20

Peak level 99.9 %
Track quality 100.0 %
Test CRC CBD5303D
Copy CRC CBD5303D
Track not present in AccurateRip database
Copy OK

No errors occurred

End of status report

EAC LOG cd5
Exact Audio Copy V0.99 prebeta 1 from 25. May 2007

EAC extraction logfile from 21. February 2009, 12:02

The Dave Clark Five / The Complete History - Vol. 5: "Five By Five 1964-69"/"If Somebody Loves You"

Used drive : IDE-DVD DROM6216 Adapter: 4 ID: 1

Read mode : Secure
Utilize accurate stream : Yes
Defeat audio cache : Yes
Make use of C2 pointers : No

Read offset correction : 738
Overread into Lead-In and Lead-Out : No
Fill up missing offset samples with silence : Yes
Delete leading and trailing silent blocks : No
Used interface : Native Win32 interface for Win NT & 2000
Gap handling : Appended to previous track

Used output format : User Defined Encoder
Selected bitrate : 128 kBit/s
Quality : High
Add ID3 tag : No
Command line compressor : C:\Program Files\Exact Audio Copy\FLAC\FLAC.EXE
Additional command line options : -6 -V -T "ARTIST=%a" -T "TITLE=%t" -T "ALBUM=%g" -T "DATE=%y" -T "TRACKNUMBER=%n" -T "GENRE=%m" -T "COMMENT=%e" %s -o %d


TOC of the extracted CD

Track | Start | Length | Start sector | End sector
---------------------------------------------------------
1 | 0:00.00 | 2:46.70 | 0 | 12519
2 | 2:46.70 | 2:38.45 | 12520 | 24414
3 | 5:25.40 | 2:57.45 | 24415 | 37734
4 | 8:23.10 | 2:38.00 | 37735 | 49584
5 | 11:01.10 | 2:08.57 | 49585 | 59241
6 | 13:09.67 | 2:10.55 | 59242 | 69046
7 | 15:20.47 | 3:04.28 | 69047 | 82874
8 | 18:25.00 | 3:19.10 | 82875 | 97809
9 | 21:44.10 | 2:54.10 | 97810 | 110869
10 | 24:38.20 | 2:07.12 | 110870 | 120406
11 | 26:45.32 | 2:48.63 | 120407 | 133069
12 | 29:34.20 | 2:31.20 | 133070 | 144414
13 | 32:05.40 | 2:20.40 | 144415 | 154954
14 | 34:26.05 | 2:36.42 | 154955 | 166696
15 | 37:02.47 | 2:49.65 | 166697 | 179436
16 | 39:52.37 | 3:12.40 | 179437 | 193876
17 | 43:05.02 | 2:49.23 | 193877 | 206574
18 | 45:54.25 | 2:49.67 | 206575 | 219316
19 | 48:44.17 | 2:54.45 | 219317 | 232411
20 | 51:38.62 | 3:18.40 | 232412 | 247301
21 | 54:57.27 | 3:51.45 | 247302 | 264671
22 | 58:48.72 | 2:30.73 | 264672 | 275994
23 | 61:19.70 | 3:04.55 | 275995 | 289849
24 | 64:24.50 | 2:34.65 | 289850 | 301464
25 | 66:59.40 | 2:34.10 | 301465 | 313024
26 | 69:33.50 | 2:43.20 | 313025 | 325269
27 | 72:16.70 | 2:27.57 | 325270 | 336351
28 | 74:44.52 | 2:32.43 | 336352 | 347794


Track 1

Filename C:\My Music\DC5-5\01- Just A Little Bit Now.wav

Pre-gap length 0:00:02.00

Peak level 99.9 %
Track quality 100.0 %
Test CRC 2EFC248B
Copy CRC 2EFC248B
Track not present in AccurateRip database
Copy OK

Track 2

Filename C:\My Music\DC5-5\02- Maze Of Love.wav

Pre-gap length 0:00:02.49

Peak level 99.9 %
Track quality 100.0 %
Test CRC E19E24AE
Copy CRC E19E24AE
Track not present in AccurateRip database
Copy OK

Track 3

Filename C:\My Music\DC5-5\03- Return My Love.wav

Pre-gap length 0:00:02.38

Peak level 99.9 %
Track quality 100.0 %
Test CRC 922BF5EB
Copy CRC 922BF5EB
Track not present in AccurateRip database
Copy OK

Track 4

Filename C:\My Music\DC5-5\04- Best Day's Work.wav

Pre-gap length 0:00:02.42

Peak level 99.9 %
Track quality 100.0 %
Test CRC B14351B4
Copy CRC B14351B4
Track not present in AccurateRip database
Copy OK

Track 5

Filename C:\My Music\DC5-5\05- Who Do You Think You're Talking To.wav

Pre-gap length 0:00:02.48

Peak level 99.9 %
Track quality 100.0 %
Test CRC DD6226E5
Copy CRC DD6226E5
Track not present in AccurateRip database
Copy OK

Track 6

Filename C:\My Music\DC5-5\06- Got Love If You Want It.wav

Pre-gap length 0:00:02.38

Peak level 99.9 %
Track quality 100.0 %
Test CRC F993F7C1
Copy CRC F993F7C1
Track not present in AccurateRip database
Copy OK

Track 7

Filename C:\My Music\DC5-5\07- The Red Balloon.wav

Pre-gap length 0:00:02.44

Peak level 99.9 %
Track quality 100.0 %
Test CRC 2567F999
Copy CRC 2567F999
Track not present in AccurateRip database
Copy OK

Track 8

Filename C:\My Music\DC5-5\08- Please Stay.wav

Pre-gap length 0:00:02.36

Peak level 99.9 %
Track quality 100.0 %
Test CRC 2DB8E611
Copy CRC 2DB8E611
Track not present in AccurateRip database
Copy OK

Track 9

Filename C:\My Music\DC5-5\09- Devoted To Me.wav

Pre-gap length 0:00:02.38

Peak level 99.9 %
Track quality 100.0 %
Test CRC 5F85A16F
Copy CRC 5F85A16F
Track not present in AccurateRip database
Copy OK

Track 10

Filename C:\My Music\DC5-5\10- 34-06.wav

Pre-gap length 0:00:02.40

Peak level 99.9 %
Track quality 99.9 %
Test CRC ECC1AAD6
Copy CRC ECC1AAD6
Track not present in AccurateRip database
Copy OK

Track 11

Filename C:\My Music\DC5-5\11- Away From The Noises.wav

Pre-gap length 0:00:02.45

Peak level 99.9 %
Track quality 100.0 %
Test CRC 8E945B7E
Copy CRC 8E945B7E
Track not present in AccurateRip database
Copy OK

Track 12

Filename C:\My Music\DC5-5\12- When I Am Alone.wav

Pre-gap length 0:00:02.38

Peak level 99.9 %
Track quality 100.0 %
Test CRC FCA0A84F
Copy CRC FCA0A84F
Track not present in AccurateRip database
Copy OK

Track 13

Filename C:\My Music\DC5-5\13- I Still Need You.wav

Pre-gap length 0:00:02.42

Peak level 99.9 %
Track quality 100.0 %
Test CRC C38185C4
Copy CRC C38185C4
Track not present in AccurateRip database
Copy OK

Track 14

Filename C:\My Music\DC5-5\14- No One Can Break A Heart Like You.wav

Pre-gap length 0:00:02.42

Peak level 99.9 %
Track quality 100.0 %
Test CRC 13C24EC7
Copy CRC 13C24EC7
Track not present in AccurateRip database
Copy OK

Track 15

Filename C:\My Music\DC5-5\15- If Somebody Loves You.wav

Pre-gap length 0:00:02.38

Peak level 99.9 %
Track quality 100.0 %
Test CRC FF3ECF41
Copy CRC FF3ECF41
Track not present in AccurateRip database
Copy OK

Track 16

Filename C:\My Music\DC5-5\16- It Aint' What You Do.wav

Pre-gap length 0:00:02.25

Peak level 99.9 %
Track quality 100.0 %
Test CRC 3C840238
Copy CRC 3C840238
Track not present in AccurateRip database
Copy OK

Track 17

Filename C:\My Music\DC5-5\17- Live In The Sky.wav

Pre-gap length 0:00:02.28

Peak level 99.9 %
Track quality 100.0 %
Test CRC 198FF450
Copy CRC 198FF450
Track not present in AccurateRip database
Copy OK

Track 18

Filename C:\My Music\DC5-5\18- Five By Five.wav

Pre-gap length 0:00:02.22

Peak level 99.9 %
Track quality 100.0 %
Test CRC 67381EBC
Copy CRC 67381EBC
Track not present in AccurateRip database
Copy OK

Track 19

Filename C:\My Music\DC5-5\19- Here Comes Summer.wav

Pre-gap length 0:00:02.25

Peak level 99.9 %
Track quality 100.0 %
Test CRC EF0DE530
Copy CRC EF0DE530
Track not present in AccurateRip database
Copy OK

Track 20

Filename C:\My Music\DC5-5\20- How Do You Get To Heaven.wav

Pre-gap length 0:00:02.30

Peak level 99.9 %
Track quality 100.0 %
Test CRC 3FECB4C8
Copy CRC 3FECB4C8
Track not present in AccurateRip database
Copy OK

Track 21

Filename C:\My Music\DC5-5\21- Everybody Get Together.wav

Pre-gap length 0:00:02.40

Peak level 99.9 %
Track quality 100.0 %
Test CRC 7E2AA7B1
Copy CRC 7E2AA7B1
Track not present in AccurateRip database
Copy OK

Track 22

Filename C:\My Music\DC5-5\22- Julia.wav

Pre-gap length 0:00:02.33

Peak level 99.9 %
Track quality 100.0 %
Test CRC 1E4AC68E
Copy CRC 1E4AC68E
Track not present in AccurateRip database
Copy OK

Track 23

Filename C:\My Music\DC5-5\23- Break Down And Cry.wav

Pre-gap length 0:00:02.18

Peak level 99.9 %
Track quality 100.0 %
Test CRC E0F8194D
Copy CRC E0F8194D
Track not present in AccurateRip database
Copy OK

Track 24

Filename C:\My Music\DC5-5\24- I'm On My Own.wav

Pre-gap length 0:00:02.40

Peak level 99.9 %
Track quality 100.0 %
Test CRC 9B8699E9
Copy CRC 9B8699E9
Track not present in AccurateRip database
Copy OK

Track 25

Filename C:\My Music\DC5-5\25- Red And Blue.wav

Pre-gap length 0:00:02.38

Peak level 99.9 %
Track quality 100.0 %
Test CRC 094ECE5A
Copy CRC 094ECE5A
Track not present in AccurateRip database
Copy OK

Track 26

Filename C:\My Music\DC5-5\26- If You Wanna See Me Cry.wav

Pre-gap length 0:00:02.32

Peak level 99.9 %
Track quality 100.0 %
Test CRC BCC73F12
Copy CRC BCC73F12
Track not present in AccurateRip database
Copy OK

Track 27

Filename C:\My Music\DC5-5\27- Worried Times.wav

Pre-gap length 0:00:02.38

Peak level 99.9 %
Track quality 99.9 %
Test CRC 9DC9B02C
Copy CRC 9DC9B02C
Track not present in AccurateRip database
Copy OK

Track 28

Filename C:\My Music\DC5-5\28- Darling I Love You.wav

Pre-gap length 0:00:02.28

Peak level 99.9 %
Track quality 100.0 %
Test CRC A4594B6B
Copy CRC A4594B6B
Track not present in AccurateRip database
Copy OK

No errors occurred

End of status report

EAC LOG cd6
Exact Audio Copy V0.99 prebeta 1 from 25. May 2007

EAC extraction logfile from 22. February 2009, 10:13

The Dave Clark Five / The Complete History - Vol. 6: "Play Gool Old Rock 'n' Roll - 18 Golden Oldies"/"Dave Clark & Friends"

Used drive : IDE-DVD DROM6216 Adapter: 4 ID: 1

Read mode : Secure
Utilize accurate stream : Yes
Defeat audio cache : Yes
Make use of C2 pointers : No

Read offset correction : 738
Overread into Lead-In and Lead-Out : No
Fill up missing offset samples with silence : Yes
Delete leading and trailing silent blocks : No
Used interface : Native Win32 interface for Win NT & 2000
Gap handling : Appended to previous track

Used output format : User Defined Encoder
Selected bitrate : 128 kBit/s
Quality : High
Add ID3 tag : No
Command line compressor : C:\Program Files\Exact Audio Copy\FLAC\FLAC.EXE
Additional command line options : -6 -V -T "ARTIST=%a" -T "TITLE=%t" -T "ALBUM=%g" -T "DATE=%y" -T "TRACKNUMBER=%n" -T "GENRE=%m" -T "COMMENT=%e" %s -o %d


TOC of the extracted CD

Track | Start | Length | Start sector | End sector
---------------------------------------------------------
1 | 0:00.00 | 3:37.67 | 0 | 16341
2 | 3:37.67 | 2:48.70 | 16342 | 29011
3 | 6:26.62 | 2:49.55 | 29012 | 41741
4 | 9:16.42 | 2:50.53 | 41742 | 54544
5 | 12:07.20 | 3:01.55 | 54545 | 68174
6 | 15:09.00 | 2:31.35 | 68175 | 79534
7 | 17:40.35 | 2:47.10 | 79535 | 92069
8 | 20:27.45 | 2:38.50 | 92070 | 103969
9 | 23:06.20 | 1:58.47 | 103970 | 112866
10 | 25:04.67 | 3:58.35 | 112867 | 130751
11 | 29:03.27 | 3:07.18 | 130752 | 144794
12 | 32:10.45 | 2:53.20 | 144795 | 157789
13 | 35:03.65 | 2:25.70 | 157790 | 168734
14 | 37:29.60 | 2:35.47 | 168735 | 180406
15 | 40:05.32 | 3:49.55 | 180407 | 197636
16 | 43:55.12 | 5:50.03 | 197637 | 223889
17 | 49:45.15 | 2:56.00 | 223890 | 237089
18 | 52:41.15 | 2:48.12 | 237090 | 249701
19 | 55:29.27 | 2:53.20 | 249702 | 262696
20 | 58:22.47 | 2:51.53 | 262697 | 275574
21 | 61:14.25 | 2:26.00 | 275575 | 286524
22 | 63:40.25 | 3:12.10 | 286525 | 300934
23 | 66:52.35 | 2:56.42 | 300935 | 314176


Track 1

Filename C:\My Music\DC5-6\01- Good Old Rock 'n' Roll.wav

Pre-gap length 0:00:02.00

Peak level 99.9 %
Track quality 100.0 %
Test CRC 3ED7A4A6
Copy CRC 3ED7A4A6
Track not present in AccurateRip database
Copy OK

Track 2

Filename C:\My Music\DC5-6\02- Raining In My Heart.wav

Pre-gap length 0:00:02.37

Peak level 99.9 %
Track quality 100.0 %
Test CRC F3E26B2F
Copy CRC F3E26B2F
Track not present in AccurateRip database
Copy OK

Track 3

Filename C:\My Music\DC5-6\03- Lucille.wav

Pre-gap length 0:00:02.38

Peak level 99.9 %
Track quality 100.0 %
Test CRC 1369D113
Copy CRC 1369D113
Track not present in AccurateRip database
Copy OK

Track 4

Filename C:\My Music\DC5-6\04- Reelin' And Rockin'.wav

Pre-gap length 0:00:02.38

Peak level 99.9 %
Track quality 100.0 %
Test CRC 79A8A1E5
Copy CRC 79A8A1E5
Track not present in AccurateRip database
Copy OK

Track 5

Filename C:\My Music\DC5-6\05- More Good Old Rock 'n' Roll.wav

Pre-gap length 0:00:02.34

Peak level 99.9 %
Track quality 100.0 %
Test CRC 6B5C576E
Copy CRC 6B5C576E
Track not present in AccurateRip database
Copy OK

Track 6

Filename C:\My Music\DC5-6\06- Loving You.wav

Pre-gap length 0:00:02.30

Peak level 99.9 %
Track quality 100.0 %
Test CRC F1B6FBE0
Copy CRC F1B6FBE0
Track not present in AccurateRip database
Copy OK

Track 7

Filename C:\My Music\DC5-6\07- Memphis, Tennessee.wav

Pre-gap length 0:00:02.29

Peak level 99.9 %
Track quality 100.0 %
Test CRC B3370CD2
Copy CRC B3370CD2
Track not present in AccurateRip database
Copy OK

Track 8

Filename C:\My Music\DC5-6\08- One Night.wav

Pre-gap length 0:00:02.38

Peak level 99.9 %
Track quality 100.0 %
Test CRC 9A36C900
Copy CRC 9A36C900
Track not present in AccurateRip database
Copy OK

Track 9

Filename C:\My Music\DC5-6\09- Lawdy Miss Clawdy.wav

Pre-gap length 0:00:02.33

Peak level 99.9 %
Track quality 100.0 %
Test CRC F0B0D1C1
Copy CRC F0B0D1C1
Track not present in AccurateRip database
Copy OK

Track 10

Filename C:\My Music\DC5-6\10- Southern Man.wav

Pre-gap length 0:00:02.30

Peak level 99.9 %
Track quality 100.0 %
Test CRC 6D6987DB
Copy CRC 6D6987DB
Track not present in AccurateRip database
Copy OK

Track 11

Filename C:\My Music\DC5-6\11- Bring It On Home To Me.wav

Pre-gap length 0:00:02.42

Peak level 99.9 %
Track quality 100.0 %
Test CRC BB59960E
Copy CRC BB59960E
Track not present in AccurateRip database
Copy OK

Track 12

Filename C:\My Music\DC5-6\12- Signs.wav

Pre-gap length 0:00:02.29

Peak level 99.9 %
Track quality 100.0 %
Test CRC CF25574C
Copy CRC CF25574C
Track not present in AccurateRip database
Copy OK

Track 13

Filename C:\My Music\DC5-6\13- Won't You Be My Lady.wav

Pre-gap length 0:00:02.20

Peak level 99.9 %
Track quality 100.0 %
Test CRC 9BB7C63F
Copy CRC 9BB7C63F
Track not present in AccurateRip database
Copy OK

Track 14

Filename C:\My Music\DC5-6\14- The Time Has Come.wav

Pre-gap length 0:00:02.14

Peak level 99.9 %
Track quality 100.0 %
Test CRC 7B03F91A
Copy CRC 7B03F91A
Track not present in AccurateRip database
Copy OK

Track 15

Filename C:\My Music\DC5-6\15- If You've Got A Little Love To Give.wav

Pre-gap length 0:00:02.17

Peak level 99.9 %
Track quality 100.0 %
Test CRC 6BAA5902
Copy CRC 6BAA5902
Track not present in AccurateRip database
Copy OK

Track 16

Filename C:\My Music\DC5-6\16- Officer McKirk.wav

Pre-gap length 0:00:02.08

Peak level 99.9 %
Track quality 100.0 %
Test CRC F4DFB7E9
Copy CRC F4DFB7E9
Track not present in AccurateRip database
Copy OK

Track 17

Filename C:\My Music\DC5-6\17- Paradise Is Half As Nice.wav

Pre-gap length 0:00:02.26

Peak level 99.9 %
Track quality 99.9 %
Test CRC 2E6957B9
Copy CRC 2E6957B9
Track not present in AccurateRip database
Copy OK

Track 18

Filename C:\My Music\DC5-6\18- Draggin' The Line.wav

Pre-gap length 0:00:02.16

Peak level 99.9 %
Track quality 100.0 %
Test CRC D5BCB2B5
Copy CRC D5BCB2B5
Track not present in AccurateRip database
Copy OK

Track 19

Filename C:\My Music\DC5-6\19- Think Of Me.wav

Pre-gap length 0:00:02.16

Peak level 99.9 %
Track quality 100.0 %
Test CRC D8AFD316
Copy CRC D8AFD316
Track not present in AccurateRip database
Copy OK

Track 20

Filename C:\My Music\DC5-6\20- One-Eyed, Blue-Suited, Gun-Totin' Man.wav

Pre-gap length 0:00:02.18

Peak level 99.9 %
Track quality 100.0 %
Test CRC EBAC7223
Copy CRC EBAC7223
Track not present in AccurateRip database
Copy OK

Track 21

Filename C:\My Music\DC5-6\21- Right Or Wrong.wav

Pre-gap length 0:00:01.97

Peak level 99.9 %
Track quality 100.0 %
Test CRC 5FE389DC
Copy CRC 5FE389DC
Track not present in AccurateRip database
Copy OK

Track 22

Filename C:\My Music\DC5-6\22- I Don't Know.wav

Pre-gap length 0:00:02.25

Peak level 99.9 %
Track quality 100.0 %
Test CRC 0957B3D5
Copy CRC 0957B3D5
Track not present in AccurateRip database
Copy OK

Track 23

Filename C:\My Music\DC5-6\23- Put A Little Love In Your Heart.wav

Pre-gap length 0:00:02.22

Peak level 99.9 %
Track quality 100.0 %
Test CRC 0186D421
Copy CRC 0186D421
Track not present in AccurateRip database
Copy OK

No errors occurred

End of status report

EAC LOG cd7
Exact Audio Copy V0.99 prebeta 1 from 25. May 2007

EAC extraction logfile from 22. February 2009, 21:33

Dave Clark Five, The / Pieces & Bits --- Rarities, Hits & Single Tracks

Used drive : IDE-DVD DROM6216 Adapter: 4 ID: 1

Read mode : Secure
Utilize accurate stream : Yes
Defeat audio cache : Yes
Make use of C2 pointers : No

Read offset correction : 738
Overread into Lead-In and Lead-Out : No
Fill up missing offset samples with silence : Yes
Delete leading and trailing silent blocks : No
Used interface : Native Win32 interface for Win NT & 2000
Gap handling : Appended to previous track

Used output format : User Defined Encoder
Selected bitrate : 128 kBit/s
Quality : High
Add ID3 tag : No
Command line compressor : C:\Program Files\Exact Audio Copy\FLAC\FLAC.EXE
Additional command line options : -6 -V -T "ARTIST=%a" -T "TITLE=%t" -T "ALBUM=%g" -T "DATE=%y" -T "TRACKNUMBER=%n" -T "GENRE=%m" -T "COMMENT=%e" %s -o %d


TOC of the extracted CD

Track | Start | Length | Start sector | End sector
---------------------------------------------------------
1 | 0:00.00 | 2:07.50 | 0 | 9574
2 | 2:07.50 | 1:47.65 | 9575 | 17664
3 | 3:55.40 | 2:39.57 | 17665 | 29646
4 | 6:35.22 | 2:48.23 | 29647 | 42269
5 | 9:23.45 | 2:19.35 | 42270 | 52729
6 | 11:43.05 | 2:25.52 | 52730 | 63656
7 | 14:08.57 | 2:11.43 | 63657 | 73524
8 | 16:20.25 | 1:56.52 | 73525 | 82276
9 | 18:17.02 | 2:00.25 | 82277 | 91301
10 | 20:17.27 | 1:54.28 | 91302 | 99879
11 | 22:11.55 | 2:15.35 | 99880 | 110039
12 | 24:27.15 | 3:10.72 | 110040 | 124361
13 | 27:38.12 | 1:43.43 | 124362 | 132129
14 | 29:21.55 | 1:56.62 | 132130 | 140891
15 | 31:18.42 | 1:58.50 | 140892 | 149791
16 | 33:17.17 | 1:51.00 | 149792 | 158116
17 | 35:08.17 | 2:59.23 | 158117 | 171564
18 | 38:07.40 | 3:12.62 | 171565 | 186026
19 | 41:20.27 | 2:28.15 | 186027 | 197141
20 | 43:48.42 | 2:25.45 | 197142 | 208061
21 | 46:14.12 | 3:17.00 | 208062 | 222836
22 | 49:31.12 | 2:10.23 | 222837 | 232609
23 | 51:41.35 | 3:25.35 | 232610 | 248019
24 | 55:06.70 | 3:23.40 | 248020 | 263284
25 | 58:30.35 | 3:36.72 | 263285 | 279556


Track 1

Filename C:\My Music\DC5-7\01- Dave Clark Five, The , Chaquita (first version).wav

Pre-gap length 0:00:02.00

Peak level 99.9 %
Track quality 100.0 %
Test CRC B8C11D50
Copy CRC B8C11D50
Track not present in AccurateRip database
Copy OK

Track 2

Filename C:\My Music\DC5-7\02- Dave Clark Five, The , In Your Heart.wav

Pre-gap length 0:00:02.73

Peak level 99.9 %
Track quality 100.0 %
Test CRC 778437F1
Copy CRC 778437F1
Track not present in AccurateRip database
Copy OK

Track 3

Filename C:\My Music\DC5-7\03- Dave Clark Five, The , First Love.wav

Pre-gap length 0:00:02.53

Peak level 99.9 %
Track quality 100.0 %
Test CRC 781AD02D
Copy CRC 781AD02D
Track not present in AccurateRip database
Copy OK

Track 4

Filename C:\My Music\DC5-7\04- Dave Clark Five, The , I Walk The Line.wav

Pre-gap length 0:00:02.85

Peak level 99.9 %
Track quality 100.0 %
Test CRC F402314B
Copy CRC F402314B
Track not present in AccurateRip database
Copy OK

Track 5

Filename C:\My Music\DC5-7\05- Dave Clark Five, The , That's What I Said.wav

Pre-gap length 0:00:03.34

Peak level 99.9 %
Track quality 99.9 %
Test CRC 90C42C1E
Copy CRC 90C42C1E
Track not present in AccurateRip database
Copy OK

Track 6

Filename C:\My Music\DC5-7\06- Dave Clark Five, The , I Knew It All The Time.wav

Pre-gap length 0:00:03.06

Peak level 99.9 %
Track quality 100.0 %
Test CRC CFCB4C2E
Copy CRC CFCB4C2E
Track not present in AccurateRip database
Copy OK

Track 7

Filename C:\My Music\DC5-7\07- Dave Clark Five, The , The Mulberry Bush.wav

Pre-gap length 0:00:03.08

Peak level 99.9 %
Track quality 100.0 %
Test CRC 08A23B89
Copy CRC 08A23B89
Track not present in AccurateRip database
Copy OK

Track 8

Filename C:\My Music\DC5-7\08- Dave Clark Five, The , Poison Ivy.wav

Pre-gap length 0:00:03.16

Peak level 99.9 %
Track quality 100.0 %
Test CRC 6ED2CC52
Copy CRC 6ED2CC52
Track not present in AccurateRip database
Copy OK

Track 9

Filename C:\My Music\DC5-7\09- Dave Clark Five, The , Over And Over.wav

Pre-gap length 0:00:03.34

Peak level 99.9 %
Track quality 100.0 %
Test CRC F45408E3
Copy CRC F45408E3
Track not present in AccurateRip database
Copy OK

Track 10

Filename C:\My Music\DC5-7\10- Dave Clark Five, The , At The Scene.wav

Pre-gap length 0:00:02.76

Peak level 99.9 %
Track quality 100.0 %
Test CRC 06B440C4
Copy CRC 06B440C4
Track not present in AccurateRip database
Copy OK

Track 11

Filename C:\My Music\DC5-7\11- Dave Clark Five, The , I Miss You.wav

Pre-gap length 0:00:02.49

Peak level 99.9 %
Track quality 99.9 %
Test CRC 1C692BAD
Copy CRC 1C692BAD
Track not present in AccurateRip database
Copy OK

Track 12

Filename C:\My Music\DC5-7\12- Dave Clark Five, The , All Night Long.wav

Pre-gap length 0:00:02.38

Peak level 99.9 %
Track quality 100.0 %
Test CRC C3E8580F
Copy CRC C3E8580F
Track not present in AccurateRip database
Copy OK

Track 13

Filename C:\My Music\DC5-7\13- Dave Clark Five, The , Don't Let Me Down.wav

Pre-gap length 0:00:03.54

Peak level 99.9 %
Track quality 100.0 %
Test CRC D0C04079
Copy CRC D0C04079
Track not present in AccurateRip database
Copy OK

Track 14

Filename C:\My Music\DC5-7\14- Dave Clark Five, The , Man In A Pin-Striped Suit.wav

Pre-gap length 0:00:02.64

Peak level 99.9 %
Track quality 100.0 %
Test CRC B99A474A
Copy CRC B99A474A
Track not present in AccurateRip database
Copy OK

Track 15

Filename C:\My Music\DC5-7\15- Dave Clark Five, The , Good Time Woman.wav

Pre-gap length 0:00:02.57

Peak level 99.9 %
Track quality 100.0 %
Test CRC A7DA3C41
Copy CRC A7DA3C41
Track not present in AccurateRip database
Copy OK

Track 16

Filename C:\My Music\DC5-7\16- Dave Clark Five, The , Forget.wav

Pre-gap length 0:00:02.85

Peak level 99.9 %
Track quality 100.0 %
Test CRC E66A0ECA
Copy CRC E66A0ECA
Track not present in AccurateRip database
Copy OK

Track 17

Filename C:\My Music\DC5-7\17- Dave Clark Five, The , Children.wav

Pre-gap length 0:00:02.41

Peak level 99.9 %
Track quality 99.9 %
Test CRC 3EBA59E9
Copy CRC 3EBA59E9
Track not present in AccurateRip database
Copy OK

Track 18

Filename C:\My Music\DC5-7\18- Dave Clark Five, The , The Mulberry Tree.wav

Pre-gap length 0:00:02.54

Peak level 99.9 %
Track quality 100.0 %
Test CRC AD573587
Copy CRC AD573587
Track not present in AccurateRip database
Copy OK

Track 19

Filename C:\My Music\DC5-7\19- Dave Clark Five, The , Into Your Life.wav

Pre-gap length 0:00:02.66

Peak level 99.9 %
Track quality 100.0 %
Test CRC 661CFFFF
Copy CRC 661CFFFF
Track not present in AccurateRip database
Copy OK

Track 20

Filename C:\My Music\DC5-7\20- Dave Clark Five, The , Always Me.wav

Pre-gap length 0:00:02.53

Peak level 99.9 %
Track quality 100.0 %
Test CRC E62DE7A4
Copy CRC E62DE7A4
Track not present in AccurateRip database
Copy OK

Track 21

Filename C:\My Music\DC5-7\21- Dave Clark & Friends , Rub It In.wav

Pre-gap length 0:00:02.40

Peak level 99.9 %
Track quality 100.0 %
Test CRC 1EC22AD6
Copy CRC 1EC22AD6
Track not present in AccurateRip database
Copy OK

Track 22

Filename C:\My Music\DC5-7\22- Dave Clark & Friends , I'm Sorry Baby.wav

Pre-gap length 0:00:02.78

Peak level 99.9 %
Track quality 100.0 %
Test CRC 5D015F1B
Copy CRC 5D015F1B
Track not present in AccurateRip database
Copy OK

Track 23

Filename C:\My Music\DC5-7\23- Dave Clark & Friends , Sweet City Woman.wav

Pre-gap length 0:00:02.36

Peak level 99.9 %
Track quality 100.0 %
Test CRC 730F595D
Copy CRC 730F595D
Track not present in AccurateRip database
Copy OK

Track 24

Filename C:\My Music\DC5-7\24- Dave Clark & Friends , Love Comes But Once.wav

Pre-gap length 0:00:02.28

Peak level 99.9 %
Track quality 99.9 %
Test CRC D5BFC85C
Copy CRC D5BFC85C
Track not present in AccurateRip database
Copy OK

Track 25

Filename C:\My Music\DC5-7\25- Dave Clark & Friends , Sha-Na-Na-Na.wav

Pre-gap length 0:00:02.37

Peak level 99.9 %
Track quality 100.0 %
Test CRC C8012AC8
Copy CRC C8012AC8
Track not present in AccurateRip database
Copy OK

No errors occurred

End of status report

Artwork is included in the music archives. Please note the artwork shown above is for Vol. 1. All Vols show the same view. Of course the art is different for each Vol but what I am saying is that the views above are the only artwork included for each Vol. There are no scans of cds or booklet or anything else.
Not my rip or scans. Thanks a lot to the original ripper!

I don't mind if you post any problems you may find in the comments but please send me a pm also.
Links are interchangeable. No Password.
No mirrors and please do not post links in comments.

ADVERTISING » Very Fast Download!



« ADVERTISING




Posted By: juanhunoz Date: 10 Jun 2011 23:49:18
Muchas gracias, dude!
Posted By: Acheron Date: 11 Jun 2011 07:32:36
Great share firepower - many thanks!
Posted By: harry33333 Date: 11 Jun 2011 07:56:07
Moin, moin!!
Gaaanz toll
Posted By: terra6 Date: 11 Jun 2011 08:29:33
Great upload. Cheers
Posted By: redar_us Date: 11 Jun 2011 11:42:43
Great Post, thanks for all the trouble you took to share this jewel with us.
Posted By: 30megup Date: 11 Jun 2011 22:50:19
Very nice thanks for the music.
Posted By: leozaurus Date: 15 Jun 2011 08:20:39
Many thanks for possibility to plunge into the past epoch!
Posted By: wowei Date: 12 Dec 2011 19:16:35
Great Post, Thank you firepower!