Loading...

Blackmore's Night - Autumn Sky (2010)

Posted By : stfine | Date : 05 Sep 2010 20:58:04 | Comments : 7 |
|


Blackmore's Night - Autumn Sky (2010)

Blackmore's Night - Autumn Sky (2010)
APE image + cue + log + front cover | 01:01:26 | 430 MB (+3%)
Folk Rock | Label: Ariola/Sony Music

The new Richie's CD have 15 songs, including All The Fun of the Faire; Journeyman; Vagabond (Make A Princess of Me); Strawberry Girl, plus many others. This music is inspired and dedicated to Blackmore's new little girl Autumn Esmerelda.

Tracklist

1. Highland [05:49]
2. Vagabond [05:23]
3. Journeyman (Vandraen) [05:41]
4. Believe In Me [04:25]
5. Sake Of The Song [02:47]
6. Song And Dance [02:02]
7. Celluloid Heroes [05:27]
8. Keeper Of The Flame [04:41]
9. Night At Eggersberg [02:15]
10. Strawberry Girl [04:05]
11. All The Fun Of The Fayre [03:55]
12. Darkness [03:21]
13. Dance Of The Darkness [03:35]
14. Health To The Company [04:19]
15. Barbara Allen [03:41]

Total time 01:01:26

EAC log
Exact Audio Copy V0.99 prebeta 5 from 4. May 2009

Отчёт EAC об извлечении, выполненном 4. сентября 2010, 18:26

Blackmore's Night / Autumn Sky

Дисковод: TSSTcorpDVD-ROM SH-D163C Adapter: 4 ID: 0

Режим чтения : Достоверность
Использование точного потока : Да
Отключение кэша аудио : Да
Использование указателей C2 : Да

Коррекция смещения при чтении : 6
Способность читать области Lead-in и Lead-out : Нет
Заполнение пропущенных сэмплов тишиной : Да
Удаление блоков с тишиной в начале и конце : Нет
При вычислениях CRC использовались нулевые сэмплы : Да
Интерфейс : Встроенный Win32-интерфейс для Win NT/2000

Выходной формат : Внутренние WAV-операции
Формат сэмплов : 44.100 Гц; 16 бит; стерео


TOC извлечённого CD

Трек | Старт | Длительность | Начальный сектор | Конечный сектор
---------------------------------------------------------------------
1 | 0:00.00 | 5:49.62 | 0 | 26236
2 | 5:49.62 | 5:23.19 | 26237 | 50480
3 | 11:13.06 | 5:41.23 | 50481 | 76078
4 | 16:54.29 | 4:25.49 | 76079 | 96002
5 | 21:20.03 | 2:47.17 | 96003 | 108544
6 | 24:07.20 | 2:02.63 | 108545 | 117757
7 | 26:10.08 | 5:27.44 | 117758 | 142326
8 | 31:37.52 | 4:42.00 | 142327 | 163476
9 | 36:19.52 | 2:15.23 | 163477 | 173624
10 | 38:35.00 | 4:05.51 | 173625 | 192050
11 | 42:40.51 | 3:55.13 | 192051 | 209688
12 | 46:35.64 | 3:21.26 | 209689 | 224789
13 | 49:57.15 | 3:35.29 | 224790 | 240943
14 | 53:32.44 | 4:19.06 | 240944 | 260374
15 | 57:51.50 | 3:41.15 | 260375 | 276964


Характеристики диапазона извлечения и сообщения об ошибках

Выбранный диапазон

Имя файла E:\Neue Fail\2010-Blackmores Night - Autumn Sky\Blackmore's Night - Autumn Sky.wav

Пиковый уровень 98.9 %
Качество диапазона 100.0 %
CRC копии 579D9810
Копирование... OK

Ошибок не произошло


AccurateRip: сводка

Трек 1 нет в базе данных
Трек 2 нет в базе данных
Трек 3 нет в базе данных
Трек 4 нет в базе данных
Трек 5 нет в базе данных
Трек 6 нет в базе данных
Трек 7 нет в базе данных
Трек 8 нет в базе данных
Трек 9 нет в базе данных
Трек 10 нет в базе данных
Трек 11 нет в базе данных
Трек 12 нет в базе данных
Трек 13 нет в базе данных
Трек 14 нет в базе данных
Трек 15 нет в базе данных

Ни одного трека нет в базе AccurateRip

Конец отчёта


Many thanks to dmitka!

Tip: use JDownloader to simplify downloading.

(fileserve.com)
Download part 1 | Download part 2 | Download part 3 | Download part 4

(hotfile.com)
Download part 1 | Download part 2 | Download part 3 | Download part 4

(letitbit.net)
Download part 1 | Download part 2 | Download part 3 | Download part 4



Enjoy my blog >

ADVERTISING » Very Fast Download!



« ADVERTISING




Posted By: TheScrutinizer Date: 06 Sep 2010 04:38:39
Many thanks!
Posted By: RamuChinzah Date: 06 Sep 2010 05:03:45
Thanks alot.. chuks chuks chuks... :)
Posted By: fmce Date: 06 Sep 2010 09:40:10
Thank YOU very very much!!!
Posted By: SunRa01 Date: 06 Sep 2010 17:40:10
Many thanks for this excellent disc; Audiochecker calls it 100% cdda
Posted By: yoyoma777 Date: 07 Sep 2010 12:04:47
thnx a lot! Excellent!
Posted By: geovannyst1 Date: 15 Sep 2010 15:41:58
Thank you so much.
Posted By: Purpleslon Date: 12 Oct 2010 22:01:51
Many many thanks!