Loading...

Warrant - Original Album Classics (2011) [3CD Box Set, Sony Music, 88691901792]

Posted By : popsakov | Date : 29 Jun 2013 19:19:22 | Comments : 2 |
|



Warrant - Original Album Classics (2011)
EAC Rip | FLAC (Img) + Cue + Log ~ 1091 Mb | MP3 CBR320 ~ 395 Mb
Scans Included (PNG, 300 dpi) | RAR 5% Recovery
Hard Rock, Glam Metal, Heavy Metal | Columbia/Sony Music | 88691901792

Pop-Metal band formed in 1984, Warrant signed with Columbia in 1988 and released their debut in 1989 - "Dirty Rotten Filthy Stinking Rich", included in this album set, along with "Cherry Pie" (1990) and "Dog Eat Dog" (1992).

Biography by Stephen Thomas Erlewine:

With a pair of double-platinum albums and three Top Ten singles, Warrant were one of the most popular pop-metal bands of the late '80s. Formed in Los Angeles in 1984, the group weathered several lineup changes before solidifying around the talents of vocalist Jani Lane, guitarist Erik Turner, guitarist Joey Allen, bassist Jerry Dixon, and drummer Steven Sweet. The band signed with Columbia Records in January 1988 and released Dirty Rotten Filthy Stinking Rich one year later; by that summer, it had climbed into the Top Ten and launched the hit singles "Down Boys," "Sometimes She Cries," and "Heaven," the last of which reached number two on the American charts. Released in the summer of 1990, the follow-up effort Cherry Pie was an even bigger success, climbing into the Top Ten and featuring the high-charting singles "I Saw Red" and "Cherry Pie." Warrant had some trouble continuing their multi-platinum success during the alternative explosion of 1992, although their third album, Dog Eat Dog, did go gold. Ultraphobic (1995) and Belly to Belly (1996), however, failed to chart.

The band's lineup began to splinter as the '90s progressed, with the majority of Warrant's founding members leaving the group. Under the Influence arrived in 2001, comprised of various cover songs and two original tracks; it also marked Jani Lane's last recording with the band. He ultimately left in 2004, taking two of Warrant's members with him, and was replaced by former Black 'N Blue vocalist Jaime St. James. While Lane attempted a solo career, the revised version of Warrant released Born Again in 2006. Jaime St. James' tenure in the band proved to be very short, as he was ousted in 2008 in favor of Lane's return. Later that year, Lane left once again and was replaced by Lynch Mob's Rob Mason. Lane was found dead at the age of 47 in a Los Angeles hotel room in August 2011.

Warrant - Original Album Classics (2011):


CD1: Warrant - Dirty Rotten Filthy Stinking Rich (1989)
EAC Rip | FLAC (Img) + Cue + Log ~ 354 Mb | MP3 CBR320 ~ 130 Mb

Dirty Rotten Filthy Stinking Rich is the debut studio album by American rock band Warrant, released in 1989.
The album was highly successful, spawning the hit singles "Heaven" (#2, 1989), "Down Boys" (#27, 1989) and "Sometimes She Cries" (#20, 1990). The album peaked at number 10 on the Billboard 200.
The unique cover art features "Fugazi", an overpaid, amoral infrastructure manager and archetypal white business psychopath.
The first four words of the album's title ("Dirty Rotten Filthy Stinkin'...!") were mentioned in the intro to the title track of their 1990 follow-up album Cherry Pie.


Track List:

01. 32 Pennies [03:09]
02. Down Boys [04:05]
03. Big Talk [03:44]
04. Sometimes She Cries [04:45]
05. So Damn Pretty (Should Be Against The Law) [03:33]
06. D.R.F.S.R [03:19]
07. In The Sticks [04:06]
08. Heaven [03:58]
09. Ridin' High [03:07]
10. Cold Sweat [03:29]
11. Only A Man [04:24]
12. All Night Long [02:43]

EAC Log
Exact Audio Copy V1.0 beta 3 from 29. August 2011

EAC extraction logfile from 26. January 2013, 16:39

Warrant / Dirty Rotten Filthy Stinking Rich [Columbia 88691901792,CD1]

Used drive : Optiarc DVD RW AD-7200S Adapter: 5 ID: 1

Read mode : Secure
Utilize accurate stream : Yes
Defeat audio cache : Yes
Make use of C2 pointers : No

Read offset correction : 48
Overread into Lead-In and Lead-Out : No
Fill up missing offset samples with silence : Yes
Delete leading and trailing silent blocks : No
Null samples used in CRC calculations : Yes
Used interface : Installed external ASPI interface

Used output format : User Defined Encoder
Selected bitrate : 1024 kBit/s
Quality : High
Add ID3 tag : No
Command line compressor : D:\Program Files (x86)\Exact Audio Copy\wavpack.exe
Additional command line options : -hlmx2 %source% %dest%


TOC of the extracted CD

Track | Start | Length | Start sector | End sector
---------------------------------------------------------
1 | 0:00.00 | 3:09.60 | 0 | 14234
2 | 3:09.60 | 4:04.45 | 14235 | 32579
3 | 7:14.30 | 3:44.17 | 32580 | 49396
4 | 10:58.47 | 4:45.00 | 49397 | 70771
5 | 15:43.47 | 3:33.18 | 70772 | 86764
6 | 19:16.65 | 3:19.05 | 86765 | 101694
7 | 22:35.70 | 4:05.67 | 101695 | 120136
8 | 26:41.62 | 3:57.23 | 120137 | 137934
9 | 30:39.10 | 3:07.02 | 137935 | 151961
10 | 33:46.12 | 3:33.23 | 151962 | 167959
11 | 37:19.35 | 4:21.60 | 167960 | 187594
12 | 41:41.20 | 2:41.40 | 187595 | 199709


Range status and errors

Selected range

Filename D:\eac\Warrant\CD1\Warrant - Dirty Rotten Filthy Stinking Rich [Columbia 88691901792,CD1].wav

Peak level 100.0 %
Extraction speed 3.7 X
Range quality 100.0 %
Test CRC 149A8242
Copy CRC 149A8242
Copy OK

No errors occurred


AccurateRip summary

Track 1 cannot be verified as accurate (confidence 8) [0B24D313], AccurateRip returned [75C1CE0E] (AR v2)
Track 2 cannot be verified as accurate (confidence 8) [68B0C779], AccurateRip returned [A8734773] (AR v2)
Track 3 cannot be verified as accurate (confidence 8) [51B60181], AccurateRip returned [9150F2F4] (AR v2)
Track 4 cannot be verified as accurate (confidence 8) [D67D91A0], AccurateRip returned [FB941061] (AR v2)
Track 5 cannot be verified as accurate (confidence 8) [2D52E151], AccurateRip returned [E0057140] (AR v2)
Track 6 cannot be verified as accurate (confidence 8) [50E15747], AccurateRip returned [E2F96712] (AR v2)
Track 7 cannot be verified as accurate (confidence 8) [51A7D65A], AccurateRip returned [C0AADFF2] (AR v2)
Track 8 cannot be verified as accurate (confidence 8) [38E3FE98], AccurateRip returned [FDFC18A1] (AR v2)
Track 9 cannot be verified as accurate (confidence 8) [52F0452D], AccurateRip returned [2DCA6609] (AR v2)
Track 10 cannot be verified as accurate (confidence 8) [ADDA3259], AccurateRip returned [24AB1A59] (AR v2)
Track 11 cannot be verified as accurate (confidence 8) [D7072424], AccurateRip returned [04A2E199] (AR v2)
Track 12 cannot be verified as accurate (confidence 8) [5F91BA9D], AccurateRip returned [FA26B4DF] (AR v2)

No tracks could be verified as accurate
You may have a different pressing from the one(s) in the database

End of status report

---- CUETools DB Plugin V2.1.3

[CTDB TOCID: FqYjqbeOBcteC6GtZ2YGJETprIM-] found, Submit result: FqYjqbeOBcteC6GtZ2YGJETprIM- has been confirmed
[b4b8c616] (14/14) Accurately ripped


==== Log checksum EBB0A44F2D402D0196A3F893245A8CC1E33797B936BC31FE995CFA1ACBBD0F9C ====

DR Log
foobar2000 1.2.3 / Dynamic Range Meter 1.1.1
log date: 2013-06-28 23:58:20

--------------------------------------------------------------------------------
Analyzed: Warrant / Dirty Rotten Filthy Stinking Rich [Columbia 88691901792,CD1]
--------------------------------------------------------------------------------

DR Peak RMS Duration Track
--------------------------------------------------------------------------------
DR8 -1.01 dB -10.22 dB 3:10 01-32 Pennies
DR8 -0.01 dB -10.01 dB 4:05 02-Down Boys
DR8 -0.01 dB -9.03 dB 3:44 03-Big Talk
DR8 -0.51 dB -9.82 dB 4:45 04-Sometimes She Cries
DR7 -0.31 dB -8.86 dB 3:33 05-So Damn Pretty (Should Be Against The Law)
DR8 -0.01 dB -9.59 dB 3:19 06-D.R.F.S.R
DR8 0.00 dB -9.44 dB 4:06 07-In The Sticks
DR8 -0.01 dB -10.38 dB 3:57 08-Heaven
DR7 -0.01 dB -8.90 dB 3:07 09-Ridin' High
DR8 -0.01 dB -9.20 dB 3:33 10-Cold Sweat
DR8 -1.01 dB -11.60 dB 4:22 11-Only A Man
DR9 -0.01 dB -10.54 dB 2:42 12-All Night Long
--------------------------------------------------------------------------------

Number of tracks: 12
Official DR value: DR8

Samplerate: 44100 Hz
Channels: 2
Bits per sample: 16
Bitrate: 981 kbps
Codec: FLAC
================================================================================

***************


CD2: Warrant - Cherry Pie (1990)
EAC Rip | FLAC (Img) + Cue + Log ~ 368 Mb | MP3 CBR320 ~ 128 Mb

Cherry Pie is the second studio album by American rock band Warrant. The record - which spawned the hits "Cherry Pie", "Uncle Tom's Cabin", and "I Saw Red" - is the band's best-known and highest-selling release. The album peaked at number 7 on The Billboard 200.


Track List:

01. Cherry Pie [03:21]
02. Uncle Tom's Cabin [04:01]
03. I Saw Red [03:47]
04. Bed Of Roses [04:04]
05. Sure Feels Good To Me [02:39]
06. Love In Stereo [03:07]
07. Blind Faith [03:33]
08. Song And Dance Man [02:58]
09. You're The Only Hell Your Mama Ever Raised [03:33]
10. Mr. Rainmaker [03:29]
11. Train, Train [02:49]
12. Ode To Tipper Gore [00:55]
13. Game Of War [03:41]
14. The Power [03:00]

EAC Log
Exact Audio Copy V1.0 beta 3 from 29. August 2011

EAC extraction logfile from 26. January 2013, 17:23

Warrant / Cherry Pie [Columbia 88691901792,CD2]

Used drive : Optiarc DVD RW AD-7200S Adapter: 5 ID: 1

Read mode : Secure
Utilize accurate stream : Yes
Defeat audio cache : Yes
Make use of C2 pointers : No

Read offset correction : 48
Overread into Lead-In and Lead-Out : No
Fill up missing offset samples with silence : Yes
Delete leading and trailing silent blocks : No
Null samples used in CRC calculations : Yes
Used interface : Installed external ASPI interface

Used output format : User Defined Encoder
Selected bitrate : 1024 kBit/s
Quality : High
Add ID3 tag : No
Command line compressor : D:\Program Files (x86)\Exact Audio Copy\wavpack.exe
Additional command line options : -hlmx2 %source% %dest%


TOC of the extracted CD

Track | Start | Length | Start sector | End sector
---------------------------------------------------------
1 | 0:00.00 | 3:21.02 | 0 | 15076
2 | 3:21.02 | 4:01.38 | 15077 | 33189
3 | 7:22.40 | 3:46.60 | 33190 | 50199
4 | 11:09.25 | 4:04.07 | 50200 | 68506
5 | 15:13.32 | 2:39.33 | 68507 | 80464
6 | 17:52.65 | 3:06.50 | 80465 | 94464
7 | 20:59.40 | 3:32.70 | 94465 | 110434
8 | 24:32.35 | 2:57.57 | 110435 | 123766
9 | 27:30.17 | 3:33.43 | 123767 | 139784
10 | 31:03.60 | 3:28.62 | 139785 | 155446
11 | 34:32.47 | 2:49.10 | 155447 | 168131
12 | 37:21.57 | 0:58.28 | 168132 | 172509
13 | 38:20.10 | 3:37.50 | 172510 | 188834
14 | 41:57.60 | 3:00.07 | 188835 | 202341


Range status and errors

Selected range

Filename D:\eac\Warrant\CD2\Warrant - Cherry Pie [Columbia 88691901792,CD2].wav

Peak level 99.8 %
Extraction speed 3.7 X
Range quality 100.0 %
Test CRC 8F20402D
Copy CRC 8F20402D
Copy OK

No errors occurred


AccurateRip summary

Track 1 cannot be verified as accurate (confidence 15) [31FA71D0], AccurateRip returned [5156D09D] (AR v2)
Track 2 cannot be verified as accurate (confidence 15) [1200A1A7], AccurateRip returned [BA5C574A] (AR v2)
Track 3 cannot be verified as accurate (confidence 15) [650A4066], AccurateRip returned [631D6D66] (AR v2)
Track 4 cannot be verified as accurate (confidence 15) [9CA5D107], AccurateRip returned [3B368B4C] (AR v2)
Track 5 cannot be verified as accurate (confidence 15) [5886B30E], AccurateRip returned [B22BB9A6] (AR v2)
Track 6 cannot be verified as accurate (confidence 15) [A2C9D2D1], AccurateRip returned [7ABF78E2] (AR v2)
Track 7 cannot be verified as accurate (confidence 15) [52580BA8], AccurateRip returned [E14AE18D] (AR v2)
Track 8 cannot be verified as accurate (confidence 15) [CF1B6C7B], AccurateRip returned [5E12CD68] (AR v2)
Track 9 cannot be verified as accurate (confidence 15) [CD5B588F], AccurateRip returned [F5638189] (AR v2)
Track 10 cannot be verified as accurate (confidence 15) [E01A43CF], AccurateRip returned [A332C8BC] (AR v2)
Track 11 cannot be verified as accurate (confidence 15) [817BE385], AccurateRip returned [3031BD8E] (AR v2)
Track 12 cannot be verified as accurate (confidence 15) [BC437B69], AccurateRip returned [26003618] (AR v2)
Track 13 cannot be verified as accurate (confidence 15) [70D1B89A], AccurateRip returned [FF311957] (AR v2)
Track 14 cannot be verified as accurate (confidence 14) [9CD3703E], AccurateRip returned [D95ED761] (AR v2)

No tracks could be verified as accurate
You may have a different pressing from the one(s) in the database

End of status report

---- CUETools DB Plugin V2.1.3

[CTDB TOCID: yVtGkpFyoZn3s2d7ZMlbi_KHQS0-] found, Submit result: yVtGkpFyoZn3s2d7ZMlbi_KHQS0- has been confirmed
[3421e139] (22/22) Accurately ripped


==== Log checksum 27B99E2A5E117A2AE7BB483551F062C818CA9A4C11AA61B17E43FA81FE7FF307 ====

DR Log
foobar2000 1.2.3 / Dynamic Range Meter 1.1.1
log date: 2013-06-29 00:02:16

--------------------------------------------------------------------------------
Analyzed: Warrant / Cherry Pie [Columbia 88691901792,CD2]
--------------------------------------------------------------------------------

DR Peak RMS Duration Track
--------------------------------------------------------------------------------
DR8 -0.01 dB -9.40 dB 3:21 01-Cherry Pie
DR9 -0.01 dB -11.42 dB 4:02 02-Uncle Tom's Cabin
DR9 -0.01 dB -11.56 dB 3:47 03-I Saw Red
DR9 -0.01 dB -11.13 dB 4:04 04-Bed Of Roses
DR8 -0.01 dB -9.27 dB 2:39 05-Sure Feels Good To Me
DR9 -0.01 dB -10.02 dB 3:07 06-Love In Stereo
DR9 -0.01 dB -12.12 dB 3:33 07-Blind Faith
DR8 -0.01 dB -10.59 dB 2:58 08-Song And Dance Man
DR9 -0.01 dB -10.87 dB 3:34 09-You're The Only Hell Your Mama Ever Raised
DR8 -0.01 dB -9.70 dB 3:29 10-Mr. Rainmaker
DR9 -0.01 dB -10.19 dB 2:49 11-Train, Train
DR11 -0.01 dB -14.45 dB 0:58 12-Ode To Tipper Gore
DR9 -0.01 dB -10.28 dB 3:38 13-Game Of War
DR10 -0.01 dB -10.84 dB 3:00 14-The Power
--------------------------------------------------------------------------------

Number of tracks: 14
Official DR value: DR9

Samplerate: 44100 Hz
Channels: 2
Bits per sample: 16
Bitrate: 1020 kbps
Codec: FLAC
================================================================================

***************


CD3: Warrant - Dog Eat Dog (1992)
EAC Rip | FLAC (Img) + Cue + Log ~ 369 Mb | MP3 CBR320 ~ 136 Mb

Dog Eat Dog was the third music album by American rock band Warrant. It was released on August 25, 1992 on the Columbia label of Sony Music. The album peaked at number 25 on The Billboard 200.
The album achieved "gold" status in the United States, but was significantly less successful in a commercial sense than the band's first two albums. It is, nonetheless, regarded by most critics as Warrant's strongest record, and a favorite among many devoted fans. The tone and style of the album could be said to be the last stage of the glam metal style during the 80s. It is also the last album to feature all five original members.


Track List:

01. Machine Gun [03:43]
02. The Hole In My Wall [03:31]
03. April 2031 [05:05]
04. Andy Warhol Was Right [03:37]
05. Bonfire [04:21]
06. The Bitter Pill [04:07]
07. Hollywood (So Far, So Good) [03:46]
08. All My Bridges Are Burning [03:37]
09. Quicksand [03:58]
10. Let It Rain [04:16]
11. Inside Out [03:14]
12. Sad Theresa [03:51]

EAC Log
Exact Audio Copy V1.0 beta 3 from 29. August 2011

EAC extraction logfile from 26. January 2013, 18:01

Warrant / Dog Eat Dog [Columbia 88691901792,CD3]

Used drive : Optiarc DVD RW AD-7200S Adapter: 5 ID: 1

Read mode : Secure
Utilize accurate stream : Yes
Defeat audio cache : Yes
Make use of C2 pointers : No

Read offset correction : 48
Overread into Lead-In and Lead-Out : No
Fill up missing offset samples with silence : Yes
Delete leading and trailing silent blocks : No
Null samples used in CRC calculations : Yes
Used interface : Installed external ASPI interface

Used output format : User Defined Encoder
Selected bitrate : 1024 kBit/s
Quality : High
Add ID3 tag : No
Command line compressor : D:\Program Files (x86)\Exact Audio Copy\wavpack.exe
Additional command line options : -hlmx2 %source% %dest%


TOC of the extracted CD

Track | Start | Length | Start sector | End sector
---------------------------------------------------------
1 | 0:00.00 | 3:43.43 | 0 | 16767
2 | 3:43.43 | 3:30.35 | 16768 | 32552
3 | 7:14.03 | 5:05.10 | 32553 | 55437
4 | 12:19.13 | 3:37.30 | 55438 | 71742
5 | 15:56.43 | 4:20.70 | 71743 | 91312
6 | 20:17.38 | 4:06.52 | 91313 | 109814
7 | 24:24.15 | 3:46.48 | 109815 | 126812
8 | 28:10.63 | 3:37.02 | 126813 | 143089
9 | 31:47.65 | 3:57.70 | 143090 | 160934
10 | 35:45.60 | 4:15.70 | 160935 | 180129
11 | 40:01.55 | 3:40.15 | 180130 | 196644
12 | 43:41.70 | 3:24.63 | 196645 | 212007


Range status and errors

Selected range

Filename D:\eac\Warrant\CD3\Warrant - Dog Eat Dog [Columbia 88691901792,CD3].wav

Peak level 100.0 %
Extraction speed 3.8 X
Range quality 100.0 %
Test CRC 0639C6AC
Copy CRC 0639C6AC
Copy OK

No errors occurred


AccurateRip summary

Track 1 not present in database
Track 2 not present in database
Track 3 not present in database
Track 4 not present in database
Track 5 not present in database
Track 6 not present in database
Track 7 not present in database
Track 8 not present in database
Track 9 not present in database
Track 10 not present in database
Track 11 not present in database
Track 12 not present in database

None of the tracks are present in the AccurateRip database

End of status report

---- CUETools DB Plugin V2.1.3

[CTDB TOCID: xcbx7PLwDT.0dcXn1XesrrmXkWY-] disk not present in database, Submit result: xcbx7PLwDT.0dcXn1XesrrmXkWY- has been uploaded


==== Log checksum 87C620BF1B4E9266B6EEA9D6532AA393E46E8C77FE5D355451BD761673116FF9 ====

DR Log
foobar2000 1.2.3 / Dynamic Range Meter 1.1.1
log date: 2013-06-29 00:06:05

--------------------------------------------------------------------------------
Analyzed: Warrant / Dog Eat Dog [Columbia 88691901792,CD3]
--------------------------------------------------------------------------------

DR Peak RMS Duration Track
--------------------------------------------------------------------------------
DR9 0.00 dB -10.11 dB 3:44 01-Machine Gun
DR10 0.00 dB -10.71 dB 3:30 02-The Hole In My Wall
DR10 0.00 dB -11.87 dB 5:05 03-April 2031
DR10 0.00 dB -15.28 dB 3:37 04-Andy Warhol Was Right
DR10 0.00 dB -10.58 dB 4:21 05-Bonfire
DR10 -0.14 dB -12.31 dB 4:07 06-The Bitter Pill
DR10 0.00 dB -10.76 dB 3:47 07-Hollywood (So Far, So Good)
DR9 0.00 dB -10.48 dB 3:37 08-All My Bridges Are Burning
DR10 0.00 dB -11.33 dB 3:58 09-Quicksand
DR9 -0.19 dB -12.60 dB 4:16 10-Let It Rain
DR10 0.00 dB -10.97 dB 3:40 11-Inside Out
DR10 -0.32 dB -12.52 dB 3:25 12-Sad Theresa
--------------------------------------------------------------------------------

Number of tracks: 12
Official DR value: DR10

Samplerate: 44100 Hz
Channels: 2
Bits per sample: 16
Bitrate: 970 kbps
Codec: FLAC
================================================================================


All thanks go to taurus66

Visit my blog!

Download:

Uploaded | DFiles

pass: www.AvaxHome.ru
ADVERTISING » Very Fast Download!



« ADVERTISING




Posted By: ePhysician Date: 30 Jun 2013 04:16:00
Great Blog Post with the Bonus Tracks. Thank you!
Posted By: calisan Date: 05 Jul 2013 13:06:28
Yo compré sus 2 primeros discos en su epoca? Diablos en que pensaba? jeje, pero creo q' eran buenos para su epoca. Gracias!