Loading...

Molly Hatchet - No Guts... No Glory (1983) [SPV Remastered Reissue 2008]

Posted By : Shar'EmAll | Date : 24 Aug 2010 10:10:00 | Comments : 4 |
|



Molly Hatchet - No Guts... No Glory (1983/2008)
EAC | FLAC-IMG+CUE+LOG - 289 MB | Complete Scans - 53 MB | MP3 CBR 320 Kbps - 94 MB
Genre: Hard Rock / Southern Rock | 41:31 minutes | Label: SPV GmbH # 92162 CD

No Guts...No Glory is the fifth studio album by great American southern rock band Molly Hatchet, released in 1983. Original vocalist Danny Joe Brown returns for this recording. It is their only album not to feature an epic, fantasy themed cover.


With Danny Joe Brown's return as frontman, Molly Hatchet experienced a return to the powerful sound that was so prevalent on its debut effort. Dave Hlubek once again pulls out all the stops with searing guitar riffs and power chords that at times evoke images of the best Lynyrd Skynyrd record, while at other times letting his guitar underscore Brown's vocals in a hard rock vein reminicent of Mountain or early Grand Funk Railroad. A lot of the power here comes from the addition of former Mother's Finest drummer Barry Borden into the lineup. Choice tracks include "Fall of the Peacemakers," "On the Prowl," and "Sweet Dixie." Former Grinderswitch axeman Dru Lumbar adds even more excitement to an otherwise fine record.

-- Reviews by Michael B. Smith, allmusic com


Tracklist:

01. What Does It Matter?
02. Ain't Even Close
03. Sweet Dixie
04. Fall Of The Peacemakers
05. What's It Gonna Take?
06. Kinda Like Love
07. Under The Gun
08. On The Prowl
09. Both Sides

Produced by Tom Werman in assistance from Dave Hlubek and Duane Roland.

- Danny Joe Braun: lead vocals
- Duane Roland: guitars, background vocals
- Dave Hlubek: guitar, background vocals
- Steve Holland: guitars
- Dru Lumbar: guitar
- Riff West: bass guitar, background vocals
- Barry Borden: drums
* Jai Winding: keyboard

The quality of sound on this reissue is OK.
Not compressed/brickwalled, almost like here
Enjoy!

All thanks goes to Gordyi!

EAC LOG
Exact Audio Copy V0.99 prebeta 4 from 23. January 2008

EAC extraction logfile from 26. August 2008, 13:38

Molly Hatchet / No Guts... No Glory

Used drive : TSSTcorpCD/DVDW SH-S182M Adapter: 4 ID: 0

Read mode : Secure
Utilize accurate stream : Yes
Defeat audio cache : Yes
Make use of C2 pointers : No

Read offset correction : 6
Overread into Lead-In and Lead-Out : No
Fill up missing offset samples with silence : Yes
Delete leading and trailing silent blocks : No
Null samples used in CRC calculations : Yes
Used interface : Installed external ASPI interface

Used output format : Internal WAV Routines
Sample format : 44.100 Hz; 16 Bit; Stereo


TOC of the extracted CD

Track | Start | Length | Start sector | End sector
---------------------------------------------------------
1 | 0:00.00 | 3:33.36 | 0 | 16010
2 | 3:33.36 | 4:37.03 | 16011 | 36788
3 | 8:10.39 | 3:55.70 | 36789 | 54483
4 | 12:06.34 | 8:03.54 | 54484 | 90762
5 | 20:10.13 | 4:00.33 | 90763 | 108795
6 | 24:10.46 | 4:09.67 | 108796 | 127537
7 | 28:20.38 | 3:55.20 | 127538 | 145182
8 | 32:15.58 | 4:08.02 | 145183 | 163784
9 | 36:23.60 | 5:07.26 | 163785 | 186835


Range status and errors

Selected range

Filename F:\Release\Molly Hatchet - No Guts... No Glory\Molly Hatchet - No Guts... No Glory.wav

Peak level 100.0 %
Range quality 99.9 %
Test CRC 5DFEF55D
Copy CRC 5DFEF55D
Copy OK

No errors occurred


AccurateRip summary

Track 1 not present in database
Track 2 not present in database
Track 3 not present in database
Track 4 not present in database
Track 5 not present in database
Track 6 not present in database
Track 7 not present in database
Track 8 not present in database
Track 9 not present in database

None of the tracks are present in the AccurateRip database

End of status report
_________________________________

Track [ CRC ] Status
01 [35a64698] (01/01) Accurately ripped as in pressing(s) #1
02 [4368a9a8] (01/01) Accurately ripped as in pressing(s) #1
03 [7fb8d804] (01/01) Accurately ripped as in pressing(s) #1
04 [03dfbb0e] (01/01) Accurately ripped as in pressing(s) #1
05 [0b51c1aa] (01/01) Accurately ripped as in pressing(s) #1
06 [1c2b7a4a] (01/01) Accurately ripped as in pressing(s) #1
07 [2b000ff1] (01/01) Accurately ripped as in pressing(s) #1
08 [b0677053] (01/01) Accurately ripped as in pressing(s) #1
09 [11653f43] (01/01) Accurately ripped as in pressing(s) #1

Track [ CRC32 ] [W/O NULL] [ LOG ]
-- [5DFEF55D] [2C2893B6] CRC32
01 [4B32FD82] [BE7AC923]
02 [86582875] [E74F5088]
03 [3E52D81F] [757DFD97]
04 [342BB7CF] [08CD6997]
05 [C00F531B] [C76268BD]
06 [0778B5CF] [BA86300F]
07 [873EBD6C] [7384DBA0]
08 [30CE35E7] [29612A33]
09 [B58F409C] [832CCE96]


DOWNLOAD: Molly Hatchet - No Guts... No Glory [SPV Remastered Reissue 2008]

FileServe

LOSSLESS
http://www.fileserve.com/file/m37HMst/MollyL1983.part1.rar
http://www.fileserve.com/file/ugQFnHK/MollyL1983.part2.rar
http://www.fileserve.com/file/sqpK95v/MollyL1983.part3.rar

Scans
http://www.fileserve.com/file/pvvHSXX/MollyC1983.rar

MP3
http://www.fileserve.com/file/BD3F5Pp/MollyM1983.rar


FileSonic
LOSSLESS
http://www.filesonic.com/file/57081444/MollyL1983.part1.rar
http://www.filesonic.com/file/17443533/MollyL1983.part2.rar
http://www.filesonic.com/file/57078148/MollyL1983.part3.rar

Scans
http://www.filesonic.com/file/17443447/MollyC1983.rar

MP3
http://www.filesonic.com/file/17467825/MollyM1983.rar


Hotfile
LOSSLESS
http://hotfile.com/dl/64059920/ff503ff/MollyL1983.part1.rar
http://hotfile.com/dl/64060570/4f608a6/MollyL1983.part2.rar
http://hotfile.com/dl/64060729/b21550b/MollyL1983.part3.rar

Scans
http://hotfile.com/dl/64059628/962133e/MollyC1983.rar

MP3
http://hotfile.com/dl/64060936/1aa5a0e/MollyM1983.rar


The files are interchangeable. Recovery info has included.

ADVERTISING » Very Fast Download!



« ADVERTISING




Posted By: v3122 Date: 24 Aug 2010 10:27:42
Thank you very much!
Posted By: firepower Date: 24 Aug 2010 13:57:14
Thanks a lot for the lossless copy!
Posted By: Spanky2 Date: 20 Dec 2010 23:46:36
Thanks a lot!
Posted By: JFKONE Date: 17 Oct 2012 14:08:30
Great stuff...any chance of re-upping just the .mp3 and cover files somewhere?