Loading...

Chris Rea - MTV Music History Greatest Hits Chris Rea 2CD

Posted By : Hagalex | Date : 06 Dec 2010 14:44:50 | Comments : 1 |
|



Chris Rea - MTV Music History Greatest Hits Chris Rea 2CD (2001)
EAC Rip | FLAC(tracks)+LOG+CUE | Mp3 320k CBR | NO SCANS
Genre: Rock | Compilation album | Label: Unknown | Host: Rapid, Hotfile, Deposit

Chris Rea (born Christopher Anton Rea, 4 March 1951, Middlesbrough), North Yorkshire is an English singer-songwriter, recognisable for his distinctive, husky voice and slide guitar playing.[2] The British Hit Singles & Albums stated that Rea was "one of the most popular UK singer-songwriters of the late 1980s. He was already a major European star by the time he finally cracked the UK Top 10 with his 18th chart entry; "The Road to Hell (Part 2)". By 2009, Rea had sold more than 30 million albums worldwide.

Although Rea had limited success in the United States, two of his albums, The Road to Hell and Auberge, topped the UK Albums Chart. The book Guinness Rockopedia described him as a "gravel-voiced guitar stalwart".



Exact Audio Copy log file Disc One
Exact Audio Copy V0.99 prebeta 3 from 28. July 2007

Отчёт EAC об извлечении, выполненном 4. июня 2008, 6:04

Chris Rea / Music History. Greatest Hits (CD 1)

Дисковод: _NEC DVD_RW ND-4551A Adapter: 0 ID: 1

Режим чтения : Достоверность
Использование точного потока : Да
Отключение кэша аудио : Да
Использование указателей C2 : Нет

Коррекция смещения при чтении : 48
Способность читать области Lead-in и Lead-out : Нет
Заполнение пропущенных сэмплов тишиной : Да
Удаление блоков с тишиной в начале и конце : Нет
При вычислениях CRC использовались нулевые сэмплы : Нет
Интерфейс : Установленный внешний ASPI-интерфейс

Выходной формат : Внутренние WAV-операции
Формат сэмплов : 44.100 Гц; 16 бит; стерео


TOC извлечённого CD

Трек | Старт | Длительность | Начальный сектор | Конечный сектор
---------------------------------------------------------------------
1 | 0:00.00 | 5:00.28 | 0 | 22527
2 | 5:00.28 | 5:25.09 | 22528 | 46911
3 | 10:25.37 | 4:35.35 | 46912 | 67571
4 | 15:00.72 | 4:15.29 | 67572 | 86725
5 | 19:16.26 | 7:17.40 | 86726 | 119540
6 | 26:33.66 | 6:16.18 | 119541 | 147758
7 | 32:50.09 | 4:28.61 | 147759 | 167919
8 | 37:18.70 | 4:42.48 | 167920 | 189117
9 | 42:01.43 | 3:33.05 | 189118 | 205097
10 | 45:34.48 | 4:48.24 | 205098 | 226721
11 | 50:22.72 | 6:30.38 | 226722 | 256009
12 | 56:53.35 | 4:00.15 | 256010 | 274024
13 | 60:53.50 | 5:09.46 | 274025 | 297245
14 | 66:03.21 | 4:42.40 | 297246 | 318435
15 | 70:45.61 | 4:22.53 | 318436 | 338138
16 | 75:08.39 | 4:46.65 | 338139 | 359653


Характеристики диапазона извлечения и сообщения об ошибках

Выбранный диапазон

Имя файла C:\Chris Rea - Music History. Greatest Hits (CD 1).wav

Пиковый уровень 100.0 %
Качество диапазона 99.8 %
CRC копии C0299256
Копирование... OK

Ошибок не произошло

Конец отчёта


Disc One
1. (00:05:00) Chris Rea - Looking For The Summer
2. (00:05:25) Chris Rea - And You My Love
3. (00:04:35) Chris Rea - Josephine
4. (00:04:15) Chris Rea - Little Blonde Plaits
5. (00:07:18) Chris Rea - Auberge
6. (00:06:16) Chris Rea - Curse Of The Traveller
7. (00:04:29) Chris Rea - Where Do We Go From Here
8. (00:04:43) Chris Rea - Candles
9. (00:03:33) Chris Rea - Sing A Song Of Love Me
10. (00:04:48) Chris Rea - The Blue Cafe
11. (00:06:31) Chris Rea - Johnny Needs A Fast Cag
12. (00:04:00) Chris Rea - Stick By You
13. (00:05:10) Chris Rea - Every Second Count
14. (00:04:43) Chris Rea - Gone Fishing
15. (00:04:23) Chris Rea - Your Warm And Tender Love
16. (00:04:24) Chris Rea - You Must Be Evil


Playing Time.........: 01:19:26
Total Size...........: 505,21 MB


Exact Audio Copy log file Disc Two
Exact Audio Copy V0.99 prebeta 3 from 28. July 2007

Отчёт EAC об извлечении, выполненном 4. июня 2008, 6:54

Chris Rea / Music History. Greatest Hits (CD 2)

Дисковод: _NEC DVD_RW ND-4551A Adapter: 0 ID: 1

Режим чтения : Достоверность
Использование точного потока : Да
Отключение кэша аудио : Да
Использование указателей C2 : Нет

Коррекция смещения при чтении : 48
Способность читать области Lead-in и Lead-out : Нет
Заполнение пропущенных сэмплов тишиной : Да
Удаление блоков с тишиной в начале и конце : Нет
При вычислениях CRC использовались нулевые сэмплы : Нет
Интерфейс : Установленный внешний ASPI-интерфейс

Выходной формат : Внутренние WAV-операции
Формат сэмплов : 44.100 Гц; 16 бит; стерео


TOC извлечённого CD

Трек | Старт | Длительность | Начальный сектор | Конечный сектор
---------------------------------------------------------------------
1 | 0:00.00 | 4:26.58 | 0 | 20007
2 | 4:26.58 | 4:44.37 | 20008 | 41344
3 | 9:11.20 | 4:56.54 | 41345 | 63598
4 | 14:07.74 | 4:46.54 | 63599 | 85102
5 | 18:54.53 | 7:19.39 | 85103 | 118066
6 | 26:14.17 | 4:28.20 | 118067 | 138186
7 | 30:42.37 | 3:33.47 | 138187 | 154208
8 | 34:16.09 | 4:01.27 | 154209 | 172310
9 | 38:17.36 | 5:31.14 | 172311 | 197149
10 | 43:48.50 | 4:14.64 | 197150 | 216263
11 | 48:03.39 | 6:50.49 | 216264 | 247062
12 | 54:54.13 | 4:19.44 | 247063 | 266531
13 | 59:13.57 | 3:32.41 | 266532 | 282472
14 | 62:46.23 | 4:50.08 | 282473 | 304230
15 | 67:36.31 | 3:26.49 | 304231 | 319729
16 | 71:03.05 | 4:24.15 | 319730 | 339544
17 | 75:27.20 | 4:18.46 | 339545 | 358940


Характеристики диапазона извлечения и сообщения об ошибках

Выбранный диапазон

Имя файла C:\Chris Rea - Music History. Greatest Hits (CD 2).wav

Пиковый уровень 100.0 %
Качество диапазона 99.9 %
CRC копии DF615614
Копирование... OK

Ошибок не произошло

Конец отчёта


Disc Two:
1. (00:04:27) Chris Rea - The Road To Hell
2. (00:04:44) Chris Rea - Sweet Summer Day
3. (00:04:57) Chris Rea - I'm Still Holding On
4. (00:04:47) Chris Rea - As Long As I Have Your Love
5. (00:07:20) Chris Rea - Nothing To Fear
6. (00:04:28) Chris Rea - Winter Song
7. (00:03:34) Chris Rea - I Just Wanna Be With You
8. (00:04:01) Chris Rea - Windy Town
9. (00:05:31) Chris Rea - You Must Follow
10. (00:04:15) Chris Rea - Let's Dance
11. (00:06:51) Chris Rea - On The Beach
12. (00:04:20) Chris Rea - That's What They Allways Say
13. (00:03:33) Chris Rea - Thinking Of You
14. (00:04:50) Chris Rea - Between The Devil And The Deep Blue Sea
15. (00:03:27) Chris Rea - I Can Hear Your Heartbeat
16. (00:04:47) Chris Rea - Shadows Of The Big Man
17. (00:04:19) Chris Rea - Hello Friend

Playing Time.........: 01:19:59
Total Size...........: 522,56 MB


*** Thanks to the original releaser! ***

Hotfile:
Part1 | Part2 | Part3
Part4 | Part5 | Part6
Part7 | Part8 | Part9


Rapidshare:
Part1 | Part2 | Part3
Part4 | Part5 | Part6
Part7 | Part8 | Part9

Depositfiles:
Part1 | Part2 | Part3
Part4 | Part5 | Part6
Part7 | Part8 | Part9

--------------0----------0----------------

Mp3 320k CBR

Hotfile:
Part1 | Part2 | Part3

Rapidshare:
Part1 | Part2 | Part3

Depositfiles:
Part1 | Part2 | Part3

Welcome on my blog! :)

ADVERTISING » Very Fast Download!



« ADVERTISING




Posted By: freddie007 Date: 07 Dec 2010 01:40:26
thank you very much hagalex..this greatest hits are so beautiful.....!! :)