Loading...

Join In - Kentalope Island (1974)

Posted By : pr0gger | Date : 12 Apr 2010 20:34:43 | Comments : 3 |
|



Join In - Kentalope Island (1974)
reissue of 2003
EAC | FLAC tracks +CUE +LOG +600 dpi Full Scans = 532 Mb | RAR 3% | RS
Genre: Progressive Rock / Jazz-rock / Canterbury sound | Label: Garden of Delights | Catalog Number: CD 087

Unger's Wonderful World of Progressive Rock:
... With engineering credits given to Eroc back in 1974 this album blends heavy jazz and progressive rock elements into a very captivating album. I do not really think this album fits the genre of the Krautrockers and instead feels more like Canterbury as a sub genre. Musically these guys were amazing too mixing saxes, organ, guitar with a steady core of bass and drum in support. My favorite track is the self titled Kentalope Island which creates a Sun-Ra like space vibe to the mix. A very interesting album and for those who like to explore in new directions will likely find a little relief here.

Booklet linear notes:
Join In hail from Marl, a city situated in the Northern part of the Ruhr district area. During their long-standing career, they became known by the many changes - not only in their line-up but also in their style of music. They began by playing blues-rock in the late sixties, then changed to hard rock and ended up playing jazz-rock, each style containing progressive elements. In the end, they didn't even consider themselves good enough to be doing humorous skits on-stage a-la Grobschnitt.
From the very beginning the elemental and creative power of Join In had been the drummer Edward "Eddy" Friedrich. In 1968 he founded his own band, Join In, the name being his idea - before that, he had performed with two insignificant beat bands. Co-founders had been Jörg Radeck on guitar and Udo Dobrzanski on bass. Only a few months later, in January 1969, they recruited Walter Biermann, a new man on bass. With him in the fold, their style changed to a much harder sound with elements of rock. Comparisons in the true sense of the word couldn’t yet have been drawn; however, in the beginning, such influences as Cream, Ten Years After and John Mayall’s Bluesbreakers can be heard in their music, and later - Spooky Tooth, Jethro Tull, Black Sabbath and Deep Purple.
In the early seventies, their sound tended more and more towards jazz-rock. In 1970 and 1971, they took part in the beat contest at Recklinghausen and were placed together with a few other ‘firsts’. The ‘beat contest’, located in the Vestlandhalle, had preserved its name since the sixties. More information about the festival and that part of musical history can be found in the highly recommended book "Beatgeschichte(n) im Revier" by Horst-D. Mannel and Rainer Obeling, edited in Recklinghausen in 1993. At the contest in Dortmund, located at the Blow Up, they were placed second. The changes in their line-up kept occurring: Rodrigo Ramor, vocals, stayed with the band only for a few more months before leaving for Think. Walter Biermann, too, bid his farewell, and in came, from the Philharmonia Hungarica, the Hungarian brothers Joschka and Janosch Balint. Joschka played bass, Janosch – piano; he later paved the way for the LP named after him. He was, in turn, replaced by Wilfried Jens, who played the second guitar. Joschka was replaced by Werner Bleck on bass, and sixteen-year-old Udo Custodis was hired to play sax. All business matters were being taken care of by Berthold Hariegel. With this line-up, they decided to record an LP similar in style to Think’s "Variety", released one year prior. The recordings took place in the Spring of 1974 at the Menga studio owned by Bodo Borchert. His studio in Gelsenkirchen has now long been a thing of the past. The LP was released in the Summer of that same year with the title, "Kentalope Island" (Menga ML 3302).
As in the case of Think, the studio name was used in the LP’s catalogue number and was printed on the back of the LP, but the rights to the album to this day remain with Join In. More precisely, they belong to Eddy Friedrich and his publishing house Macro Music, because it was he who had paid for everything. Incidentally, the sound engineer for the album was a certain Joachim H. Ehrig, better known as Eroc, the long-standing drummer of Grobschnitt. The pictures on the cover were taken by Rodrigo Ramor who worked at the photo studio of Jens Witthaus and still felt obliged to Join In. Just 500 copies were pressed and then sold at gigs and local record stores, shortly followed by another 500 which can't be distinguished from the first release.
It can be heard on the record that by early 1974, Join In had already given up all blues-rock and hard rock influences, concentrating on jazz-rock only. From then on, the line-up continued to change continuously, expanding ever more. The most important transformations were as follows: with the split of Think, Ricky Ramor and Frank Voigt joined in, the former replacing Werner Bleck as bassist, and the latter – playing the flute and doing the vocals. Additional recruits were: Robert Schulte-Hemming on trumpet, Markus Budniok on keyboards, Udo Preckel on acoustic guitar, as well as additional saxophonists Wolfgang Baumann, and Jürgen "Karl" Struck, who also sang.
At that point, the line-up had grown to nine members (!), and that’s when they became the winners of Vest-Rock, on 5/21/1977, in Recklinghausen. From 10/12/1977 on, they also took part in the "Marler Magazin" talk shows, organized by the "Insel" of Marl, a community centre for the arts. Footage probably still exists and is being searched for. When found, it will be made available on DVD, featuring two-hour episodes shot with several cameras. Later on, Rick Schleicher could be seen playing bass and doing comedy, as dressing up for stage appearances became more and more important. It’s thanks, in no small part, to Join In that Eroc was able to take these humorous bits and implement them on stage and on record with his band Grobschnitt, as well as on his own solo LPs.
The end of Join In came in 1981, when Jörg Radeck, one of the founders, who had always been seen as the backbone of the band, decided to leave.
Over the years, "Kentalope Island" has gained a certain reputation amongst collectors, even though this LP hasn’t been as sought-after and expensive as the album by Think, a fellow Menga act. Eddy Friedrich has attempted the impossible and not only succeeded in retrieving the original master tapes, but also a lot of other recordings, totalling 8 hours of playing time. The very best of those, from the mid-seventies, is featured on this CD in the form of the bonus tracks. A hard rock gig recorded in 1969 will be released later.


Tracks:
01. Illusions 6:37
02. Do it yourself 4:41
03. Dreams 3:00
04. Kentalope Island 6:44
05. Used to play 3:45
06. Fliwatuu 3:45
+ Bonus tracks on CD:
07. Bridge Street 7:54
08. I wanna be a bird 4:40
09. Chicago train 5:04
10. Listen to the story 7:22
11. Airport entrance 7:49
12. Friday evening 3:31
13. Higher and higher 2:26
14. Circus 3:53

Line-up:
Werner Bleck (Bass),
Udo Custodis (Saxophone),
Edward "Eddy" Friedrich (Drums),
Wilfried Jens (Keyboards, Guitar),
Jörg Radeck (Guitar).
+ guests (according to RYM):
Udo Dobrzanski (bass),
Walter Biermann (bass),
Rodrigo Ramor (vocals),
Joschka Balint (bass),
Janosch Balint (piano),
Ricky Ramor (bass),
Frank Voigt (flute, vocals),
Robert Schulte-Hemming (trumpet),
Markus Budniok (keyboards),
Udo Preckel (acoustic guitar),
Wolfgang Baumann (saxophone),
Jürgen "Karl" Struck (saxophone, vocals),
Rick Schleicher (bass)

EAC Log
Exact Audio Copy V0.99 prebeta 4 from 23. January 2008

EAC extraction logfile from 12. April 2010, 13:36

Join In / Kentalope Island

Used drive : ASUS DRW-2014S1 Adapter: 1 ID: 0

Read mode : Secure
Utilize accurate stream : Yes
Defeat audio cache : Yes
Make use of C2 pointers : No

Read offset correction : 6
Overread into Lead-In and Lead-Out : No
Fill up missing offset samples with silence : Yes
Delete leading and trailing silent blocks : No
Null samples used in CRC calculations : Yes
Used interface : Installed external ASPI interface
Gap handling : Appended to previous track

Used output format : User Defined Encoder
Selected bitrate : 768 kBit/s
Quality : High
Add ID3 tag : No
Command line compressor : C:\Program Files\Exact Audio Copy\FLAC\FLAC.EXE
Additional command line options : -6 -V -T "ARTIST=%a" -T "TITLE=%t" -T "ALBUM=%g" -T "DATE=%y" -T "TRACKNUMBER=%n" -T "GENRE=%m" -T "COMMENT=%e" %s -o %d


TOC of the extracted CD

Track | Start | Length | Start sector | End sector
---------------------------------------------------------
1 | 0:00.00 | 6:37.37 | 0 | 29811
2 | 6:37.37 | 4:41.16 | 29812 | 50902
3 | 11:18.53 | 3:00.39 | 50903 | 64441
4 | 14:19.17 | 6:44.50 | 64442 | 94791
5 | 21:03.67 | 6:04.37 | 94792 | 122128
6 | 27:08.29 | 3:47.08 | 122129 | 139161
7 | 30:55.37 | 7:56.18 | 139162 | 174879
8 | 38:51.55 | 4:42.06 | 174880 | 196035
9 | 43:33.61 | 5:05.72 | 196036 | 218982
10 | 48:39.58 | 7:23.22 | 218983 | 252229
11 | 56:03.05 | 7:50.73 | 252230 | 287552
12 | 63:54.03 | 3:33.34 | 287553 | 303561
13 | 67:27.37 | 2:30.04 | 303562 | 314815
14 | 69:57.41 | 3:53.64 | 314816 | 332354


Track 1

Filename C:\byPr0gger\Join In - Kentalope Island (1974 - 2003, Garden of Delights, CD 087)[FLAC]\01. Illusions.wav

Pre-gap length 0:00:02.00

Peak level 91.9 %
Track quality 99.9 %
Test CRC C0151609
Copy CRC C0151609
Track not present in AccurateRip database
Copy OK

Track 2

Filename C:\byPr0gger\Join In - Kentalope Island (1974 - 2003, Garden of Delights, CD 087)[FLAC]\02. Do it yourself.wav

Peak level 79.6 %
Track quality 100.0 %
Test CRC EAFC0AF3
Copy CRC EAFC0AF3
Track not present in AccurateRip database
Copy OK

Track 3

Filename C:\byPr0gger\Join In - Kentalope Island (1974 - 2003, Garden of Delights, CD 087)[FLAC]\03. Dreams.wav

Peak level 85.2 %
Track quality 100.0 %
Test CRC C782318D
Copy CRC C782318D
Track not present in AccurateRip database
Copy OK

Track 4

Filename C:\byPr0gger\Join In - Kentalope Island (1974 - 2003, Garden of Delights, CD 087)[FLAC]\04. Kentalope Island.wav

Peak level 80.7 %
Track quality 100.0 %
Test CRC F1689049
Copy CRC F1689049
Track not present in AccurateRip database
Copy OK

Track 5

Filename C:\byPr0gger\Join In - Kentalope Island (1974 - 2003, Garden of Delights, CD 087)[FLAC]\05. Used to play.wav

Peak level 90.8 %
Track quality 100.0 %
Test CRC 5E4E9A0F
Copy CRC 5E4E9A0F
Track not present in AccurateRip database
Copy OK

Track 6

Filename C:\byPr0gger\Join In - Kentalope Island (1974 - 2003, Garden of Delights, CD 087)[FLAC]\06. Fliwatuu.wav

Peak level 83.6 %
Track quality 99.9 %
Test CRC F4F2811E
Copy CRC F4F2811E
Track not present in AccurateRip database
Copy OK

Track 7

Filename C:\byPr0gger\Join In - Kentalope Island (1974 - 2003, Garden of Delights, CD 087)[FLAC]\07. Bridge Street (bonus).wav

Peak level 97.6 %
Track quality 100.0 %
Test CRC A3AF49DF
Copy CRC A3AF49DF
Track not present in AccurateRip database
Copy OK

Track 8

Filename C:\byPr0gger\Join In - Kentalope Island (1974 - 2003, Garden of Delights, CD 087)[FLAC]\08. I wanna be a bird (bonus).wav

Peak level 97.7 %
Track quality 100.0 %
Test CRC DDF778FB
Copy CRC DDF778FB
Track not present in AccurateRip database
Copy OK

Track 9

Filename C:\byPr0gger\Join In - Kentalope Island (1974 - 2003, Garden of Delights, CD 087)[FLAC]\09. Chicago train (bonus).wav

Peak level 97.7 %
Track quality 100.0 %
Test CRC 7BF9234E
Copy CRC 7BF9234E
Track not present in AccurateRip database
Copy OK

Track 10

Filename C:\byPr0gger\Join In - Kentalope Island (1974 - 2003, Garden of Delights, CD 087)[FLAC]\10. Listen to the story (bonus).wav

Peak level 97.0 %
Track quality 99.9 %
Test CRC C35698B4
Copy CRC C35698B4
Track not present in AccurateRip database
Copy OK

Track 11

Filename C:\byPr0gger\Join In - Kentalope Island (1974 - 2003, Garden of Delights, CD 087)[FLAC]\11. Airport entrance (bonus).wav

Peak level 97.7 %
Track quality 100.0 %
Test CRC D6C4D471
Copy CRC D6C4D471
Track not present in AccurateRip database
Copy OK

Track 12

Filename C:\byPr0gger\Join In - Kentalope Island (1974 - 2003, Garden of Delights, CD 087)[FLAC]\12. Friday evening (bonus).wav

Peak level 90.1 %
Track quality 100.0 %
Test CRC 2A8DCBC5
Copy CRC 2A8DCBC5
Track not present in AccurateRip database
Copy OK

Track 13

Filename C:\byPr0gger\Join In - Kentalope Island (1974 - 2003, Garden of Delights, CD 087)[FLAC]\13. Higher and higher (bonus).wav

Peak level 97.7 %
Track quality 100.0 %
Test CRC 1B987CA1
Copy CRC 1B987CA1
Track not present in AccurateRip database
Copy OK

Track 14

Filename C:\byPr0gger\Join In - Kentalope Island (1974 - 2003, Garden of Delights, CD 087)[FLAC]\14. Circus (bonus).wav

Peak level 97.7 %
Track quality 100.0 %
Test CRC 181D06CE
Copy CRC 181D06CE
Track not present in AccurateRip database
Copy OK


None of the tracks are present in the AccurateRip database

No errors occurred

End of status report


Download album:
Part 1 | Part 2 | Part 3
Scans
No pass

ADVERTISING » Very Fast Download!



« ADVERTISING




Posted By: yoyoma777 Date: 13 Apr 2010 14:51:25
thnx a lot!!!
Posted By: billy joe Date: 30 Aug 2010 05:53:40
many thanks............
Posted By: SwissCheese Date: 07 Jan 2011 19:03:18
These guys really have a great sound. Awesome post. Thank you very much!