Loading...

Supersister - Iskander (1973) [Reissue 2008] (Repost)

Posted By : gribovar | Date : 31 Jan 2013 09:44:46 | Comments : 2 |
|



Supersister - Iskander (1973) [Reissue 2008]
EAC Rip | FLAC (image+.cue+log) - 319 MB | MP3 CBR 320 kbps (LAME 3.93) - 149 MB | Covers included
Genre: Progressive Rock/Canterbury Scene | RAR 3% Rec. | Label: Esoteric Recordings (ECLEC 2058), Remastered

Iskander was recorded in England and is akin to later Soft Machine in approach, although still original in construction. Eccentric, accomplished and unique, Supersister's albums are a joy to any fan of original music. Esoteric Recordings are pleased to reissue this classic with additional bonus tracks and fully restored artwork.

Tracklist:
01. Introduction
02. Dareios the Emperor
03. Alexander
04. Confrontation of the Armies
05. The Battle
06. Bagoas
07. Roxane
08. Babylon
09. Looking Back
10. Wow (Single version, Bonus track)
11. Drs. D (B-side, Bonus track)
12. Bagoas (Single A-side, Bonus track)
13. Memories Are New (B-side, Bonus track)

Total time: 57:24

EAC log
Exact Audio Copy V0.99 prebeta 4 from 23. January 2008

EAC extraction logfile from 17. April 2009, 15:06

Supersister / Iskander

Used drive : LITE-ON DVDRW LH-20A1P Adapter: 0 ID: 2

Read mode : Secure
Utilize accurate stream : Yes
Defeat audio cache : Yes
Make use of C2 pointers : No

Read offset correction : 6
Overread into Lead-In and Lead-Out : No
Fill up missing offset samples with silence : Yes
Delete leading and trailing silent blocks : No
Null samples used in CRC calculations : Yes
Used interface : Installed external ASPI interface

Used output format : Internal WAV Routines
Sample format : 44.100 Hz; 16 Bit; Stereo


TOC of the extracted CD

Track | Start | Length | Start sector | End sector
---------------------------------------------------------
1 | 0:00.00 | 0:42.24 | 0 | 3173
2 | 0:42.24 | 4:50.50 | 3174 | 24973
3 | 5:32.74 | 7:02.25 | 24974 | 56648
4 | 12:35.24 | 2:47.26 | 56649 | 69199
5 | 15:22.50 | 7:58.46 | 69200 | 105095
6 | 23:21.21 | 2:54.30 | 105096 | 118175
7 | 26:15.51 | 3:21.13 | 118176 | 133263
8 | 29:36.64 | 7:57.08 | 133264 | 169046
9 | 37:33.72 | 4:32.39 | 169047 | 189485
10 | 42:06.36 | 3:35.19 | 189486 | 205629
11 | 45:41.55 | 2:50.08 | 205630 | 218387
12 | 48:31.63 | 2:43.62 | 218388 | 230674
13 | 51:15.50 | 6:07.67 | 230675 | 258266


Range status and errors

Selected range

Filename D:\flogger77\Supersister - Iskander.wav

Peak level 99.4 %
Range quality 100.0 %
Copy CRC 6B67B3BA
Copy OK

No errors occurred

End of status report

CUETools log
[CUETools log; Date: 30.01.2013 21:53:01; Version: 2.0.9]
[CTDB TOCID: bAh4nYa.jizzeVFYdieaK89kZcc-] found.
[ CTDBID ] Status
[383b05a1] (5/5) Accurately ripped
[AccurateRip ID: 001b310a-01140ca1-b80d730d] found.
Track [ CRC ] Status
01 [0c5d4d67] (4/6) Accurately ripped
02 [2734e622] (4/6) Accurately ripped
03 [300eea37] (4/6) Accurately ripped
04 [ff19a98b] (4/6) Accurately ripped
05 [8f0e6301] (4/6) Accurately ripped
06 [4089713a] (4/6) Accurately ripped
07 [4da0fead] (4/6) Accurately ripped
08 [34cac950] (4/6) Accurately ripped
09 [2eecf62e] (4/6) Accurately ripped
10 [32be57fe] (4/4) Accurately ripped
11 [febec83e] (4/6) Accurately ripped
12 [f36e66a0] (4/6) Accurately ripped
13 [7afe3ce2] (4/6) Accurately ripped
Offsetted by -30:
01 [3e5fa6b7] (2/6) Accurately ripped
02 [c5f88125] (2/6) Accurately ripped
03 [e59683ff] (2/6) Accurately ripped
04 [a128303a] (2/6) Accurately ripped
05 [7aa5fe69] (2/6) Accurately ripped
06 [f9c1e43f] (2/6) Accurately ripped
07 [4f4c856f] (2/6) Accurately ripped
08 [4fc08edf] (2/6) Accurately ripped
09 [4e180416] (2/6) Accurately ripped
10 [bea054fa] (0/4) No match
11 [161fb11c] (2/6) Accurately ripped
12 [563a6caa] (2/6) Accurately ripped
13 [8083d576] (2/6) Accurately ripped

Track Peak [ CRC32 ] [W/O NULL] [ LOG ]
-- 99,4 [6B67B3BA] [2563BEEF] CRC32
01 35,3 [FF7B53A3] [A9F8A1B2]
02 99,4 [6DC1A76D] [56690E7F]
03 99,0 [D584D999] [41089DB2]
04 99,4 [904D6CED] [1EF59801]
05 99,4 [C21036E4] [1B7EE55B]
06 99,4 [465B4E5F] [60A391BC]
07 47,7 [F1DBBF12] [ADBCD2B4]
08 99,4 [6C3FFCD0] [3E958C16]
09 38,9 [B0BE91BD] [DD6B7FC5]
10 99,4 [F912884B] [A0942EB4]
11 90,2 [960D9868] [BE55A2AE]
12 95,6 [770378D8] [D2F29ED3]
13 99,4 [78527CB5] [C0B99670]

Thanks to flogger77

LOSSLESS:

Filepost.com
________________

MP3 320 kbps:

Filepost.com
ADVERTISING » Very Fast Download!



« ADVERTISING




Posted By: Red Star Date: 31 Jan 2013 20:00:11
Thank you!!
Posted By: nrwsps Date: 03 Feb 2013 08:41:23
Thanks a lot.