Loading...

The Methadones - Career Objective (2003) RESTORED

Posted By : Rehabilly | Date : 18 Apr 2013 07:27:00 | Comments : 5 |
|



The Methadones - Career Objective (Enhanced) [2003]
APE+CUE+LOG or MP3 320 | 34:53 min | DATA | 268 or 82 MB

Not only are the Stardumb scouts on the lookout for new punk-rock talent from all over the world, they also keep track of the legends, the people that have earned their stars. The Methadones are a good example, fronted by Dan Schafer (Screeching Weasel, Riverdales, Mopes, Sludgeworth and The Queers), Mike Byrne (Vindictives) on guitar and with Matt Drastic (Queers, Teen Idols) on drums, this four-piece shows the world that they still got it. That they are still able to write instant pop-punk classics. But the songs on "Career Objective" are not your average punky pop tunes. This goes way beyond. On their debut full-length "Ill At Ease", which was released on Anti-Flag's AF Records, the Methadones already expanded the boundaries of punk-rock. On their second full-length they take things even higher. Musically, lyrics wise and a solid production by Mass Giorgini (Screeching Weasel, Groovie Ghoulies, Squirtgun, Queers and more). It's all good. It's sounds like nothing you've ever heard before but also like all the music you love and like. This title is filed under "Surprise of the Year" and wears a "Highest Recommendation" tag; plus you get the ultra-groovy music video "Say Goodbye To Your Generation".


The Methadones combine pop punk melody and sing along rock'n'roll choruses to great effect on their second album Career Objective. Less goofy than the Mr. T Experience and less pure-pop than the Queers, the Methadones are basically serious - they have a decidedly snarky edge that adds bite to songs like "Premature Mid-Life Crisis" and the swell "Say Goodbye To Your Generation". Just as impressively, songs like the brilliant, anthemic closer, "You Don't Know Me Anymore", move well beyond the three-chords-in-two-minutes stricture of most pop-punk, adding a level of lyrical and musical sophistication that suits the songs without sacrificing their power or their pop.




Tracklist:

01. Premature Mid-Life Crisis
02. I'm About To Crack
03. Say Goodbye To Your Generation
04. Are You Really For Real?
05. Ammunition
06. Far Away
07. Stuck In My Head
08. Revitalized
09. Antidote
10. TV World
11. You Don't Know Me Anymore
12. Data (Say Goodbye To Your Generation - MV)

all songs written by Dan Schafer except "8" by Mittler/Schafer, "1" & "11" by Byrne/Schafer

EAC Logfile
Exact Audio Copy V0.99 prebeta 4 from 23. January 2008

EAC extraction logfile from 19. April 2008, 1:26

The Methadones / Career Objective

Used drive : PLEXTOR DVDR PX-716A Adapter: 3 ID: 0

Read mode : Secure
Utilize accurate stream : Yes
Defeat audio cache : Yes
Make use of C2 pointers : No

Read offset correction : 30
Overread into Lead-In and Lead-Out : Yes
Fill up missing offset samples with silence : Yes
Delete leading and trailing silent blocks : No
Null samples used in CRC calculations : Yes
Used interface : Installed external ASPI interface

Used output format : Internal WAV Routines
Sample format : 44.100 Hz; 16 Bit; Stereo


TOC of the extracted CD

Track | Start | Length | Start sector | End sector
---------------------------------------------------------
1 | 0:00.00 | 2:17.69 | 0 | 10343
2 | 2:17.69 | 2:54.57 | 10344 | 23450
3 | 5:12.51 | 2:28.50 | 23451 | 34600
4 | 7:41.26 | 2:44.27 | 34601 | 46927
5 | 10:25.53 | 3:27.17 | 46928 | 62469
6 | 13:52.70 | 4:35.00 | 62470 | 83094
7 | 18:27.70 | 1:51.27 | 83095 | 91446
8 | 20:19.22 | 2:51.23 | 91447 | 104294
9 | 23:10.45 | 3:15.47 | 104295 | 118966
10 | 26:26.17 | 3:37.67 | 118967 | 135308
11 | 30:04.09 | 4:48.45 | 135309 | 156953
12 | 37:24.54 | 3:53.59 | 168354 | 185887


Range status and errors

Selected range

Filename C:\200\The Methadones - Career Objective (2003)\The Methadones - Career Objective.wav

Peak level 98.8 %
Range quality 100.0 %
Test CRC 3DB74436
Copy CRC 3DB74436
Copy OK

No errors occurred


AccurateRip summary

Track 1 not present in database
Track 2 not present in database
Track 3 not present in database
Track 4 not present in database
Track 5 not present in database
Track 6 not present in database
Track 7 not present in database
Track 8 not present in database
Track 9 not present in database
Track 10 not present in database
Track 11 not present in database

None of the tracks are present in the AccurateRip database

End of status report

Produced by Mass Giorgini and The Methadones
Engineered by Mass Giorgini, Phillip Hill & Don Switchblade
Recorded at Sonic Iguana sometime in December 2001 and January 2002

• Daniel Schafer - lead vocals, guitar
• Mike Byrne - lead guitar, backing vocals
• Pete Mittler - bass
• Matt Drastic - drums

Original Release Date: March 2003
U.S. Release Date: July 15, 2003
Label: Thick Records
Format: Enhanced CD
Catalog No.: THK-093

The Right choice*
http://filepost.com/files/76b924b9/MTD203COB43P.part1.rar
http://filepost.com/files/9ab5bffd/MTD203COB43P.part2.rar

all covers.jpg + video (64 MB)
http://filepost.com/files/dfm4382f/MTD203COB320DC1.rar

lossy.mp3
http://filepost.com/files/c9cm3b79/MTD203COB20G.rar


* Original CD -> EAC Image, embedded cuesheet & more, foobar2000 ready, etc.
(all CUEs, LOGs and other technical info includes in the internal "CD_Support" archive).

_______________________________


ADVERTISING » Very Fast Download!



« ADVERTISING




Posted By: King David Date: 23 Apr 2008 18:42:13
Thanks, I'll definitely check this out. Good of you to share in lossless format as well ;)
Posted By: lkrushel Date: 04 Aug 2009 19:53:15
Thank you very much!!!
Posted By: Svetlana_K Date: 07 Mar 2013 20:30:21
Sweetest CD! Thanks Rehabilly for you hard work here!
Posted By: gomilano Date: 08 Mar 2013 08:55:57
Another masterpiece! THX a million!!
Posted By: MusikCollector Date: 09 Mar 2013 15:04:24
1000x Thank you, I am always delighted and I am already on the next upload clamped. :)