Loading...

The Sex Pistols - Never Mind The Bollocks... Here's The Sex Pistols (1977)

Posted By : Shar'EmAll | Date : 29 Jul 2012 13:26:20 | Comments : 7 |
|



Sex Pistols - Never Mind The Bollocks... Here's The Sex Pistols (1977)
FLAC(tracks)+CUE+LOG > 268 MB | 38:48 min | All Covers included | MP3 CBR 320 > 90 MB
Punk / Punk Rock | 1st Non-Remastered pressing | Label: Warner Bros. Records Inc. | Cat. # 3147-2

Along with the Clash, the Sex Pistols gave birth to the U.K. punk movement that forever changed music the world over. Inspired by New Yorkers like the Ramones and the New York Dolls, the Pistols crafted a hard-hitting, primal sound whose blazing guitars, nihilistic lyrics, and emphasis on passion/anger over technique gave rise to a musical and cultural revolution in the late 1970s. Though punk wouldn't hit the mainstream in the U.S. until the '90s, the effects of punk and its musical children--post-punk and new wave--were felt worldwide, as the Pistols ran a stake through the heart of the prog-rock and soft-rock sounds that reigned in the mid-'70s.
While mostly accurate, dismissing Never Mind the Bollocks as merely a series of loud, ragged midtempo rockers with a harsh, grating vocalist and not much melody would be a terrible error. Already anthemic songs are rendered positively transcendent by Johnny Rotten's rabid, foaming delivery. His bitterly sarcastic attacks on pretentious affectation and the very foundations of British society were all carried out in the most confrontational, impolite manner possible. Most imitators of the Pistols' angry nihilism missed the point: underneath the shock tactics and theatrical negativity were social critiques carefully designed for maximum impact. Never Mind the Bollocks perfectly articulated the frustration, rage, and dissatisfaction of the British working class with the establishment, a spirit quick to translate itself to strictly rock & roll terms. The Pistols paved the way for countless other bands to make similarly rebellious statements, but arguably none were as daring or effective. It's easy to see how the band's roaring energy, overwhelmingly snotty attitude, and Rotten's furious ranting sparked a musical revolution, and those qualities haven't diminished one bit over time. Never Mind the Bollocks is simply one of the greatest, most inspiring rock records of all time.

Tracklist:

01. Holidays In The Sun
02. Bodies
03. No Feelings
04. Liar
05. God Save The Queen
06. Problems
07. Seventeen
08. Anarchy In The U.K.
09. Submission
10. Pretty Vacant
11. New York
12. E.M.I.

Produced by Chris Thomas & Bill Price.

- Johnny Rotten: lead vocals
- Steve Jones: guitar, bass guitar, backing vocals
- Paul Cook: drums
- Glen Matlock: bass guitar and backing vocals (Anarchy in the UK)
- Sid Vicious: bass guitar (Bodies)

This Pressing is from 1988.
Thanks to the Original ripper!

EAC LOG
Exact Audio Copy V0.99 prebeta 4 from 23. January 2008

EAC extraction logfile from 9. February 2009, 1:04

The Sex Pistols / Never Mind the Bollocks Here's the Sex Pistols

Used drive : PLEXTOR DVDR PX-760A Adapter: 3 ID: 0

Read mode : Secure
Utilize accurate stream : Yes
Defeat audio cache : Yes
Make use of C2 pointers : No

Read offset correction : 30
Overread into Lead-In and Lead-Out : No
Fill up missing offset samples with silence : Yes
Delete leading and trailing silent blocks : No
Null samples used in CRC calculations : Yes
Used interface : Native Win32 interface for Win NT & 2000
Gap handling : Appended to previous track

Used output format : Internal WAV Routines
Sample format : 44.100 Hz; 16 Bit; Stereo


TOC of the extracted CD

Track | Start | Length | Start sector | End sector
---------------------------------------------------------
1 | 0:00.33 | 3:22.00 | 33 | 15182
2 | 3:22.33 | 3:03.15 | 15183 | 28922
3 | 6:25.48 | 2:50.60 | 28923 | 41732
4 | 9:16.33 | 2:41.37 | 41733 | 53844
5 | 11:57.70 | 4:11.23 | 53845 | 72692
6 | 16:09.18 | 3:20.02 | 72693 | 87694
7 | 19:29.20 | 2:02.40 | 87695 | 96884
8 | 21:31.60 | 3:32.00 | 96885 | 112784
9 | 25:03.60 | 4:12.50 | 112785 | 131734
10 | 29:16.35 | 3:17.28 | 131735 | 146537
11 | 32:33.63 | 3:05.67 | 146538 | 160479
12 | 35:39.55 | 3:09.03 | 160480 | 174657


Track 1

Filename L:\Torrents\Sex Pistols - Never Mind the Bollocks, Here's The Sex Pistols (1977) [FLAC]\01 - The Sex Pistols - Holidays in the Sun.wav

Pre-gap length 0:00:02.33

Peak level 85.0 %
Track quality 100.0 %
Test CRC 776D2909
Copy CRC 776D2909
Accurately ripped (confidence 51) [5FFC53F2]
Copy OK

Track 2

Filename L:\Torrents\Sex Pistols - Never Mind the Bollocks, Here's The Sex Pistols (1977) [FLAC]\02 - The Sex Pistols - Bodies.wav

Pre-gap length 0:00:01.60

Peak level 100.0 %
Track quality 100.0 %
Test CRC 8B30C604
Copy CRC 8B30C604
Accurately ripped (confidence 51) [A254008F]
Copy OK

Track 3

Filename L:\Torrents\Sex Pistols - Never Mind the Bollocks, Here's The Sex Pistols (1977) [FLAC]\03 - The Sex Pistols - No Feelings.wav

Pre-gap length 0:00:02.00

Peak level 87.7 %
Track quality 100.0 %
Test CRC B7BE924A
Copy CRC B7BE924A
Accurately ripped (confidence 51) [76932412]
Copy OK

Track 4

Filename L:\Torrents\Sex Pistols - Never Mind the Bollocks, Here's The Sex Pistols (1977) [FLAC]\04 - The Sex Pistols - Liar.wav

Pre-gap length 0:00:02.53

Peak level 99.8 %
Track quality 100.0 %
Test CRC A2585907
Copy CRC A2585907
Accurately ripped (confidence 52) [FD61A2CE]
Copy OK

Track 5

Filename L:\Torrents\Sex Pistols - Never Mind the Bollocks, Here's The Sex Pistols (1977) [FLAC]\05 - The Sex Pistols - Problems.wav

Pre-gap length 0:00:01.52

Peak level 97.9 %
Track quality 100.0 %
Test CRC E176433C
Copy CRC E176433C
Accurately ripped (confidence 52) [273E1088]
Copy OK

Track 6

Filename L:\Torrents\Sex Pistols - Never Mind the Bollocks, Here's The Sex Pistols (1977) [FLAC]\06 - The Sex Pistols - God Save the Queen.wav

Pre-gap length 0:00:01.45

Peak level 98.1 %
Track quality 100.0 %
Test CRC BF9FE368
Copy CRC BF9FE368
Accurately ripped (confidence 54) [1EAC2763]
Copy OK

Track 7

Filename L:\Torrents\Sex Pistols - Never Mind the Bollocks, Here's The Sex Pistols (1977) [FLAC]\07 - The Sex Pistols - Seventeen.wav

Pre-gap length 0:00:02.10

Peak level 100.0 %
Track quality 99.9 %
Test CRC D5F8B7F6
Copy CRC D5F8B7F6
Accurately ripped (confidence 54) [C098C2E9]
Copy OK

Track 8

Filename L:\Torrents\Sex Pistols - Never Mind the Bollocks, Here's The Sex Pistols (1977) [FLAC]\08 - The Sex Pistols - Anarchy in the UK.wav

Pre-gap length 0:00:01.40

Peak level 97.2 %
Track quality 100.0 %
Test CRC 3A3575DB
Copy CRC 3A3575DB
Accurately ripped (confidence 54) [B1E1F495]
Copy OK

Track 9

Filename L:\Torrents\Sex Pistols - Never Mind the Bollocks, Here's The Sex Pistols (1977) [FLAC]\09 - The Sex Pistols - Submission.wav

Pre-gap length 0:00:01.10

Peak level 99.9 %
Track quality 99.9 %
Test CRC 2299D47E
Copy CRC 2299D47E
Accurately ripped (confidence 53) [0FFCDA89]
Copy OK

Track 10

Filename L:\Torrents\Sex Pistols - Never Mind the Bollocks, Here's The Sex Pistols (1977) [FLAC]\10 - The Sex Pistols - Pretty Vacant.wav

Pre-gap length 0:00:01.42

Peak level 100.0 %
Track quality 100.0 %
Test CRC 43DFE814
Copy CRC 43DFE814
Accurately ripped (confidence 53) [22F888E4]
Copy OK

Track 11

Filename L:\Torrents\Sex Pistols - Never Mind the Bollocks, Here's The Sex Pistols (1977) [FLAC]\11 - The Sex Pistols - New York.wav

Pre-gap length 0:00:01.65

Peak level 98.3 %
Track quality 100.0 %
Test CRC 30586CBC
Copy CRC 30586CBC
Accurately ripped (confidence 52) [0396DD5C]
Copy OK

Track 12

Filename L:\Torrents\Sex Pistols - Never Mind the Bollocks, Here's The Sex Pistols (1977) [FLAC]\12 - The Sex Pistols - EMI.wav

Pre-gap length 0:00:01.40

Peak level 100.0 %
Track quality 100.0 %
Test CRC B33205B7
Copy CRC B33205B7
Accurately ripped (confidence 53) [6D274211]
Copy OK


All tracks accurately ripped

No errors occurred

End of status report


FLAC
Part 1
Part 2

MP3 320

All covers & recovery info has included.

ADVERTISING » Very Fast Download!



« ADVERTISING




Posted By: eriksatie Date: 29 Jul 2012 15:08:12
The original cover was yellow ?
Posted By: Shar'EmAll Date: 29 Jul 2012 15:25:16
http://en.wikipedia.org/wiki/Never_Mind_the_Bollocks,_Here's_the_Sex_Pistols
Posted By: bonzobob Date: 30 Jul 2012 22:58:33
I never had the CD. Thanks for sharing!!!
Posted By: walrus64 Date: 13 Aug 2012 13:29:31
Thank you!
Posted By: Laserman59 Date: 28 Dec 2012 05:20:46
Thank you Shar'EmAll. :-)
Posted By: Antipop Date: 10 Feb 2013 20:08:37
Thank you very much.
Posted By: Motley Crue Date: 19 Jul 2013 15:59:35
Thank you very much.