Loading...

Tinsley Ellis - Get It! (2013)

Posted By : popsakov | Date : 25 Apr 2013 19:15:03 | Comments : 1 |
|



Tinsley Ellis - Get It! (2013)
EAC Rip | FLAC (Img) + Cue + Log ~ 350 Mb | MP3 CBR320 ~ 130 Mb
Scans Included (JPG, 600 dpi) | RAR 5% Recovery
Blues, Rock | Heartfixer Music | HFM1010

Get It!, the all instrumental album from Tinsley Ellis that his fans have been requesting for decades. Produced by Ellis, the CD marks the initial offering from his newly established label, Heartfixer Music. A hardworking veteran of numerous U.S. and international tours, Ellis' CD's have scanned well into six figures via releases from Alligator, Capricorn, Telarc and Landslide Records. He boasts countless great reviews, among them a rave from Rolling Stone which said: "Feral blues guitar...his eloquence dazzles...he achieves pyrotechnics that rival early Jeff Beck and Eric Clapton." A notable songwriter, Ellis' compositions include "A Quitter Never Wins," a version of which by Jonny Lang went multi-platinum. Get It! features eight original tunes by Ellis, plus distinctive covers of Bo Diddley's "Detour" and Freddie King's "Freddi's Midnight Dream." Other musicians include Nashville keyboard whiz Keving McKendree (Delbert McClinton, Brian Setzer), bassist Ted Pecchio (Tedeschi/Trucks Band), and drummer Lynn Williams (Delbert McClinton).

"Get It! is a throwback collection of instrumental tracks where Tinsley Ellis plays tribute to some of the great guitar players who came before him. Putting the microphone away allows Tinsley s guitar to take center stage and carry these tunes. His prodigious talent allows him to span the gamut from blues shuffles ala Stevie Ray and Albert Collins to Dick Dale surf guitar and Santana s smooth Latin style." ~ Kevin O'Rourke - Bluesrockreview


Track List:

01. Front Street Freeze [0:04:26.38]
02. Sassy Start [0:04:35.11]
03. The Milky Way [0:06:47.02]
04. Detour [0:03:30.05]
05. Anthem For A Fallen Hero [0:04:20.20]
06. Get It! [0:04:21.13]
07. Fuzzbuster [0:03:45.42]
08. Freddy's Midnight Dream [0:04:32.20]
09. Berry Tossin' [0:04:44.50]
10. Catalunya [0:05:57.00]

EAC Log
Exact Audio Copy V0.99 prebeta 4 from 23. January 2008

Отчёт EAC об извлечении, выполненном 8. апреля 2013, 20:33

Tinsley Ellis / Get It!

Дисковод: PIONEER DVD-RW DVR-118L Adapter: 0 ID: 0

Режим чтения : Достоверность
Использование точного потока : Да
Отключение кэша аудио : Да
Использование указателей C2 : Нет

Коррекция смещения при чтении : 6
Способность читать области Lead-in и Lead-out : Нет
Заполнение пропущенных сэмплов тишиной : Да
Удаление блоков с тишиной в начале и конце : Нет
При вычислениях CRC использовались нулевые сэмплы : Да
Интерфейс : Встроенный Win32-интерфейс для Win NT/2000

Выходной формат : Пользовательский кодировщик
Выбранный битрейт : 128 kBit/s
Качество : Высокий
Добавление ID3-тэга : Нет
Утилита сжатия : C:\Program Files\Exact Audio Copy\FLAC\FLAC.EXE
Дополнительные параметры : -8 -V -T "ARTIST=%a" -T "TITLE=%t" -T "ALBUM=%g" -T "DATE=%y" -T "TRACKNUMBER=%n" -T "GENRE=%m" -T "COMMENT=%e" %s -o %d


TOC извлечённого CD

Трек | Старт | Длительность | Начальный сектор | Конечный сектор
---------------------------------------------------------------------
1 | 0:00.00 | 4:26.38 | 0 | 19987
2 | 4:26.38 | 4:35.11 | 19988 | 40623
3 | 9:01.49 | 6:47.02 | 40624 | 71150
4 | 15:48.51 | 3:30.05 | 71151 | 86905
5 | 19:18.56 | 4:20.20 | 86906 | 106425
6 | 23:39.01 | 4:21.13 | 106426 | 126013
7 | 28:00.14 | 3:45.42 | 126014 | 142930
8 | 31:45.56 | 4:32.20 | 142931 | 163350
9 | 36:18.01 | 4:44.50 | 163351 | 184700
10 | 41:02.51 | 5:57.00 | 184701 | 211475


Характеристики диапазона извлечения и сообщения об ошибках

Выбранный диапазон

Имя файла O:\Новая папка (13)\Tinsley Ellis - Get It!.wav

Пиковый уровень 97.7 %
Качество диапазона 100.0 %
CRC теста 58264707
CRC копии 58264707
Копирование... OK

Ошибок не произошло

Конец отчёта

DR Log
foobar2000 1.2.3 / Dynamic Range Meter 1.1.1
log date: 2013-04-25 08:49:53

--------------------------------------------------------------------------------
Analyzed: Tinsley Ellis / Get It!
--------------------------------------------------------------------------------

DR Peak RMS Duration Track
--------------------------------------------------------------------------------
DR7 -0.20 dB -8.86 dB 4:27 01-Front Street Freeze
DR7 -0.20 dB -8.65 dB 4:35 02-Sassy Start
DR9 -0.20 dB -10.99 dB 6:47 03-The Milky Way
DR7 -0.20 dB -8.37 dB 3:30 04-Detour
DR8 -0.20 dB -9.25 dB 4:20 05-Anthem For A Fallen Hero
DR7 -0.20 dB -8.41 dB 4:21 06-Get It!
DR7 -0.20 dB -8.13 dB 3:46 07-Fuzzbuster
DR7 -0.20 dB -8.80 dB 4:32 08-Freddy's Midnight Dream
DR8 -0.20 dB -8.80 dB 4:45 09-Berry Tossin'
DR7 -0.20 dB -9.00 dB 5:57 10-Catalunya
--------------------------------------------------------------------------------

Number of tracks: 10
Official DR value: DR8

Samplerate: 44100 Hz
Channels: 2
Bits per sample: 16
Bitrate: 936 kbps
Codec: FLAC
================================================================================


All thanks go to ЗУБ2007

Visit my blog!

Download:

Uploaded: FLAC-part 1 | FLAC-part 2 | mp3

DFiles: FLAC-part 1 | FLAC-part 2 | mp3

pass: www.AvaxHome.ru
ADVERTISING » Very Fast Download!



« ADVERTISING




Posted By: notorius Date: 27 Apr 2013 18:50:47
thank you very much for this post