Loading...

Steppenwolf - Early Steppenwolf & For Ladies Only (1969 & 1971) [2CD in 1 box] Remastered 2005

Posted By : perfecta | Date : 18 Apr 2012 12:20:11 | Comments : 1 |
|



Steppenwolf - Early Steppenwolf & For Ladies Only (1969 & 1971) [2CD in 1 box]
EAC | 2x FLAC Image with CUE & LOG - 244 & 293 MB | Full Scans | MP3 CBR 320 Kbps - 101 & 104 MB
Remastered 2005 | TT - 43:49 & 45:39 minutes | Label: BGO Records, U.K. | Catalogue # BGOCD 691

These albums date from 1969 and 1971 respectively. "Early Steppenwolf" is early live recordings made when the band was still called "Sparrow", working more out of a blues-band mold. "For Ladies Only" was Steppenwolf's last studio album for Probe Records. It is a political concept album mainly about feminism but with several more conventional songs about romance as well, both unusual themes for Steppenwolf. Both Digitally remastered with extensive new notes. BGO 2005.

AMG Review (For Ladies only): The title track of For Ladies Only is a classic slice of Steppenwolf's brand of hard rock: gritty chord guitar from Blues Image refugee Kent Henry (Steppenwolf went through as many or more guitarist changes as the Guess Who), elegant piano from Goldy McJohn, even jazz flavors on a nine-minute-plus track as blatantly sexist as the album gatefold. The graphic photo of a huge penis car alongside the Hollywood walk of fame tucked inside the cardboard is completely juvenile, while the back of the LP features the boys all reading books, from The Sensuous Woman to Snow White & the Seven Dwarves -- interesting imagery that doesn't complement the music as much as the artists might have thought it did at the time. The Jerry Edmonton/Goldy McJohn composition "I'm Asking" has a heavy "Jumpin' Jack Flash" riff that's all sludged out and a weak non-John Kay vocal -- like, why bother? Kay's snarling voice was as much a part of the sound as the heavy keys, and without it the otherwise fine performance and production are just totally eradicated; it's a song that would've worked better as an instrumental. Ditto for Jerry Edmonton's "Jaded Strumpet," which is also in desperate need of Kay's authoritative tone, which is refreshingly surreal on the singer's co-write with George Biondo that is "Sparkle Eyes."


Tracks

Early Steppenwolf:
01. Powerplay
02. Howlin' For My Darlin'
03. I'm Goin' Upstairs
04. Corina, Corina
05. Tighten Up Your Wig
06. The Pusher

For Ladies Only:
01. For Ladies Only
02. I'm Asking
03. Shackles And Chains
04. Tenderness
05. The Night Time's For You
06. Jaded Strumpet
07. Sparkle Eyes
08. Black Pit
09. Ride With Me
10. In Hopes Of A Garden

Digitally Remastered at Sound Performance in 2005.

EAC-LOGs
Exact Audio Copy V0.99 prebeta 5 from 4. May 2009

Отчёт EAC об извлечении, выполненном 18. августа 2010, 17:50

Steppenwolf / Early Steppenwolf ( BGO Rmastered )

Дисковод: PLEXTOR DVDR PX-880SA Adapter: 1 ID: 0

Режим чтения : Достоверность
Использование точного потока : Да
Отключение кэша аудио : Да
Использование указателей C2 : Нет

Коррекция смещения при чтении : 6
Способность читать области Lead-in и Lead-out : Нет
Заполнение пропущенных сэмплов тишиной : Да
Удаление блоков с тишиной в начале и конце : Нет
При вычислениях CRC использовались нулевые сэмплы : Да
Интерфейс : Встроенный Win32-интерфейс для Win NT/2000

Выходной формат : Пользовательский кодировщик
Выбранный битрейт : 1024 kBit/s
Качество : Высокий
Добавление ID3-тэга : Да
Утилита сжатия : C:\Program Files\Exact Audio Copy\wapet.exe
Дополнительные параметры : %d -t "Artist=%a" -t "Album Artist=%a" -t "Releaser=% wwphil" -t "Album=%g" -t "Year=%y" -t "Genre=%m" mac.exe %s %d -c2000


TOC извлечённого CD

Трек | Старт | Длительность | Начальный сектор | Конечный сектор
---------------------------------------------------------------------
1 | 0:00.00 | 2:57.22 | 0 | 13296
2 | 2:57.22 | 4:53.38 | 13297 | 35309
3 | 7:50.60 | 7:17.45 | 35310 | 68129
4 | 15:08.30 | 3:56.04 | 68130 | 85833
5 | 19:04.34 | 3:15.01 | 85834 | 100459
6 | 22:19.35 | 21:29.41 | 100460 | 197175


Характеристики диапазона извлечения и сообщения об ошибках

Выбранный диапазон

Имя файла D:\Steppenwolf - Early Steppenwolf& For Ladies Only ( BGO Rmastered )\Early Steppenwolf ( BGO Rmastered )\Steppenwolf - Early Steppenwolf ( BGO Rmastered ).wav

Пиковый уровень 84.1 %
Качество диапазона 100.0 %
CRC теста 6FE0F814
CRC копии 6FE0F814
Копирование... OK

Ошибок не произошло


AccurateRip: сводка

Трек 1 точность не определена (достоверность 3) [40B9F890], AccurateRip вернул [1C9AED08]
Трек 2 точность не определена (достоверность 3) [04D9C2D2], AccurateRip вернул [C99502DE]
Трек 3 точность не определена (достоверность 3) [A863BE9D], AccurateRip вернул [9C3D19D1]
Трек 4 точность не определена (достоверность 3) [1A658EE6], AccurateRip вернул [2AB77410]
Трек 5 точность не определена (достоверность 3) [15445300], AccurateRip вернул [C7E87294]
Трек 6 точность не определена (достоверность 3) [AABDEA08], AccurateRip вернул [B9DFEFD2]

Ни один трек не прошёл проверки на точность
В вашей базе может быть иной вариант штамповки диска

Конец отчёта

[AccurateRip ID: 0007a1ef-002afcb7-3f0a4506] found.
Track [ CRC ] Status
01 [40b9f890] (0/5) No match
02 [04d9c2d2] (0/5) No match
03 [a863be9d] (0/5) No match
04 [1a658ee6] (0/5) No match
05 [15445300] (0/5) No match
06 [aabdea08] (0/5) No match
Offsetted by 786:
01 [1c9aed08] (3/5) Accurately ripped
02 [c99502de] (3/5) Accurately ripped
03 [9c3d19d1] (3/5) Accurately ripped
04 [2ab77410] (3/5) Accurately ripped
05 [c7e87294] (3/5) Accurately ripped
06 [b9dfefd2] (3/5) Accurately ripped
Offsetted by 1450:
01 [805ed3a8] (2/5) Accurately ripped
02 [2f33e18f] (2/5) Accurately ripped
03 [cf5eb418] (2/5) Accurately ripped
04 [bcbcccc8] (2/5) Accurately ripped
05 [d7547b04] (2/5) Accurately ripped
06 [a616bc0a] (2/5) Accurately ripped

Track Peak [ CRC32 ] [W/O NULL] [ LOG ]
-- 84,1 [6FE0F814] [40846732] CRC32
01 79,4 [8EE78DA1] [69B674BE]
02 79,4 [70226374] [44F5FDC4]
03 79,4 [0750615D] [E14A7A7A]
04 72,1 [5BD7B5CD] [E3AC3CDF]
05 79,4 [400B3E54] [1D0EEDFC]
06 84,1 [65F7603D] [1E0640B0]

++++++++++++++++++++++++++++++++++++++++++++++++

Exact Audio Copy V0.99 prebeta 5 from 4. May 2009

Отчёт EAC об извлечении, выполненном 18. августа 2010, 18:16

Steppenwolf / For Ladies Only ( BGO Rmastered )

Дисковод: PLEXTOR DVDR PX-880SA Adapter: 1 ID: 0

Режим чтения : Достоверность
Использование точного потока : Да
Отключение кэша аудио : Да
Использование указателей C2 : Нет

Коррекция смещения при чтении : 6
Способность читать области Lead-in и Lead-out : Нет
Заполнение пропущенных сэмплов тишиной : Да
Удаление блоков с тишиной в начале и конце : Нет
При вычислениях CRC использовались нулевые сэмплы : Да
Интерфейс : Встроенный Win32-интерфейс для Win NT/2000

Выходной формат : Пользовательский кодировщик
Выбранный битрейт : 1024 kBit/s
Качество : Высокий
Добавление ID3-тэга : Да
Утилита сжатия : C:\Program Files\Exact Audio Copy\wapet.exe
Дополнительные параметры : %d -t "Artist=%a" -t "Album Artist=%a" -t "Releaser=% wwphil" -t "Album=%g" -t "Year=%y" -t "Genre=%m" mac.exe %s %d -c2000


TOC извлечённого CD

Трек | Старт | Длительность | Начальный сектор | Конечный сектор
---------------------------------------------------------------------
1 | 0:00.00 | 9:20.19 | 0 | 42018
2 | 9:20.19 | 4:29.61 | 42019 | 62254
3 | 13:50.05 | 5:00.09 | 62255 | 84763
4 | 18:50.14 | 4:55.18 | 84764 | 106906
5 | 23:45.32 | 3:03.62 | 106907 | 120693
6 | 26:49.19 | 4:46.25 | 120694 | 142168
7 | 31:35.44 | 4:34.10 | 142169 | 162728
8 | 36:09.54 | 3:51.43 | 162729 | 180096
9 | 40:01.22 | 3:26.06 | 180097 | 195552
10 | 43:27.28 | 2:11.39 | 195553 | 205416


Характеристики диапазона извлечения и сообщения об ошибках

Выбранный диапазон

Имя файла D:\Steppenwolf - Early Steppenwolf& For Ladies Only ( BGO Rmastered )\For Ladies Only ( BGO Rmastered )\Steppenwolf - For Ladies Only ( BGO Rmastered ).wav

Пиковый уровень 100.0 %
Качество диапазона 99.9 %
CRC теста D77F365B
CRC копии D77F365B
Копирование... OK

Ошибок не произошло


AccurateRip: сводка

Трек 1 нет в базе данных
Трек 2 точность не определена (достоверность 2) [F903CA87], AccurateRip вернул [F28FDD73]
Трек 3 точность не определена (достоверность 2) [C11BF653], AccurateRip вернул [19512FD1]
Трек 4 точность не определена (достоверность 2) [64C170BC], AccurateRip вернул [39A66006]
Трек 5 точность не определена (достоверность 2) [94F0DC7B], AccurateRip вернул [6C3C1D75]
Трек 6 точность не определена (достоверность 2) [3B2322B0], AccurateRip вернул [84EDC3AC]
Трек 7 точность не определена (достоверность 2) [1DF5AF89], AccurateRip вернул [021A74AD]
Трек 8 точность не определена (достоверность 2) [2A91ED6C], AccurateRip вернул [80C4CB5C]
Трек 9 точность не определена (достоверность 2) [65EF8E3E], AccurateRip вернул [13A04398]
Трек 10 точность не определена (достоверность 2) [F40CE791], AccurateRip вернул [BC90C62B]

9 трек(и) не удалось проверить на точность
1 трек(и) не содержатся в базе AccurateRip

Ни один трек не прошёл проверки на точность
В вашей базе может быть иной вариант штамповки диска

Конец отчёта

[AccurateRip ID: 0013e04c-00989c9c-780ab20a] found.
Track [ CRC ] Status
01 [b3d40504] (0/0) No match
02 [f903ca87] (0/2) No match
03 [c11bf653] (0/2) No match
04 [64c170bc] (0/2) No match
05 [94f0dc7b] (0/2) No match
06 [3b2322b0] (0/2) No match
07 [1df5af89] (0/2) No match
08 [2a91ed6c] (0/2) No match
09 [65ef8e3e] (0/2) No match
10 [f40ce791] (0/2) No match
Offsetted by 1450:
01 [c3506660] (0/0) No match but offset
02 [f28fdd73] (2/2) Accurately ripped
03 [19512fd1] (2/2) Accurately ripped
04 [39a66006] (2/2) Accurately ripped
05 [6c3c1d75] (2/2) Accurately ripped
06 [84edc3ac] (2/2) Accurately ripped
07 [021a74ad] (2/2) Accurately ripped
08 [80c4cb5c] (2/2) Accurately ripped
09 [13a04398] (2/2) Accurately ripped
10 [bc90c62b] (2/2) Accurately ripped

Track Peak [ CRC32 ] [W/O NULL] [ LOG ]
-- 100,0 [D77F365B] [7B07D836] CRC32
01 100,0 [6B5550DE] [C15AF00E]
02 94,4 [46C8637D] [DCA40121]
03 100,0 [0C57F191] [51C6EBDC]
04 89,1 [F23BB9C3] [0C7DA354]
05 94,4 [2CC46DAB] [F180FBFF]
06 100,0 [1528C633] [927F3BD0]
07 100,0 [C38527B3] [A9AC4892]
08 100,0 [1FC8D9F6] [DCA4BF2E]
09 100,0 [7F4D2DD5] [0B0428E7]
10 39,1 [815BAFA1] [F0969EF3]


Thanks to wwphil!

ADVERTISING » Very Fast Download!



« ADVERTISING




Posted By: Scion7777 Date: 19 Apr 2012 03:16:08
EARLY STEPPENWOLF's just a fuzz-toned squonky live album - lots of spirit but little else. Fun.

FOR LADIES ONLY is, along with STEPPENWOLF 7, their best record. The new guitarist Kent Henry really meshes well in the group, and his guitar work on "Ride With Me,"Jaded Strumpet" and the title track - as well as the whole album, for that matter - was both firey and tasteful at the same time. The album also utilized stereo-sound intelligently - too few groups were doing this in the early Seventies. I was very sad when they announced their breakup after this album's release. It was a big mistake, as the founding core-trio soon realized, and they regrouped for the very good SLOW FLUX, but it was too late to recover their high standing in the top ten (no singles charted off SLOW FLUX.)

FOR LADIES ONLY also had some very nice McJohn keyboad work.

If there's a criticism, it's the stupid penis-car in the interior gatefold - wasn't funny then, isn't funny now.