Loading...

Royal Dan - A Tribute to Genius of Steely Dan (2006) {TC 40472}

Posted By : chicopicho | Date : 06 Dec 2010 02:08:48 | Comments : 4 |
|



Royal Dan - A Tribute to Genius of Steely Dan (2006) {TC 40472}
EAC rip (secure mode) | FLAC(image)+CUE+LOG | Scans | 419 MB(+5%)
Genre: Fusion, Jazz Rock | Label: Tone Center | Original Release Date: 2006


Guitarist Jeff Richman came up with this idea: get a house band together made up of A-list session guys (bassist Jimmy Haslip, saxophonist Ernie Watts, etc.) and then invite an all-star cast of guitar gods to come in and take turns interpreting the songs of Steely Dan as jazz-rock fusion. It works either as well or as dreadfully as you'd expect, depending on your perspective. What you need to understand going in is that Royal Dan: A Tribute is largely about tone: this is a guitar record for guitarists, and will appeal greatly to the kinds of guys who can sit around for hours discussing the relative merits of vintage and modern distortion pedals. But it's not all guitar-geek wankery. On "Hey Nineteen," Elliott Randall uses sneaky phrasing and delicate volume variations to turn his bluesy solos into something really special (though Peter Wolf's keyboards are a bit intrusive), and Frank Gambale eschews grandstanding technical fireworks in favor of tasteful harmonic experimentation on "FM." Al di Meola goes insane on his classical guitar on "Aja," and Robben Ford blows the doors off with a thrilling rendition of "Peg," but Mike Stern's take on "Dirty Work" isn't as exciting as it should have been, and Steve Lukather's version of "Pretzel Logic" has just a little bit too much Foreigner to it. Again: keep in mind that this is a guitarist's album -- guitar geeks will find something to argue about on every track, and that's really what it's all about. ~ Rick Anderson

Tracklist

1. Robben Ford - "Peg" (06:35)
2. Steve Morse - "Bodhisattva" (04:33)
3. Jay Graydon - "Home At Last" (06:08)
4. Al DiMeola - "Aja" (07:20)
5. Steve Lukather - "Pretzel Logic" (06:04)
6. Jeff Richman - "Josie" (06:14)
7. Mike Stern - "Dirty Work" (05:34)
8. Jimmy Herring - "The Fez" (05:11)
9. Frank Gambale - "FM" (05:57)
10. Elliott Randall - "Hey Nineteen" (04:49)


EAC Log
Exact Audio Copy V0.99 prebeta 5 from 4. May 2009

EAC extraction logfile from 29. November 2010, 10:06

The Royal Dan / A Tribute

Used drive : PHILIPS SPD2412T Adapter: 1 ID: 0

Read mode : Secure
Utilize accurate stream : Yes
Defeat audio cache : Yes
Make use of C2 pointers : No

Read offset correction : 6
Overread into Lead-In and Lead-Out : No
Fill up missing offset samples with silence : Yes
Delete leading and trailing silent blocks : No
Null samples used in CRC calculations : Yes
Used interface : Native Win32 interface for Win NT & 2000

Used output format : User Defined Encoder
Selected bitrate : 1024 kBit/s
Quality : High
Add ID3 tag : No
Command line compressor : E:\Program Files\Exact Audio Copy\FLAC\FLAC.EXE
Additional command line options : -V -8 -T "artist=%a" -T "title=%t" -T "album=%g" -T "date=%y" -T "tracknumber=%n" -T "genre=%m" %s


TOC of the extracted CD

Track | Start | Length | Start sector | End sector
---------------------------------------------------------
1 | 0:00.00 | 6:35.49 | 0 | 29673
2 | 6:35.49 | 4:33.25 | 29674 | 50173
3 | 11:08.74 | 6:08.64 | 50174 | 77837
4 | 17:17.63 | 7:20.25 | 77838 | 110862
5 | 24:38.13 | 6:04.02 | 110863 | 138164
6 | 30:42.15 | 6:14.10 | 138165 | 166224
7 | 36:56.25 | 5:34.68 | 166225 | 191342
8 | 42:31.18 | 5:11.51 | 191343 | 214718
9 | 47:42.69 | 5:56.70 | 214719 | 241488
10 | 53:39.64 | 4:49.45 | 241489 | 263208


Range status and errors

Selected range

Filename E:\CDRips2\Vinnie Colaiuta, Jimmy Haslip, Peter Wolf, Ernie Watts [2006] - The Royal Dan ( A Tribute to the Genius of Steely Dan)\The Royal Dan - A Tribute.wav

Peak level 98.8 %
Range quality 100.0 %
Test CRC 165BAE3E
Copy CRC 165BAE3E
Copy OK

No errors occurred


AccurateRip summary

Track 1 accurately ripped (confidence 9) [D4109FCB]
Track 2 accurately ripped (confidence 8) [5D051098]
Track 3 accurately ripped (confidence 8) [8C89AD50]
Track 4 accurately ripped (confidence 8) [B777805A]
Track 5 accurately ripped (confidence 8) [57235F38]
Track 6 accurately ripped (confidence 8) [9237CAEB]
Track 7 accurately ripped (confidence 8) [3C7BE682]
Track 8 accurately ripped (confidence 8) [4B544DF2]
Track 9 accurately ripped (confidence 8) [9549BBFC]
Track 10 accurately ripped (confidence 8) [1A9B52F6]

All tracks accurately ripped

End of status report



personnel:

Steve Morse: Guitar
Robben Ford: Guitar
Jay Graydon: Guitar
Al DiMeola: Guitar
Steve Lukather: Guitar
Jeff Richman: Guitar
Mike Stern: Guitar
Jimmy Herring: Guitar
Frank Gambale: Guitar
Elliott Randall: Guitar
Vinnie Colaiuta: Drums
Jimmy Haslip: Bass
Peter Wolf: Keyboards, Horn Sections
Ernie Watts: Saxophone


HF Linkz


Filesonic Linkz

All thanks goes to the original releaser - Jack Daniel

the files are interchangeable...

Visit My Blog

ADVERTISING » Very Fast Download!



« ADVERTISING




Posted By: diluiz Date: 06 Dec 2010 08:31:10
A great sound, chicopicho, Stelly Dan is one the favourites bands. Thanks a lot.
Posted By: shearing Date: 06 Dec 2010 10:26:05
Hi chicopicho,
wonderful share, great interpreters and fantastic songs - very nice arranged, so
thank's a lot - very much appreciated!
George
Posted By: billy joe Date: 16 Feb 2011 02:02:50
Many Thanks...
Posted By: sadep Date: 15 Oct 2011 11:28:59
Thanks From Morocoo!!!