Loading...

Stuart Hamm - Kings Of Sleep (1989)

Posted By : chicopicho | Date : 22 Dec 2010 21:52:56 | Comments : 1 |
|



Stuart Hamm - Kings Of Sleep (1989)
EAC rip (secure mode) | FLAC(image)+CUE+LOG | Scans | 257 MB(+5%)
Genre: Rock, Instrumental Rock, Fusion | Label: Relativity | Original Release Date: 1989

"Kings Of Sleep" wes Stuart Hamm's second solo record and features more incredible bass playing by Hamm along with guitar contributed by Harry Cody and Buzzy Feiten. "Kings Of Sleep" features a cover of the J.S. Bach hit, "Prelude In C" as well as the virtual bass solo piece "Terminal Beach". Guitar fans will love Feiten's and Cody's contributions as Hamm lets the two six-stringers have ample room to burn. One of Hamm's most energetic solo works.

Tracklist

01 - Black Ice
02 - Surely The Best
03 - Call Of The Wild
04 - Terminal Beach
05 - Count Zero
06 - I Want To Know
07 - Prelude in C
08 - Kings Of Sleep

EAC Log
Exact Audio Copy V0.99 prebeta 4 from 23. January 2008

Отчёт EAC об извлечении, выполненном 21. марта 2010, 15:44

Stuart Hamm / Kings Of Sleep

Дисковод: ASUS DRW-1814BLT Adapter: 2 ID: 0

Режим чтения : Достоверность
Использование точного потока : Да
Отключение кэша аудио : Да
Использование указателей C2 : Нет

Коррекция смещения при чтении : 6
Способность читать области Lead-in и Lead-out : Нет
Заполнение пропущенных сэмплов тишиной : Да
Удаление блоков с тишиной в начале и конце : Нет
При вычислениях CRC использовались нулевые сэмплы : Да
Интерфейс : Встроенный Win32-интерфейс для Win NT/2000

Выходной формат : Пользовательский кодировщик
Выбранный битрейт : 768 kBit/s
Качество : Высокий
Добавление ID3-тэга : Нет
Утилита сжатия : D:\Program Files\Exact Audio Copy\Flac\Flac.exe
Дополнительные параметры : -8 --delete-input-file -o "D:\CDImage.flac" -V %s


TOC извлечённого CD

Трек | Старт | Длительность | Начальный сектор | Конечный сектор
---------------------------------------------------------------------
1 | 0:00.00 | 4:23.04 | 0 | 19728
2 | 4:23.04 | 5:21.22 | 19729 | 43825
3 | 9:44.26 | 4:41.35 | 43826 | 64935
4 | 14:25.61 | 3:58.26 | 64936 | 82811
5 | 18:24.12 | 4:13.65 | 82812 | 101851
6 | 22:38.02 | 5:42.43 | 101852 | 127544
7 | 28:20.45 | 2:30.55 | 127545 | 138849
8 | 30:51.25 | 8:27.05 | 138850 | 176879


Характеристики диапазона извлечения и сообщения об ошибках

Выбранный диапазон

Имя файла D:\Stuart Hamm - Kings Of Sleep.wav

Пиковый уровень 89.7 %
Качество диапазона 100.0 %
CRC теста 66347E0D
CRC копии 66347E0D
Копирование... OK

Ошибок не произошло


AccurateRip: сводка

Трек 1 нет в базе данных
Трек 2 нет в базе данных
Трек 3 нет в базе данных
Трек 4 нет в базе данных
Трек 5 нет в базе данных
Трек 6 нет в базе данных
Трек 7 нет в базе данных
Трек 8 нет в базе данных

Ни одного трека нет в базе AccurateRip

Конец отчёта


personnel:

Stuart Hamm - Basses, Production, Mixing
Harry Cody - Guitar (On 2, 3, 5 & 8)
Buzzy Feiten - Guitar (On 1 & 6)
Jonathan Mover - Drums
Scott Collard - Keyboards
Amy Knoles - Percussion
Richard Landers - Engineering, Mixing
Dick Zimmerman - Photography
David Bett - Art Direction


HF Linkz


Fileserve Linkz


the files are interchangeable...

Visit My Blog

ADVERTISING » Very Fast Download!



« ADVERTISING




Posted By: sinkf Date: 25 Dec 2010 07:51:35
thanks !! great classic album.