Loading...

The Alan Parsons Project – I Robot (1977) [Mobile Fidelity Sound Lab - MFCD-804] Re-Uploaded

Posted By : jclane | Date : 10 Jun 2011 06:47:48 | Comments : 12 |
|



The Alan Parsons Project – I Robot (1977) [Mobile Fidelity Sound Lab - MFCD-804]
EAC Rip | FLAC Tracks + Cue + Log | Scans included | 262 MB | RAR 3% Recovery
Label: Mobile Fidelity Sound Lab | Catalog#: MFCD-804 | Genre: Progressive rock, pop rock

I Robot is a progressive rock album recorded by The Alan Parsons Project, engineered by Alan Parsons and Eric Woolfson in 1977. It was released by Arista Records in 1977 and re-released on CD in 1984 and 2007. It was intended to be based on the I, Robot stories written by Isaac Asimov, and Woolfson actually spoke with Asimov, who was enthusiastic about the idea. As the rights already had been granted to a TV/movie company, the album's title was altered slightly by removing the comma, and the theme and lyrics were made to be more generically about robots rather than specific to the Asimov universe.

Alan Parsons delivered a detailed blueprint for his Project on their 1975 debut, Tales of Mystery and Imagination, but it was on its 1977 follow-up, I Robot, that the outfit reached its true potential. Borrowing not just its title but concept from Isaac Asimov's classic sci-fi Robot trilogy, this album explores many of the philosophies regarding artificial intelligence -- will it overtake man, what does it mean to be man, what responsibilities do mechanical beings have to their creators, and so on and so forth -- with enough knotty intelligence to make it a seminal text of late-'70s geeks, and while it is also true that appreciating I Robot does require a love of either sci-fi or art rock, it is also true that sci-fi art rock never came any better than this. Compare it to Jeff Wayne's War of the Worlds, released just a year after this and demonstrating some clear influence from Parsons: that flirts voraciously with camp, but this, for all of its pomp and circumstance, for all of its overblown arrangements, this is music that's played deadly serious. Even when the vocal choirs pile up at the end of "Breakdown" or when the Project delves into some tight, glossy white funk on "The Voice," complete with punctuations from robotic voices and whining slide guitars, there isn't much sense of fun, but there is a sense of mystery and a sense of drama that can be very absorbing if you're prepared to give yourself over to it. The most fascinating thing about the album is that the music is restless, shifting from mood to mood within the course of a song, but unlike some art pop there is attention paid to hooks -- most notably, of course, on the hit "I Wouldn't Want to Be Like You," a tense, paranoid neo-disco rocker that was the APP's breakthrough. It's also the closest thing to a concise pop song here -- other tunes have plenty of hooks, but they change their tempo and feel quickly, which is what makes this an art rock album instead of a pop album. And while that may not snare in listeners who love the hit (they should turn to Eye in the Sky instead, the Project's one true pop album), that sense of melody when married to the artistic restlessness and geeky sensibility makes for a unique, compelling album and the one record that truly captures mind and spirit of the Alan Parsons Project.


by Stephen Thomas Erlewine - AllMusic


Track listing

All tracks written by Alan Parsons and Eric Woolfson; except "Total Eclipse" written by Andrew Powell

1. "I Robot" (instrumental) – 6:02

2. "I Wouldn't Want to Be Like You" (lead vocal: Lenny Zakatek) – 3:22

3. "Some Other Time" (lead vocals: Peter Straker & Jaki Whitren) – 4:06

4. "Breakdown" (lead vocal: Allan Clarke) – 3:50

5. "Don't Let It Show" (lead vocal: Dave Townsend) – 4:24

6. "The Voice" (lead vocal: Steve Harley) – 5:24

7. "Nucleus" (instrumental) – 3:31

8. "Day After Day (The Show Must Go On)" (lead vocal: Jack Harris) – 3:49

9. "Total Eclipse" (instrumental) – 3:09

10. "Genesis Ch.1 v.32" (instrumental) – 3:28



EAC extraction logfile

Exact Audio Copy V0.99 prebeta 4 from 23. January 2008

EAC extraction logfile from 25. April 2009, 15:58

The Alan Parsons Project / I Robot {MFSL MFCD 804}

Used drive : ASUS DRW-2014L1 Adapter: 0 ID: 3

Read mode : Secure
Utilize accurate stream : Yes
Defeat audio cache : Yes
Make use of C2 pointers : No

Read offset correction : 6
Overread into Lead-In and Lead-Out : No
Fill up missing offset samples with silence : Yes
Delete leading and trailing silent blocks : No
Null samples used in CRC calculations : Yes
Used interface : Installed external ASPI interface
Gap handling : Appended to previous track

Used output format : User Defined Encoder
Selected bitrate : 1024 kBit/s
Quality : High
Add ID3 tag : No
Command line compressor : C:\Program Files\FLAC\flac.exe
Additional command line options : -8 -V -T "ARTIST=%a" -T "TITLE=%t" -T "ALBUM=%g" -T "DATE=%y" -T "TRACKNUMBER=%n" -T "GENRE=%m" -T "COMMENT=EAC FLAC -8" %s


TOC of the extracted CD

Track | Start | Length | Start sector | End sector
---------------------------------------------------------
1 | 0:00.00 | 5:59.30 | 0 | 26954
2 | 5:59.30 | 3:23.18 | 26955 | 42197
3 | 9:22.48 | 4:05.65 | 42198 | 60637
4 | 13:28.38 | 3:53.17 | 60638 | 78129
5 | 17:21.55 | 4:25.58 | 78130 | 98062
6 | 21:47.38 | 5:21.17 | 98063 | 122154
7 | 27:08.55 | 3:31.18 | 122155 | 137997
8 | 30:39.73 | 3:49.32 | 137998 | 155204
9 | 34:29.30 | 3:13.38 | 155205 | 169717
10 | 37:42.68 | 3:33.70 | 169718 | 185762


Track 1

Filename D:\EAC FLAC FILES\01 - I Robot.wav

Pre-gap length 0:00:02.00

Peak level 64.2 %
Track quality 100.0 %
Test CRC 492F4A19
Copy CRC 492F4A19
Accurately ripped (confidence 4) [7418AE12]
Copy OK

Track 2

Filename D:\EAC FLAC FILES\02 - I Wouldn't Want To Be Like You.wav

Peak level 67.2 %
Track quality 100.0 %
Test CRC DBE3166C
Copy CRC DBE3166C
Accurately ripped (confidence 4) [80E21F28]
Copy OK

Track 3

Filename D:\EAC FLAC FILES\03 - Some Other Time.wav

Pre-gap length 0:00:01.43

Peak level 62.6 %
Track quality 100.0 %
Test CRC 1BBC8559
Copy CRC 1BBC8559
Accurately ripped (confidence 4) [C8D5D086]
Copy OK

Track 4

Filename D:\EAC FLAC FILES\04 - Breakdown.wav

Pre-gap length 0:00:03.45

Peak level 64.4 %
Track quality 100.0 %
Test CRC B4C28EA2
Copy CRC B4C28EA2
Accurately ripped (confidence 4) [B044CBA3]
Copy OK

Track 5

Filename D:\EAC FLAC FILES\05 - Don't Let It Show.wav

Pre-gap length 0:00:03.70

Peak level 62.4 %
Track quality 100.0 %
Test CRC 917E5E31
Copy CRC 917E5E31
Accurately ripped (confidence 4) [264A4C9C]
Copy OK

Track 6

Filename D:\EAC FLAC FILES\06 - The Voice.wav

Pre-gap length 0:00:04.08

Peak level 35.1 %
Track quality 100.0 %
Test CRC 62D105EE
Copy CRC 62D105EE
Accurately ripped (confidence 4) [59FF93DD]
Copy OK

Track 7

Filename D:\EAC FLAC FILES\07 - Nucleus.wav

Peak level 20.5 %
Track quality 100.0 %
Test CRC 37C67C14
Copy CRC 37C67C14
Accurately ripped (confidence 4) [DB3C11A6]
Copy OK

Track 8

Filename D:\EAC FLAC FILES\08 - Day After Day (The Show Must Go On).wav

Peak level 29.6 %
Track quality 100.0 %
Test CRC 6302CCF9
Copy CRC 6302CCF9
Accurately ripped (confidence 4) [7AB778A6]
Copy OK

Track 9

Filename D:\EAC FLAC FILES\09 - Total Eclipse.wav

Peak level 22.2 %
Track quality 100.0 %
Test CRC 15ED695A
Copy CRC 15ED695A
Accurately ripped (confidence 4) [266FB3C4]
Copy OK

Track 10

Filename D:\EAC FLAC FILES\10 - Genesis CH. 1 V. 32.wav

Peak level 29.1 %
Track quality 100.0 %
Test CRC DF23A88A
Copy CRC DF23A88A
Accurately ripped (confidence 3) [20465C22]
Copy OK


All tracks accurately ripped

No errors occurred

End of status report


Credits

*Arranged By [Orchestra, Choir], Conductor – Andrew Powell
*Artwork By [Illustration] – Richard Manning
*Bass, Acoustic Guitar, Vocals [Additional] – David Paton
*Choir – English Chorale, The, New Philharmonia Chorus, The*
*Chorus Master – Bob Howes
*Cimbalom, Kantele – John Leach
*Contractor [Orchestral] – David Katz
*Design [Cover], Photography – Hipgnosis (2)
*Design [Robot] – George Hardie
*Drums, Percussion, Vocals [Additional] – Stuart Tosh
*Electric Guitar, Acoustic Guitar, Vocals [Additional] – Ian Bairnson
*Engineer [Assistant] – Pat Stapley
*Engineer [Assistant], Mastered By [U.k.] – Chris Blair
*Engineer, Acoustic Guitar, Keyboards, Synthesizer [Projectron], Vocoder, Vocals [Additional] – Alan Parsons
*Executive Producer – Eric Woolfson
*Keyboards – Duncan MacKay
*Keyboards, Synthesizer [Projectron], Vocoder, Vocals [Additional] – Eric Woolfson
*Producer – Alan Parsons
*Steel Guitar – B. J. Cole*
*Vocals – Allan Clarke, David Townsend*, Jack Harris, Jaki Whitren, Lenny Zakatek, Peter Straker, Steve Harley
*Vocals [Additional] – Hilary Western, John Perry (7), Smokey Parsons, Stuart Calver, Tony Rivers
*Written-By – Parsons* (tracks: 1 to 8, 10), Powell* (tracks: 9), Woolfson* (tracks: 1 to 8, 10)

Original Release Date: June 1977
Recorded: January – March 1977 at Abbey Road Studios
CD Released Date: 1984 by Mobile Fidelity Sound Lab
Format: CD, Album, Remastered
Length: 41:16
Producer: Alan Parsons

CD Rip by TheGoose31

If you have any questions about this publication, please send me a private message.

Instruction for downloading: Copy and paste the url on your favorite browser, don't click on links

ADVERTISING » Very Fast Download!



« ADVERTISING




Posted By: wormwood Date: 10 Jun 2011 06:49:41
Wow, this is harder to find than hens' teeth!
Thanks!
Posted By: musicnaut Date: 10 Jun 2011 07:56:40
Thank you heaps :)
Posted By: Scorpion40 Date: 10 Jun 2011 08:44:59
Thanks / Gracias
Posted By: Transylvanian Date: 10 Jun 2011 11:25:13
Never seen this version before - many thanks.
Posted By: tbmusic Date: 10 Jun 2011 13:56:32
thank you
Posted By: AudioTiger Date: 11 Jun 2011 02:07:20
What a great classic!
AudioThanXXX!
Posted By: x_0001 Date: 11 Jun 2011 09:50:25
I have been looking for this mfsl alumi cd for a long time! thanks very much. ;)

Posted By: mauretto Date: 13 Jun 2011 20:36:57
grazie per il post...grande LP!
Posted By: audentity Date: 28 Jul 2011 05:43:39
Thank you so much for this. Great post!
Posted By: MegaHurts Date: 23 Aug 2011 21:45:46
Thank you!
Posted By: ShakeNStrain Date: 02 Nov 2011 15:54:50
Thank you very much
Posted By: 13mh13 Date: 20 Nov 2013 05:05:21
Thnx very much for the re-up. This is possibly the best sounding CD version (I have all and only UHQR Lp seem the overall best).