Loading...

U2 - The Joshua Tree (Remastered, Standard Edition) [2007]

Posted By : gonzalo76 | Date : 03 Dec 2009 20:01:41 | Comments : 5 |
|



U2 - The Joshua Tree (2007 Remastered) [Standard Edition]
EAC rip | FLAC, IMG+CUE, LOG | 1CD | 298 MB | Full Scans 300 dpi | 70 MB | RAR 3% Rec. | RS+HF
Rock | Label: Universal/Island | Catalog Number: 1744939 | Year: 2007



Album Details:

Artist: U2
Album: The Joshua Tree (Re-mastered Audio, Standard Edition, 2007)
Label: Universal/Island Records Ltd.
Catalogue #: 1744939
Format: CD, Album
Country: Argentina
Release Date: 2007
Number of Discs: 1
Language: English
Time: 50:10
Genre: Pop/Rock
Styles: Alternative/Indie Rock, Alternative Pop/Rock, Post-Punk


Tracklist:

01. Where The Streets Have No Name
02. I Still Haven't Found What I'm Looking For
03. With Or Without You
04. Bullet The Blue Sky
05. Running To Stand Still
06. Red Hill Mining Town
07. In God's Country
08. Trip Through Your Wires
09. One Tree Hill
10. Exit
11. Mothers Of The Disappeared.


Lineage:

Silver CD -> EAC (Secure Mode / Offset Corrected) -> Test & Copy Image & Create CUE Sheet -> Uncompressed -> WAV (1411 Kbit/s / 44100 Hz / 16 Bits / 2 Channels) -> FLAC frontend -> FLAC (compression level 6) -> AvaxHome


Technical information:

- Codec used for lossless compression: libFLAC 1.2.1 20070917.
- Samplerate: 44100 Hz Stereo / Bitrate: 16 bits.
- Full Scans in 300 dpi, jpg format in highest quality.
- EAC extraction LOG file included.
- Accurip log included.
- Cuesheet files included (WAV & FLAC).
- MD5 checksums included.




EAC Log
Exact Audio Copy V0.99 prebeta 5 from 4. May 2009

EAC extraction logfile from 29. November 2009, 22:29

U2 / The Joshua Tree (Remastered)

Used drive : ATAPI DVD A DH20A4P Adapter: 1 ID: 0

Read mode : Secure
Utilize accurate stream : Yes
Defeat audio cache : Yes
Make use of C2 pointers : No

Read offset correction : 6
Overread into Lead-In and Lead-Out : No
Fill up missing offset samples with silence : Yes
Delete leading and trailing silent blocks : No
Null samples used in CRC calculations : Yes
Used interface : Native Win32 interface for Win NT & 2000

Used output format : Internal WAV Routines
Sample format : 44.100 Hz; 16 Bit; Stereo


TOC of the extracted CD

Track | Start | Length | Start sector | End sector
---------------------------------------------------------
1 | 0:00.00 | 5:37.38 | 0 | 25312
2 | 5:37.38 | 4:37.36 | 25313 | 46123
3 | 10:14.74 | 4:55.39 | 46124 | 68287
4 | 15:10.38 | 4:31.41 | 68288 | 88653
5 | 19:42.04 | 4:17.26 | 88654 | 107954
6 | 23:59.30 | 4:52.65 | 107955 | 129919
7 | 28:52.20 | 2:56.45 | 129920 | 143164
8 | 31:48.65 | 3:31.61 | 143165 | 159050
9 | 35:20.51 | 5:22.28 | 159051 | 183228
10 | 40:43.04 | 4:13.03 | 183229 | 202206
11 | 44:56.07 | 5:14.17 | 202207 | 225773


Range status and errors

Selected range

Filename E:\AvaxHome\U2 - The Joshua Tree (Remastered).wav

Peak level 100.0 %
Range quality 100.0 %
Test CRC 4DCEE17E
Copy CRC 4DCEE17E
Copy OK

No errors occurred


AccurateRip summary

Track 1 cannot be verified as accurate (confidence 200) [A91733CC], AccurateRip returned [2383E94D]
Track 2 cannot be verified as accurate (confidence 200) [42540CE2], AccurateRip returned [B528A2C2]
Track 3 cannot be verified as accurate (confidence 200) [2CC22108], AccurateRip returned [54800EA1]
Track 4 cannot be verified as accurate (confidence 200) [1904B081], AccurateRip returned [95AA5D0E]
Track 5 cannot be verified as accurate (confidence 200) [68D5C9EE], AccurateRip returned [3B9BD358]
Track 6 cannot be verified as accurate (confidence 200) [C38C953B], AccurateRip returned [2BC6F004]
Track 7 cannot be verified as accurate (confidence 200) [C91EE451], AccurateRip returned [47F63A97]
Track 8 cannot be verified as accurate (confidence 200) [261EC9BA], AccurateRip returned [3BB69833]
Track 9 cannot be verified as accurate (confidence 200) [660B7581], AccurateRip returned [2A006C0D]
Track 10 cannot be verified as accurate (confidence 200) [5499C2F3], AccurateRip returned [3E16DD8B]
Track 11 cannot be verified as accurate (confidence 200) [009A2112], AccurateRip returned [6FA7CDD4]

No tracks could be verified as accurate
You may have a different pressing from the one(s) in the database

End of status report


Accurip Log
[Verification date: 30/11/2009 20:58:34]
[Disc ID: 00150d60-00b42229-8b0bc20b]
Track [ CRC ] Status
01 [a91733cc] (00/269) No matches
02 [42540ce2] (00/270) No matches
03 [2cc22108] (00/268) No matches
04 [1904b081] (00/268) No matches
05 [68d5c9ee] (00/268) No matches
06 [c38c953b] (00/268) No matches
07 [c91ee451] (00/268) No matches
08 [261ec9ba] (00/268) No matches
09 [660b7581] (00/268) No matches
10 [5499c2f3] (00/268) No matches
11 [009a2112] (00/268) No matches
Offsetted by -686:
01 [54c46913] (02/269) Accurately ripped
02 [83c908e7] (02/270) Accurately ripped
03 [17005ef8] (02/268) Accurately ripped
04 [e177e9b0] (02/268) Accurately ripped
05 [a56fcd3e] (02/268) Accurately ripped
06 [fcea056a] (02/268) Accurately ripped
07 [3eaed9a3] (02/268) Accurately ripped
08 [f255f813] (02/268) Accurately ripped
09 [b56ccf3e] (02/268) Accurately ripped
10 [371088cf] (02/268) Accurately ripped
11 [43e23d85] (02/268) Accurately ripped
Offsetted by -674:
01 [dbfe7f1f] (67/269) Accurately ripped
02 [c7e2c6d2] (68/270) Accurately ripped
03 [b2767a40] (66/268) Accurately ripped
04 [e79009c8] (66/268) Accurately ripped
05 [796ff7f7] (66/268) Accurately ripped
06 [837b38d4] (66/268) Accurately ripped
07 [ea7d9a06] (66/268) Accurately ripped
08 [ce476df2] (66/268) Accurately ripped
09 [13360d11] (66/268) Accurately ripped
10 [ce31564e] (66/268) Accurately ripped
11 [40b25ddf] (64/268) Accurately ripped
Offsetted by -10:
01 [2383e94d] (200/269) Accurately ripped
02 [b528a2c2] (200/270) Accurately ripped
03 [54800ea1] (200/268) Accurately ripped
04 [95aa5d0e] (200/268) Accurately ripped
05 [3b9bd358] (200/268) Accurately ripped
06 [2bc6f004] (200/268) Accurately ripped
07 [47f63a97] (200/268) Accurately ripped
08 [3bb69833] (200/268) Accurately ripped
09 [2a006c0d] (200/268) Accurately ripped
10 [3e16dd8b] (200/268) Accurately ripped
11 [6fa7cdd4] (200/268) Accurately ripped

Track [ CRC32 ] [W/O NULL] [ LOG ]
-- [4DCEE17E] [7E213CDC] CRC32
01 [ABC8D7A5] [03D909DE]
02 [A07BF771] [6054B8A3]
03 [784103E7] [B57595FF]
04 [3F33CDA6] [8FA2C759]
05 [F8B943C0] [8BF8A4B2]
06 [4D029229] [77F7B124]
07 [56D3BD1B] [2271963D]
08 [387AD67E] [51565A7C]
09 [277BAFA8] [240D0D82]
10 [814F2CA0] [0CFED3BF]
11 [EC5D2D08] [F8B972D2]


Audiochecker Log
AUDIOCHECKER v2.0 beta (build 457) - by Dester - opdester@freemail.hu
~~~~~~~~~~~~~~~~~~~~~~~~~~~~~~~~~~
-=== DO NOT EDIT THIS FILE! ===-

Path: ...\U2 - The Joshua Tree - Standard Edition - 2007 Remastered

01 -=- U2 - The Joshua Tree (Remastered).wav -=- CDDA (100%)

62641636




U2 - The Joshua Tree (Remastered, Standard Edition) [2007]

RapidShare

Part 1 | Part 2 | Part 3 | Scans

HotFile

Part 1 | Part 2 | Part 3 | Scans

----------
Album pass: www.avaxhome.ws_by_gonzalo76
Scans pass: www.avaxhome.ru_by_gonzalo76


Please, no mirrors !
To keep this post longer alive, please don't post the links and or passes in your comments.
Other users will be thankful for that!!!
In case you encounter dead links, please send me a private message.


Thank you very much.
Gonzalo





ADVERTISING » Very Fast Download!



« ADVERTISING




Posted By: retan Date: 03 Dec 2009 21:35:08
great! thanks a lot!
Posted By: martwwa Date: 15 Dec 2009 13:47:41
This is nice, THANKS! Merry Christmas!
Posted By: Purpleslon Date: 08 Aug 2010 08:58:50
Thank you very much!
Posted By: shaitans Date: 07 Nov 2010 14:03:40
Thanx! Super!
Posted By: extoltbt Date: 26 Jun 2011 04:39:24
great! thanks a lot!