Loading...

VA - Time-Life AM Gold #1 Hits Of The ’70s (’70-’74) (2000)

Posted By : EktorasClub | Date : 12 Jun 2013 20:09:41 | Comments : 3 |
|



VA - Time-Life AM Gold #1 Hits Of The ’70s (’70-’74)
EAC Rip | Included: EAC Log + CUE + Flac + Covers | Size: 451 MB | RAR files
Release: 2000 | Label: Time Life Music, Universal Music | Number: R984-29
Style: Funk, Soul, Rock | Stereo | FilePost.com, RapidShare.com

In the early 1970s, tile hippie generation began burning out on the long, loud, improvisational rock songs of the psychedelic era. Musicians and fans alike sought new directions. The dominant trend was toward confessional, folk-based songs, while the nostalgia movement that produced Sha Na Na reflected the yearning for a simpler time and music. ~Don McLean’s

VA - Time-Life Am Gold – #1 Hits Of The ’70S (’70-’74)
==========================================
01 – Three Dog Night – Joy To The World
02 – The Guess Who – American Woman
03 – Edwin Starr – War
04 – The Shocking Blue – Venus
05 – Three Dog Night – Mama Told Me (Not To Come)
06 – Charlie Rich – The Most Beautiful Girl
07 – Helen Reddy – I Am Woman
08 – Stories – Brother Louie
09 – Ray Stevens – The Streak
10 – George Mccrae – Rock Your Baby
11 – The O’jays – Love Train
12 – Isaac Hayes – Theme From Shaft
13 – Carl Douglas – Kung Fu Fighting
14 – Billy Preston – Will It Go Round In Circles
15 – Love Unlimiited Orchestra – Love’s Theme
16 – Vicki Lawrence – The Night The Lights Went Out In Georgia
17 – Harry Chapin – Cat’s In The Cradle
18 – Jim Croce – Time In A Bottle
19 – John Denver – Sunshine On My Shoulders
20 – Don Mclean – American Pie

EAC Log
Exact Audio Copy V1.0 beta 1 from 15. November 2010

EAC extraction logfile from 17. October 2011, 22:00

Various / Time-Life Am Gold - #1 Hits Of The '70S ('70-'74)

Used drive : _NEC DVD_RW ND-4550A Adapter: 0 ID: 0

Read mode : Secure
Utilize accurate stream : Yes
Defeat audio cache : No
Make use of C2 pointers : Yes

Read offset correction : 48
Overread into Lead-In and Lead-Out : No
Fill up missing offset samples with silence : Yes
Delete leading and trailing silent blocks : No
Null samples used in CRC calculations : No
Used interface : Native Win32 interface for Win NT & 2000

Used output format : Internal WAV Routines
Sample format : 44.100 Hz; 16 Bit; Stereo


TOC of the extracted CD

Track | Start | Length | Start sector | End sector
---------------------------------------------------------
1 | 0:00.00 | 3:17.27 | 0 | 14801
2 | 3:17.27 | 3:54.48 | 14802 | 32399
3 | 7:12.00 | 3:24.57 | 32400 | 47756
4 | 10:36.57 | 3:06.23 | 47757 | 61729
5 | 13:43.05 | 3:20.62 | 61730 | 76791
6 | 17:03.67 | 2:44.30 | 76792 | 89121
7 | 19:48.22 | 3:16.58 | 89122 | 103879
8 | 23:05.05 | 3:57.37 | 103880 | 121691
9 | 27:02.42 | 3:18.00 | 121692 | 136541
10 | 30:20.42 | 3:21.00 | 136542 | 151616
11 | 33:41.42 | 3:00.55 | 151617 | 165171
12 | 36:42.22 | 3:18.65 | 165172 | 180086
13 | 40:01.12 | 3:18.48 | 180087 | 194984
14 | 43:19.60 | 3:50.00 | 194985 | 212234
15 | 47:09.60 | 3:36.42 | 212235 | 228476
16 | 50:46.27 | 3:36.48 | 228477 | 244724
17 | 54:23.00 | 3:40.42 | 244725 | 261266
18 | 58:03.42 | 2:28.63 | 261267 | 272429
19 | 60:32.30 | 3:22.67 | 272430 | 287646
20 | 63:55.22 | 8:32.70 | 287647 | 326116


Range status and errors

Selected range

Filename E:\EktorasClub\VA - Time-Life Music - AM Gold 1970-79\Time-Life Am Gold - #1 Hits Of The '70S ('70-'74)\Various - Time-Life Am Gold - #1 Hits Of The '70S ('70-'74).wav

Peak level 100.0 %
Extraction speed 2.0 X
Range quality 100.0 %
Copy CRC 9A3A29EF
Copy OK

No errors occurred


AccurateRip summary

Track 1 accurately ripped (confidence 27) [5C67C853]
Track 2 accurately ripped (confidence 27) [1873E017]
Track 3 accurately ripped (confidence 27) [7FBA8E21]
Track 4 accurately ripped (confidence 27) [44AAAABC]
Track 5 accurately ripped (confidence 27) [C7F551A0]
Track 6 accurately ripped (confidence 27) [7716AE77]
Track 7 accurately ripped (confidence 27) [FB2DAB52]
Track 8 accurately ripped (confidence 27) [E825EA9A]
Track 9 accurately ripped (confidence 27) [459CAFFC]
Track 10 accurately ripped (confidence 27) [C3EAD138]
Track 11 accurately ripped (confidence 27) [BA3378C6]
Track 12 accurately ripped (confidence 27) [3FF98394]
Track 13 accurately ripped (confidence 27) [5686CC21]
Track 14 accurately ripped (confidence 27) [0333EDF0]
Track 15 accurately ripped (confidence 27) [2BC39BBE]
Track 16 accurately ripped (confidence 27) [CDE5ACCA]
Track 17 accurately ripped (confidence 26) [2FC28E3B]
Track 18 accurately ripped (confidence 26) [19F9F4B0]
Track 19 accurately ripped (confidence 26) [BCF2D585]
Track 20 accurately ripped (confidence 24) [0D6B695B]

All tracks accurately ripped

End of status report

==== Log checksum D3C108FA34B3FF6CA42B4901B21FD9E2225BFD6665A4E156AFC6D8071607686B ====

VA – Time-Life Music – AM Gold 1970
VA – Time-Life Music – AM Gold 1971
VA – Time-Life Music – AM Gold 1972
VA – Time-Life Music – AM Gold 1973
VA – Time-Life Music – AM Gold 1974
VA – Time-Life Music – AM Gold 1975
VA – Time-Life Music – AM Gold 1976
VA – Time-Life Music – AM Gold 1977
VA – Time-Life Music – AM Gold 1978
VA – Time-Life Music – AM Gold 1979
VA – Time-Life Music – AM Gold The Early '70s
VA – Time-Life Music – AM Gold #1 Hits Of The '70s ('75-'79)



-------------------------------------------------
My Blog Here you can find more fine audio stuff.

TradeMark


AccurateRip

Files compressed with WinRAR

ADVERTISING » Very Fast Download!



« ADVERTISING




Posted By: Macumazahn Date: 13 Jun 2013 04:24:02
Excellent, thanks! Really appreciate the time and trouble taken to re-up these cool collections!
Posted By: AudioTiger Date: 16 Jun 2013 10:59:58
AudioThanXXX! :)

Posted By: SwissCheese Date: 04 Sep 2013 14:45:05
This is an amazing series. Thank you for another great post!