Loading...

Virus - Locura (1985) [Sony #739111]

Posted By : d-urbano | Date : 28 Jan 2011 10:43:23 | Comments : 7 |
|



Virus - Locura (1985) [Sony #739111]
EAC Secure Rip | Flac, img+cue+log | Scans 300 dpi | RAR 3% Rec. | FSonic + FServe | 244 Mb
Synth Pop/New Wave | Sony Music Records | Originally Released: 1985

Was released in late 1985, This album is going to be called "Pecados" But in the end they decided on "Locura" The recording was made in New York and sold over 200,000 copies, With this work, Virus toured Latin America.
Cachorro Lopez participated as a guest. He was one of the best albums of that year. It is the favorite album of Federico Moura and the most sensual of all. This album is the song most remembered Virus: "Una Luna de Miel en la Mano", This song caused some controversy for its content, since masturbation was a part of a woman



eac log
Exact Audio Copy V0.99 prebeta 5 from 4. May 2009

EAC extraction logfile from 6. January 2011, 12:15

Virus / Locura

Used drive : HL-DT-STDVD-RAM GH22NS30 Adapter: 2 ID: 0

Read mode : Secure
Utilize accurate stream : Yes
Defeat audio cache : Yes
Make use of C2 pointers : No

Read offset correction : 102
Overread into Lead-In and Lead-Out : No
Fill up missing offset samples with silence : Yes
Delete leading and trailing silent blocks : No
Null samples used in CRC calculations : Yes
Used interface : Native Win32 interface for Win NT & 2000

Used output format : User Defined Encoder
Selected bitrate : 768 kBit/s
Quality : High
Add ID3 tag : No
Command line compressor : I:\Mis documentos\Mi música\iTunes\Exact Audio Copy\FLAC\FLAC.EXE
Additional command line options : -6 -V -T "ARTIST=%a" -T "TITLE=%t" -T "ALBUM=%g" -T "DATE=%y" -T "TRACKNUMBER=%n" -T "GENRE=%m" -T "COMMENT=%e" %s -o %d


TOC of the extracted CD

Track | Start | Length | Start sector | End sector
---------------------------------------------------------
1 | 0:00.00 | 4:36.62 | 0 | 20761
2 | 4:36.62 | 4:18.18 | 20762 | 40129
3 | 8:55.05 | 3:58.72 | 40130 | 58051
4 | 12:54.02 | 3:44.60 | 58052 | 74911
5 | 16:38.62 | 5:18.25 | 74912 | 98786
6 | 21:57.12 | 3:35.08 | 98787 | 114919
7 | 25:32.20 | 5:31.15 | 114920 | 139759
8 | 31:03.35 | 3:12.55 | 139760 | 154214


Range status and errors

Selected range

Filename I:\Mis documentos\Mi música\iTunes\Virus - Locura.wav

Peak level 98.8 %
Range quality 100.0 %
Test CRC D0FB96F3
Copy CRC D0FB96F3
Copy OK

No errors occurred


AccurateRip summary

Track 1 not present in database
Track 2 not present in database
Track 3 not present in database
Track 4 not present in database
Track 5 not present in database
Track 6 not present in database
Track 7 not present in database
Track 8 not present in database

None of the tracks are present in the AccurateRip database

End of status report





Tracklist:

1. Pronta Entrega
2. Tomo lo que Encuentro
3. Pecados Para Dos
4. Destino Circular
5. Una Luna de Miel en la Mano
6. Dicha Feliz
7. Sin Sisfraz
8. Lugares Comunes








Extra info:

- CD rip were made from my personal collection (silverCD, NOT CDR!).
- EAC was used for ripping the CD.
- EAC settings: Secure Mode, Offset corrected, Test & Copy Image & Create Cuesheet.
- Cuesheet files included.
- EAC ripping log included.
- Codec used for lossless compression: FLAC 1.2.1.
- Samplerate/Bitrate: 44.1kHz/16bits.
- Scans @ 300 dpi, bmp.




Download Linkz!!

Filesonic

------------------------------------------------------------

Fileserve


¡¡¡ No Mirrors, Please !!!

ADVERTISING » Very Fast Download!



« ADVERTISING




Posted By: musicnaut Date: 28 Jan 2011 10:53:16
Muchas gracias!! y segui posteando mas que esta muy bueno :)
Abrazos
Posted By: rinosaurio Date: 28 Jan 2011 11:05:54
d-urbano que paso con el post anterior (Virus - Relax (1984) ) lo borraron! por favor lo podes postear de nuevo?
desde ya muchas gracias.
Posted By: manu_architect Date: 30 Jan 2011 11:13:35
Un discazo del rock latino de los 80s.
Mil gracias, d-urbano; mil gracias de corazón.
Posted By: space22 Date: 31 Jan 2011 02:49:48
Great!!! Thank you!!!
Posted By: calisan Date: 31 Jan 2011 22:29:43
Wooow bendito disco! Unos de los mejores discos q' he escuchado del rock argentino sin duda. Lo descubri hace algunos años en baja calidad me quede maravillado con él, por q' por estas tierras es muy dificíl de ver este disco y ahora lo encuentro por primera vez en FLAC es una bendición de los dioses!
Gracias por este superpost y del otro disco de Virus q' nunca habia visto!
Posted By: ellanomiente Date: 15 Apr 2011 14:55:01
Muchísimas gracias viejo, no sabés cómo buscaba este disco...
Posted By: angeldj Date: 31 Dec 2012 01:14:37
Muy buen cd y en flac si el cd no sigue vivo igualmnte graicssss...