Loading...

Channel 4 - Sex: My British Job (2013)

Posted By : notbanned | Date : 26 Sep 2013 09:24:08 | Comments : 0 |
|


Channel 4 - Sex: My British Job (2013)

Channel 4 - Sex: My British Job (2013)
PDTV | 832x468 | .MP4/AVC @ 1525 Kbps | 1h 2mn | Audio: English AAC 128 kbps, 2 channels | Subs: English | 744 MiB
Genre: Documentary

Is a chilling expose as Hsiao works undercover as a housekeeper in London brothels and unveils the terrible reality of the British sex trade. Hsiao embarks on a prolonged period of secret filming, using cutting-edge camera glasses, to expose not just why illegal workers turn to sex work, but also how: through a complex combination of pressure and verbal abuse from the brothel owners, the lure of high earnings and the guilt they are made to feel about not providing for their families back home. This eye-opening film shows how easily Chinese and immigrant women can be drawn into sex work and highlights the shocking reality of what is happening behind closed doors up and down the country.


MediaInfo

General
Complete name : Ch4.Sex.My.British.Job.mp4
Format : MPEG-4
Format profile : Base Media
Codec ID : isom
File size : 744 MiB
Duration : 1h 2mn
Overall bit rate mode : Variable
Overall bit rate : 1 657 Kbps
Encoded date : UTC 2013-09-25 15:21:52
Tagged date : UTC 2013-09-25 15:21:52
Writing application : Lavf51.12.1

Video
ID : 1
Format : AVC
Format/Info : Advanced Video Codec
Format profile : High@L3.0
Format settings, CABAC : No
Format settings, ReFrames : 1 frame
Format settings, GOP : M=1, N=12
Codec ID : avc1
Codec ID/Info : Advanced Video Coding
Duration : 1h 2mn
Bit rate : 1 525 Kbps
Width : 832 pixels
Height : 468 pixels
Display aspect ratio : 16:9
Frame rate mode : Constant
Frame rate : 25.000 fps
Color space : YUV
Chroma subsampling : 4:2:0
Bit depth : 8 bits
Scan type : Progressive
Bits/(Pixel*Frame) : 0.157
Stream size : 684 MiB (92%)
Encoded date : UTC 2013-09-25 15:21:52
Tagged date : UTC 2013-09-25 15:21:52

Audio
ID : 2
Format : AAC
Format/Info : Advanced Audio Codec
Format profile : LC
Codec ID : 40
Duration : 1h 2mn
Bit rate mode : Variable
Bit rate : 128 Kbps
Channel(s) : 2 channels
Channel positions : Front: L R
Sampling rate : 48.0 KHz
Compression mode : Lossy
Stream size : 57.4 MiB (8%)
Encoded date : UTC 2013-09-25 15:21:52
Tagged date : UTC 2013-09-25 15:21:52


Screenshots:






ADVERTISING » Very Fast Download!



« ADVERTISING




No comments for the news