Loading...

Channel 5 - The Man Who Ate Himself to Death (2013)

Posted By : notbanned | Date : 10 Sep 2013 16:13:29 | Comments : 1 |
|


Channel 5 - The Man Who Ate Himself to Death (2013)

Channel 5 - The Man Who Ate Himself to Death (2013)
PDTV | 832x468 | .MP4/AVC @ 2008 Kbps | 45mn 2s | Audio: English AAC 128 kbps, 2 channels | Subs: None | 689 MiB
Genre: Documentary

The Man Who Ate Himself to Death - At nearly 65 stone Ricky Naputi is one of the world’s fattest men, a prisoner in his own home. He urgently needs to lose weight before his obesity kills him. But Ricky and wife Cheryl live in the Pacific Ocean on the island of Guam where there is no obesity surgery that might save his life. This is the story of the struggle and ultimately tragic failure to save Ricky. In a desperate effort to get help Ricky appeals to campaigner Angie Flores, herself a former weight loss surgery patient, who lives 10,000 miles away in Texas. Angie calls in first an American, then an Australian, surgeon who travel to Guam to meet Ricky and Cheryl. Both give Ricky an ultimatum – lose weight or the surgery can never happen.


MediaInfo

General
Complete name : Ch5.The.Man.Who.Ate.Himself.to.Death.mp4
Format : MPEG-4
Format profile : Base Media
Codec ID : isom
File size : 689 MiB
Duration : 45mn 2s
Overall bit rate mode : Variable
Overall bit rate : 2 139 Kbps
Encoded date : UTC 2013-09-09 23:33:55
Tagged date : UTC 2013-09-09 23:33:55

Video
ID : 1
Format : AVC
Format/Info : Advanced Video Codec
Format profile : High@L3.0
Format settings, CABAC : No
Format settings, ReFrames : 1 frame
Format settings, GOP : M=1, N=12
Codec ID : avc1
Codec ID/Info : Advanced Video Coding
Duration : 45mn 2s
Bit rate : 2 008 Kbps
Maximum bit rate : 5 187 Kbps
Width : 832 pixels
Height : 468 pixels
Display aspect ratio : 16:9
Frame rate mode : Constant
Frame rate : 25.000 fps
Color space : YUV
Chroma subsampling : 4:2:0
Bit depth : 8 bits
Scan type : Progressive
Bits/(Pixel*Frame) : 0.206
Stream size : 647 MiB (94%)
Encoded date : UTC 2013-09-09 22:20:53
Tagged date : UTC 2013-09-09 23:34:22

Audio
ID : 2
Format : AAC
Format/Info : Advanced Audio Codec
Format profile : LC
Codec ID : 40
Duration : 45mn 2s
Bit rate mode : Variable
Bit rate : 128 Kbps
Maximum bit rate : 157 Kbps
Channel(s) : 2 channels
Channel positions : Front: L R
Sampling rate : 48.0 KHz
Compression mode : Lossy
Stream size : 41.2 MiB (6%)
Encoded date : UTC 2013-09-09 23:34:20
Tagged date : UTC 2013-09-09 23:34:22

Text
ID : 3
Format : Timed text
Codec ID : tx3g
Duration : 45mn 1s
Bit rate mode : Variable
Bit rate : 198 bps
Stream size : 65.2 KiB (0%)
Encoded date : UTC 2013-09-09 23:34:22
Tagged date : UTC 2013-09-09 23:34:22


Screenshots:






ADVERTISING » Very Fast Download!



« ADVERTISING




Posted By: Antipop Date: 24 Sep 2013 12:42:47
Thanks for sharing.