Loading...

PBS - God's Country (1985)

Posted By : vivid23 | Date : 09 Oct 2013 14:31:59 | Comments : 1 |
|



PBS - God's Country (1985)
PDTV | 720x544 | AVI/XviD @ 2135 Kbps | 89mn | Audio: English AC3 192 kbps, 2 channels | Subs: None | 1.46 GB
Genre: Documentary

Over the course of a nearly forty-year career, Louis Malle forged a reputation as one of the world’s most versatile cinematic storytellers, with such widely acclaimed, and wide-ranging, masterpieces as Elevator to the Gallows, My Dinner with Andre, and Au revoir les enfants. At the same time, however, with less fanfare, Malle was creating a parallel, even more personal body of work as a documentary filmmaker. With the discerning eye of a true artist and the investigatory skills of a great journalist, Malle takes us from a street corner in Paris to America’s heartland to the expanses of India in his astonishing epic Phantom India. These are some of the most engaging and fascinating nonfiction films ever made.

In 1979, Louis Malle traveled into the heart of Minnesota to capture the everyday lives of the men and women in a prosperous farming community. Six years later, during Ronald Reagan’s second term, he returned to find drastic economic decline. Free of stereotypes about America's heartland, God's Country, commissioned for American public television, is a stunning work of emotional and political clarity.

Mediainfo log
Video
ID : 0
Format : MPEG-4 Visual
Format profile : Advanced Simple@L5
Format settings, BVOP : Yes
Format settings, QPel : No
Format settings, GMC : No warppoints
Format settings, Matrix : Default (MPEG)
Codec ID : DX50
Codec ID/Hint : DivX 5
Duration : 1h 29mn
Bit rate : 2 135 Kbps
Width : 720 pixels
Height : 544 pixels
Display aspect ratio : 4:3
Frame rate : 23.976 fps
Color space : YUV
Chroma subsampling : 4:2:0
Bit depth : 8 bits
Scan type : Progressive
Compression mode : Lossy
Bits/(Pixel*Frame) : 0.227
Stream size : 1.33 GiB (91%)
Writing library : XviD 1.2.1 (UTC 2008-12-04)

Audio
ID : 1
Format : AC-3
Format/Info : Audio Coding 3
Mode extension : CM (complete main)
Codec ID : 2000
Duration : 1h 29mn
Bit rate mode : Constant
Bit rate : 192 Kbps
Channel(s) : 1 channel
Channel positions : Front: C
Sampling rate : 48.0 KHz
Bit depth : 16 bits
Compression mode : Lossy
Stream size : 123 MiB (8%)
Alignment : Aligned on interleaves
Interleave, duration : 32 ms (0.77 video frame)






ADVERTISING » Very Fast Download!



« ADVERTISING




Posted By: virginiawolf Date: 09 Oct 2013 20:21:52
MANY THANKS!