Loading...

Legendary: Tomb of the Dragon (2013)

Posted By : vartics | Date : 30 Nov 2013 07:40:28 | Comments : 0 |
|



Legendary: Tomb of the Dragon (2013)
English | BluRay-Rip 720p | MKV | AVC, 5 251 Kbps | 1280x536 | 23.976 fps | 4.37 GB
Audio: DTS, 1 509 Kbps | 6 channels | 48.0 KHz | Subs: None | 1h 32mn
Genre: Action | Adventure

Travis and his team travel to China in search of what isn't supposed to exist ... their mission to capture a Cryptid which is wreaking havoc in a remote village and they need to do this before it is killed by Harker, the legendary bounty hunter.



MediaInfo

General
Unique ID : 190158598857456798862675773615967001949 (0x8F0F36C6E250955BA6A806A881C35D5D)
Complete name : Legendary: Tomb of the Dragon-720p.mkv
Format : Matroska
Format version : Version 4 / Version 2
File size : 4.37 GiB
Duration : 1h 32mn
Overall bit rate : 6 762 Kbps
Encoded date : UTC 2013-11-29 18:28:17
Writing application : mkvmerge v6.5.0 ('Isn't she lovely') built on Oct 20 2013 12:50:05
Writing library : libebml v1.3.0 + libmatroska v1.4.1

Video
ID : 1
Format : AVC
Format/Info : Advanced Video Codec
Format profile : High@L4.1
Format settings, CABAC : Yes
Format settings, ReFrames : 5 frames
Codec ID : V_MPEG4/ISO/AVC
Duration : 1h 32mn
Bit rate : 5 251 Kbps
Width : 1 280 pixels
Height : 536 pixels
Display aspect ratio : 2.40:1
Frame rate mode : Constant
Frame rate : 23.976 fps
Color space : YUV
Chroma subsampling : 4:2:0
Bit depth : 8 bits
Scan type : Progressive
Bits/(Pixel*Frame) : 0.319
Stream size : 3.31 GiB (76%)
Writing library : x264 core 140 r2377 1ca7bb9
Encoding settings : cabac=1 / ref=5 / deblock=1:0:0 / analyse=0x3:0x113 / me=umh / subme=8 / psy=1 / psy_rd=1.00:0.00 / mixed_ref=1 / me_range=16 / chroma_me=1 / trellis=1 / 8x8dct=1 / cqm=0 / deadzone=21,11 / fast_pskip=1 / chroma_qp_offset=-2 / threads=12 / lookahead_threads=2 / sliced_threads=0 / nr=0 / decimate=1 / interlaced=0 / bluray_compat=0 / constrained_intra=0 / bframes=3 / b_pyramid=2 / b_adapt=2 / b_bias=0 / direct=3 / weightb=1 / open_gop=0 / weightp=2 / keyint=240 / keyint_min=24 / scenecut=40 / intra_refresh=0 / rc_lookahead=50 / rc=2pass / mbtree=1 / bitrate=5251 / ratetol=1.0 / qcomp=0.60 / qpmin=0 / qpmax=69 / qpstep=4 / cplxblur=20.0 / qblur=0.5 / ip_ratio=1.40 / aq=1:1.00
Language : English
Default : Yes
Forced : No

Audio
ID : 2
Format : DTS
Format/Info : Digital Theater Systems
Mode : 16
Format settings, Endianness : Big
Codec ID : A_DTS
Duration : 1h 32mn
Bit rate mode : Constant
Bit rate : 1 509 Kbps
Channel count : 6 channels
Channel positions : Front: L C R, Side: L R, LFE
Sampling rate : 48.0 KHz
Bit depth : 24 bits
Compression mode : Lossy
Stream size : 998 MiB (22%)
Language : English
Default : Yes
Forced : No

Menu
00:00:00.000 : en:00:00:00.000
00:03:37.592 : en:00:03:37.592
00:10:12.237 : en:00:10:12.237
00:15:06.030 : en:00:15:06.030
00:24:50.155 : en:00:24:50.155
00:36:36.653 : en:00:36:36.653
00:50:05.753 : en:00:50:05.753
00:58:12.447 : en:00:58:12.447
01:05:20.583 : en:01:05:20.583
01:17:34.692 : en:01:17:34.692
01:22:06.130 : en:01:22:06.130
01:25:05.309 : en:01:25:05.309


Screenshots:




ADVERTISING » Very Fast Download!



« ADVERTISING




No comments for the news