Loading...

National Geographic - Megastructures: Korean Superlink (2012)

Posted By : ParRus | Date : 06 Jan 2013 02:22:13 | Comments : 0 |
|



National Geographic - Megastructures: Korean Superlink (2012)
SAT-Rip | English | MP4 | 712 x 404 | AVC ~1030 Kbps | 25 fps
AAC | 128 kbps | 48.0 KHz | 2 channels | 00:44:59 | 374 MB
Genre: Documentary

South Korea never constructed a submerged tunnel, but now tackles the challenge of building one of the deepest immersed highways on Earth. Designed for the fickle conditions of the Pacific, the giant tunnel must be both earthquake and typhoon proof.

MediaInfo:
General
Complete name : National.Geographic.Megastructures.Korean.Superlink.mp4
Format : MPEG-4
Format profile : Base Media
Codec ID : isom
File size : 374 MiB
Duration : 44mn 59s
Overall bit rate mode : Variable
Overall bit rate : 1 162 Kbps
Encoded date : UTC 2013-01-04 16:57:26
Tagged date : UTC 2013-01-04 16:57:26
Video #1
ID : 1
Format : AVC
Format/Info : Advanced Video Codec
Format profile : High@L3.1
Format settings, CABAC : Yes
Format settings, ReFrames : 5 frames
Codec ID : avc1
Codec ID/Info : Advanced Video Coding
Duration : 44mn 59s
Bit rate : 1 030 Kbps
Maximum bit rate : 5 742 Kbps
Width : 712 pixels
Height : 404 pixels
Display aspect ratio : 16:9
Frame rate mode : Constant
Frame rate : 25.000 fps
Color space : YUV
Chroma subsampling : 4:2:0
Bit depth : 8 bits
Scan type : Progressive
Bits/(Pixel*Frame) : 0.143
Stream size : 331 MiB (89%)
Title : Video
Writing library : x264 core 129 r2230 1cffe9f
Encoding settings : cabac=1 / ref=5 / deblock=1:0:0 / analyse=0x3:0x113 / me=umh / subme=8 / psy=1 / psy_rd=1.00:0.00 / mixed_ref=1 / me_range=16 / chroma_me=1 / trellis=1 / 8x8dct=1 / cqm=0 / deadzone=21,11 / fast_pskip=1 / chroma_qp_offset=-2 / threads=6 / lookahead_threads=1 / sliced_threads=0 / nr=0 / decimate=1 / interlaced=0 / bluray_compat=0 / constrained_intra=0 / bframes=3 / b_pyramid=2 / b_adapt=2 / b_bias=0 / direct=3 / weightb=1 / open_gop=0 / weightp=2 / keyint=250 / keyint_min=25 / scenecut=40 / intra_refresh=0 / rc_lookahead=50 / rc=crf / mbtree=1 / crf=22.0 / qcomp=0.60 / qpmin=0 / qpmax=69 / qpstep=4 / ip_ratio=1.40 / aq=1:1.00
Encoded date : UTC 2013-01-04 16:57:26
Tagged date : UTC 2013-01-04 16:57:48
Audio #2
ID : 2
Format : AAC
Format/Info : Advanced Audio Codec
Format profile : LC
Codec ID : 40
Duration : 44mn 59s
Bit rate mode : Variable
Bit rate : 128 Kbps
Maximum bit rate : 163 Kbps
Channel(s) : 2 channels
Channel positions : Front: L R
Sampling rate : 48.0 KHz
Compression mode : Lossy
Delay relative to video : -3s 333ms
Stream size : 41.1 MiB (11%)
Language : English
Encoded date : UTC 2013-01-04 16:57:45
Tagged date : UTC 2013-01-04 16:57:48






For more, Visit my AH-blog

no mirrors please, Follow The Rules

ADVERTISING » Very Fast Download!



« ADVERTISING




No comments for the news