Loading...

Seven Ways from Sundown (1960)

Posted By : AvaxAnoosh | Date : 05 Jul 2013 07:56:28 | Comments : 1 |
|



Seven Ways from Sundown (1960)
Language: English | Subs: None
DVDRip | 1h 22mn | AVI | XviD @1,037 Kbps 25.000 fps | 352 x 256 | MP3 @128 Kbps 2chnls 48.0kHz | 705 MB
Genre: Action | Adventure | Western | Country: USA

Audie Murphy is again the kid who puts on a badge to catch the bad guy, skillfully played by Barry Sullivan. On the way back to town the two develop a curiously close relationship - Sullivan passes up several chances to get away - but in the end Sullivan "asks for it" and Murphy obliges.

IMDb: http://www.imdb.com/title/tt0054296/
Director: Harry Keller
Stars: Audie Murphy, Barry Sullivan, Venetia Stevenson

MediaInfo
General
Complete name : Seven Ways From Sundown (1960).avi
Format : AVI
Format/Info : Audio Video Interleave
File size : 697 MiB
Duration : 1h 22mn
Overall bit rate : 1 178 Kbps

Video
ID : 0
Format : MPEG-4 Visual
Format settings, BVOP : Yes
Format settings, QPel : No
Format settings, GMC : No warppoints
Format settings, Matrix : Default (H.263)
Codec ID : XVID
Codec ID/Hint : XviD
Duration : 1h 22mn
Bit rate : 1 037 Kbps
Width : 352 pixels
Height : 256 pixels
Display aspect ratio : 1.375
Frame rate : 25.000 fps
Color space : YUV
Chroma subsampling : 4:2:0
Bit depth : 8 bits
Scan type : Progressive
Compression mode : Lossy
Bits/(Pixel*Frame) : 0.460
Stream size : 614 MiB (88%)

Audio
ID : 1
Format : MPEG Audio
Format version : Version 1
Format profile : Layer 3
Mode : Joint stereo
Mode extension : MS Stereo
Codec ID : 55
Codec ID/Hint : MP3
Duration : 1h 22mn
Bit rate mode : Constant
Bit rate : 128 Kbps
Channel(s) : 2 channels
Sampling rate : 48.0 KHz
Compression mode : Lossy
Stream size : 75.7 MiB (11%)
Alignment : Split accross interleaves
Interleave, duration : 24 ms (0.60 video frame)

Note: This release has a little low resolution. Pls be aware of that before downloading. Thanks!


Screenshot:



No Mirrors Please!

Private Message me If the Links are Dead.


Visit My Blog For All Latest Movies!

ADVERTISING » Very Fast Download!



« ADVERTISING




Posted By: vezy Date: 06 Jul 2013 13:10:28
Great share ! Thanks