Loading...

The Terminator (1984)

Posted By : a_l_chemist | Date : 11 Sep 2011 02:52:04 | Comments : 1 |
|


The Terminator

The Terminator (1984)
BDRip | AVI | XviD | 704x384, 23.976 fps, 1550 kbps | 01:47:13 | 1,58 GB
English: AC3, 6ch, 448 kbps | Subs: English (srt)
Genre: Action | Sci-Fi

The Terminator is a 1984 science fiction action film directed by James Cameron, co-written by Cameron and William Wisher Jr., and starring Arnold Schwarzenegger, Michael Biehn, and Linda Hamilton. Though not expected to be either a commercial or critical success, The Terminator topped the American box office for two weeks and helped launch the film careers of James Cameron and Arnold Schwarzenegger. In 2008, it was selected by the Library of Congress for preservation in the United States National Film Registry, being deemed 'culturally, historically, or aesthetically significant.'


Plot: 1984 Los Angeles: One is a Terminator (Arnold Schwarzenegger), a cyborg assassin programmed to kill Sarah Connor (Linda Hamilton); the other is Kyle Reese (Michael Biehn), a human resistance fighter sent to protect her. After killing two other Sarah Connors listed in the telephone directory, the Terminator tracks its target to a nightclub. Kyle saves Sarah from the Terminator's attack and the two make an escape. Kyle explains that in the near future an artificial intelligence network called Skynet will become self-aware and initiate a nuclear holocaust of mankind. Sarah's yet-unborn son John will rally the survivors and lead a resistance movement against Skynet and its army of machines. With the Resistance on the verge of victory, Skynet has sent a Terminator back in time to kill Sarah before John can be born, as a last-ditch effort to avert the formation of the Resistance. The Terminator is an emotionless and efficient killing machine with a powerful metal endoskeleton, but with an external layer of living tissue so that it resembles a human being.


Kyle and Sarah are again attacked by the Terminator, leading to a car chase and their arrest. Lieutenant Ed Traxler (Paul Winfield) and Detective Hal Vukovich (Lance Henriksen) tell Sarah that Kyle is insane. Kyle is questioned by psychologist Dr. Silberman (Earl Boen), who concludes that he is paranoid and delusional. The Terminator attacks the police station and kills many police officers, including Traxler and Vukovich, in its attempt to locate Sarah, but she and Kyle escape and seek refuge in a motel. Kyle confesses that he has long been in love with Sarah, having been given a photograph of her by her son John. Sarah reciprocates Kyle's feelings and they have sex. The Terminator tracks them to the motel and wounds Kyle. In the ensuing chase the Terminator is caught in the blast of an exploding gasoline tank truck. With its external flesh burned away, it pursues Sarah and Kyle into a factory. Kyle jams a pipe bomb into its abdomen, blowing off its legs and one of its arms, but Kyle himself is killed. Still partially functional, the Terminator drags itself toward Sarah by its remaining arm.
--from wikipedia

.....IMDb | Rovi





MediaInfo
General
Name : The Terminator.avi
Format : AVI
Format/Info : Audio Video Interleave
File size : 1.50 GiB
Duration : 1h 47mn
Overall bit rate : 2 007 Kbps
Movie name : The Terminator
Writing application : VirtualDubMod 1.5.10.2 (build 2540/release)
Writing library : VirtualDubMod build 2540/release

Video
ID : 0
Format : MPEG-4 Visual
Format profile : Advanced Simple@L5
Format settings, BVOP : 2
Format settings, QPel : No
Format settings, GMC : No warppoints
Format settings, Matrix : Custom
Codec ID : XVID
Codec ID/Hint : XviD
Duration : 1h 47mn
Bit rate : 1 550 Kbps
Width : 704 pixels
Height : 384 pixels
Display aspect ratio : 16:9
Frame rate : 23.976 fps
Color space : YUV
Chroma subsampling : 4:2:0
Bit depth : 8 bits
Scan type : Progressive
Compression mode : Lossy
Bits/(Pixel*Frame) : 0.239
Stream size : 1.16 GiB (77%)
Writing library : XviD 56

Audio
ID : 1
Format : AC-3
Format/Info : Audio Coding 3
Mode extension : CM (complete main)
Codec ID : 2000
Duration : 1h 47mn
Bit rate mode : Constant
Bit rate : 448 Kbps
Channel(s) : 6 channels
Channel positions : Front: L C R, Side: L R, LFE
Sampling rate : 48.0 KHz
Bit depth : 16 bits
Compression mode : Lossy
Stream size : 344 MiB (22%)
Alignment : Split accross interleaves
Interleave, duration : 42 ms (1.00 video frame)
Interleave, preload duration : 500 ms


Download:

Filesonic

Wupload

Filepost

Fileserve

Interchangeable links
ADVERTISING » Very Fast Download!



« ADVERTISING




Posted By: smoothcue2005 Date: 09 Dec 2011 19:42:50
thanking you