Loading...

Sex Friends (2011)

Posted By : FenixN | Date : 24 Feb 2011 16:37:44 | Comments : 0 |
|



Sex Friends (2011)
TS | AVI / XviD, 1851 kb/s | 688x384 | 01:38:41 | French: MP3, 128 kb/s (2 ch) | 1.37 GB
Genre: Comedy, Romance | USA

Entre "Sex Friends", il faut respecter quelques règles de base :Ne jamais s?offrir de cadeaux.Ne pas dîner en tête à tête.Accepter la concurrence.Oublier le mot "chéri(e)".Toujours partir avant le petit-déjeuner.Et surtout, ne jamais tomber amoureux !Est-ce bien clair pour Emma et Adam ?

Réalisateur : Ivan Reitman
Acteurs : Natalie Portman, Ashton Kutcher, Kevin Kline

imdb: 6,2/10 (5 173 votes)

MediaInfo:
Format : AVI
Format/Info : Audio Video Interleave
File size : 1.37 GiB
Duration : 1h 38mn
Overall bit rate : 1 989 Kbps
Director : TEAM-SERENiTY
Writing application : Nandub v1.0rc1
Writing library : VirtualDub build 32706/release
Copyright : TEAM-SERENiTY

Video
ID : 0
Format : MPEG-4 Visual
Format profile : Advanced Simple@L5
Format settings, BVOP : Yes
Format settings, QPel : No
Format settings, GMC : No warppoints
Format settings, Matrix : Default (H.263)
Muxing mode : Packed bitstream
Codec ID : XVID
Codec ID/Hint : XviD
Duration : 1h 38mn
Bit rate : 1 851 Kbps
Width : 688 pixels
Height : 384 pixels
Display aspect ratio : 16:9
Frame rate : 25.000 fps
Resolution : 8 bits
Colorimetry : 4:2:0
Scan type : Progressive
Bits/(Pixel*Frame) : 0.280
Stream size : 1.28 GiB (93%)
Writing library : XviD 1.2.1 (UTC 2008-12-04)

Audio
ID : 1
Format : MPEG Audio
Format version : Version 1
Format profile : Layer 3
Mode : Joint stereo
Format_Settings_ModeExtension : MS Stereo
Codec ID : 55
Codec ID/Hint : MP3
Duration : 1h 38mn
Bit rate mode : Constant
Bit rate : 128 Kbps
Channel(s) : 2 channels
Sampling rate : 44.1 KHz
Stream size : 90.3 MiB (6%)
Alignment : Split accross interleaves
Interleave, duration : 40 ms (1.00 video frame)
Interleave, preload duration : 500 ms


screenshot




Need more movie with french language?
Welcome to my avaxhome blog: here

ADVERTISING » Very Fast Download!



« ADVERTISING




No comments for the news