Loading...

(Fr5) Europe, une lune de Jupiter (2012)

Posted By : Morocco | Date : 22 May 2012 20:43:34 | Comments : 0 |
|



(Fr5) Europe, une lune de Jupiter (2012)
TNT-Rip by Clo2 | French | 50min | 640 x 368 | 25.000 fps | Avi | MPEG-4 XviD @ 904 Kbps | MP3 @ 112 Kbps | 364 MB
Genre : Documentaire

La Terre abrite-t-elle la seule forme de vie dans l’univers ? Europe, une des lunes de Jupiter, compte parmi les planètes qui pourraient probablement "renfermer de la vie".

Elle est recouverte d’une importante couche de glace. Les scientifiques ont observé que la présence d’eau suffisait au développement d’organismes.

Mais loin du soleil, la vie est-elle envisageable ? Sur terre, la vie sans lumière existe dans les profondeurs du Pacifique, où grouillent des centaines d’organismes vivants grâce à l’énergie chimique produite par des sources hydrothermales.

Si certains scientifiques sont sceptiques quant à Europe, les conditions semblent pourtant bien réunies. Mais seule une mission spatiale établira cette possibilité.

Bill Stone travaille sur le projet Endurance, un engin spatial qui sera capable d’aller sur Europe...

MediaInfo
Format : AVI
Format/Info : Audio Video Interleave
File size : 364 MiB
Duration : 49mn 39s
Overall bit rate : 1 026 Kbps
Writing application : VirtualDubMod 1.5.10.3 Fr | www.virtualdub-fr.org || (build 2550/release)
Writing library : VirtualDubMod build 2550/release

Video
ID : 0
Format : MPEG-4 Visual
Format profile : Advanced Simple@L5
Format settings, BVOP : 2
Format settings, QPel : No
Format settings, GMC : No warppoints
Format settings, Matrix : Default (MPEG)
Muxing mode : Packed bitstream
Codec ID : XVID
Codec ID/Hint : XviD
Duration : 49mn 39s
Bit rate : 904 Kbps
Width : 640 pixels
Height : 368 pixels
Display aspect ratio : 16:9
Frame rate : 25.000 fps
Color space : YUV
Chroma subsampling : 4:2:0
Bit depth : 8 bits
Scan type : Progressive
Compression mode : Lossy
Bits/(Pixel*Frame) : 0.154
Stream size : 321 MiB (88%)
Writing library : XviD 64

Audio
ID : 1
Format : MPEG Audio
Format version : Version 1
Format profile : Layer 3
Mode : Joint stereo
Mode extension : MS Stereo
Codec ID : 55
Codec ID/Hint : MP3
Duration : 49mn 39s
Bit rate mode : Constant
Bit rate : 112 Kbps
Channel(s) : 2 channels
Sampling rate : 48.0 KHz
Compression mode : Lossy
Stream size : 39.8 MiB (11%)
Alignment : Aligned on interleaves
Interleave, duration : 40 ms (1.00 video frame)
Interleave, preload duration : 504 ms
Writing library : LAME3.98r
Encoding settings : -m j -V 4 -q 3 -lowpass 15.6 -b 112






No Pass ;)

Un merci ?

~ Lien ~

Filepost
ADVERTISING » Very Fast Download!



« ADVERTISING




No comments for the news